osu file format v9

[General]
AudioFilename: Mr. Projectile - You need (e-cut).mp3
AudioLeadIn: 0
PreviewTime: 64040
Countdown: 0
SampleSet: Soft
StackLeniency: 0.7
Mode: 0
LetterboxInBreaks: 0
SkinPreference:Default

[Editor]
DistanceSpacing: 1.4
BeatDivisor: 4
GridSize: 8

[Metadata]
Title:You Need
Artist:Mr. Projectile
Creator:Adarin
Version:Hard
Source:Sin City
Tags:sin city breakbeat ambient scratch

[Difficulty]
HPDrainRate:6
CircleSize:4
OverallDifficulty:6
ApproachRate:6
SliderMultiplier:1.3
SliderTickRate:2

[Events]
//Background and Video events
0,0,"1oA1i.jpg"
//Break Periods
2,33213,34630
2,90102,91519
//Storyboard Layer 0 (Background)
//Storyboard Layer 1 (Fail)
//Storyboard Layer 2 (Pass)
//Storyboard Layer 3 (Foreground)
//Storyboard Sound Samples
//Background Colour Transformations
3,100,0,0,0

[TimingPoints]
125,444.444444444444,4,2,2,0,1,0
7236,-100,4,2,1,80,0,0
21458,-100,4,2,1,80,0,0
35680,-133.333333333333,4,2,0,60,0,0
49902,-100,4,2,0,60,0,0
64124,-100,4,2,1,70,0,1
90125,-100,4,2,1,80,0,0
92569,-100,4,2,1,60,0,0
99680,-100,4,2,1,50,0,0
106791,-100,4,2,1,40,0,0
114347,-100,4,2,0,50,0,0

[Colours]
Combo1 : 155,0,221
Combo2 : 128,255,255
Combo3 : 0,0,147
Combo4 : 128,0,128

[HitObjects]
256,192,1458,12,0,3680
256,192,3902,12,0,6347
41,191,7236,2,0,B|64:131|176:131|201:191,1,195,0|2
203,243,8125,2,0,B|227:280|291:280|315:243,1,130,8|0
259,154,9013,6,0,B|259:298,2,130,2|0|8
289,111,10125,2,0,B|313:135|361:143,1,65,0|0
398,140,10569,2,0,B|438:140|462:116,1,65,0|2
381,49,11236,1,0
484,35,11680,6,0,B|484:115,1,65,8|0
462,147,12125,1,0
462,147,12347,1,0
426,185,12569,2,0,B|370:284|210:284|154:185,1,325,0|2
125,141,13902,6,0,B|10:245,2,130,8|0|0
177,51,15236,1,8
217,84,15458,1,0
257,50,15680,1,0
344,105,16125,5,2
384,200,16569,1,0
423,296,17013,2,0,B|335:296,1,65,8|0
306,296,17458,1,0
238,375,17902,2,0,B|190:363|167:286|202:251,2,130,2|2|10
288,283,19236,6,0,B|332:260|332:215,1,65,0|2
333,183,19680,2,0,B|333:51,2,130,2|2|10
334,184,20791,2,0,B|201:184,1,130,2|2
206,184,21458,6,0,B|70:184,2,130,2|0|2
206,184,22569,1,8
206,79,23013,1,8
206,27,23236,6,0,B|342:27,2,130,2|0|2
153,27,24347,1,8
48,27,24791,1,8
57,79,25013,6,0,B|57:127|113:127,1,65,2|0
95,177,25458,2,0,B|95:225|39:225,1,65,0|2
62,275,25902,2,0,B|62:323|118:323,2,65,8|0|8
176,280,26791,2,0,B|112:176|161:74|351:74|400:176|336:280,1,455,2|14
304,320,28569,6,0,B|452:368,2,130,2|2|10
247,235,29902,1,2
247,235,30124,1,8
247,235,30347,6,0,B|158:120,2,130,2|2|10
335,180,31680,2,0,B|367:114,1,65,2|10
391,77,32124,5,2
287,66,32569,1,2
189,103,33013,1,14
56,192,35680,6,0,B|168:120|320:248|456:160,2,389.999988377095,2|2|2
40,272,39680,2,0,B|56:320|128:320,1,97.4999970942737,2|2
192,344,40569,2,0,B|248:368|304:344,1,97.4999970942737,2|2
360,320,41458,2,0,B|408:320|448:264,1,97.4999970942737,2|2
432,192,42347,1,2
432,192,42569,1,2
432,192,42791,6,0,B|320:240|176:120|32:192,2,389.999988377095,2|2|2
351,81,46791,2,0,B|303:81,1,48.7499985471368
302,81,47236,1,8
165,81,47680,1,0
28,81,48124,6,0,B|29:29,3,48.7499985471368
28,32,49013,1,8
47,167,49458,1,2
37,218,49680,1,0
34,269,49902,6,0,B|76:246|128:286|177:237,2,130,2|0|2
214,296,51236,2,0,B|231:390|390:390|406:296,2,260,2|10|10
48,220,53458,5,8
65,170,53680,2,0,B|123:108,1,65,2|0
148,88,54124,2,0,B|229:52,2,65,2|8|2
311,168,55013,2,0,B|399:160,1,65,2|8
424,179,55458,1,2
422,232,55680,2,0,B|502:280,2,65,0|2|8
393,276,56347,2,0,B|450:348,1,65,2|8
260,269,57013,6,0,B|382:201,2,130,10|2|10
254,320,58124,2,0,B|294:320,2,32.5,2|2|2
210,348,58569,1,0
162,326,58791,6,0,B|122:230|162:134,2,195,10|10|10
213,235,60569,6,0,B|357:235,2,130,8|0|8
160,235,61680,2,0,B|120:235,2,32.5,0|0|0
176,185,62124,1,2
194,136,62347,1,14
472,192,63680,5,2
472,192,64124,2,0,B|449:252|337:252|312:192,1,195,2|2
310,140,65013,2,0,B|286:103|222:103|198:140,1,130,8|2
254,229,65902,6,0,B|254:85,2,130,2|2|10
224,272,67013,2,0,B|200:248|152:240,1,65,0|2
115,243,67458,2,0,B|75:243|51:267,1,65,0|2
132,334,68124,1,2
29,348,68569,6,0,B|29:268,1,65,10|0
51,236,69013,1,2
51,236,69236,1,8
87,198,69458,2,0,B|143:99|303:99|359:198,1,325,2|2
388,242,70791,6,0,B|503:138,2,130,8|2|2
336,332,72124,1,10
296,299,72347,1,0
256,333,72569,1,2
169,278,73013,5,2
129,183,73458,1,2
90,87,73902,2,0,B|178:87,1,65,10|2
207,87,74347,1,2
275,8,74791,2,0,B|323:20|346:97|311:132,2,130,2|2|10
225,100,76124,6,0,B|181:123|181:168,1,65,0|2
180,200,76569,2,0,B|180:332,2,130,2|2|10
179,199,77680,2,0,B|312:199,1,127.5,2|2
307,199,78347,6,0,B|443:199,2,130,2|2|2
307,199,79458,1,10
307,304,79902,1,10
307,356,80124,6,0,B|171:356,2,130,2|2|2
360,356,81236,1,10
465,356,81680,1,10
456,304,81902,6,0,B|456:256|400:256,1,65,2|0
418,206,82347,2,0,B|418:158|474:158,1,65,2|2
451,108,82791,2,0,B|451:60|395:60,2,65,10|0|10
336,104,83680,2,0,B|400:208|351:310|161:310|112:208|176:104,1,455,2|14
203,60,85458,6,0,B|55:12,2,130,2|2|10
263,146,86791,1,2
263,146,87013,1,8
263,146,87236,6,0,B|352:261,2,130,2|2|10
175,201,88569,2,0,B|143:267,1,65,2|10
119,304,89013,5,2
223,315,89458,1,2
321,278,89902,1,14
312,120,92569,6,0,B|312:24|384:24,2,130,2|2|2
256,128,93680,2,0,B|256:264,1,130,2|8
208,256,94347,2,0,B|208:352|136:352,2,130,2|2|2
141,175,95680,6,0,B|115:114|66:210|18:146,2,130,2|2|2
204,92,97013,1,2
286,154,97458,2,0,B|313:102|298:70,1,65,2|8
352,72,97902,6,0,B|448:72|464:160,1,130,2|10
400,216,98791,2,0,B|304:216|288:128,1,130,2|10
251,248,99680,6,0,B|105:248,1,130,2|8
108,197,100347,2,0,B|32:157,2,65,2|8|8
126,148,101013,1,2
192,68,101458,5,2
292,96,101902,1,2
368,166,102347,1,10
405,201,102569,2,0,B|405:255|365:265,2,65,8|10|10
437,160,103236,6,0,B|462:14,1,130,2|10
408,44,103902,2,0,B|292:145,1,130,10|2
275,168,104569,1,10
234,200,104791,1,8
283,215,105013,1,2
215,293,105458,6,0,B|146:343,2,65,2|2|2
264,308,106124,1,2
264,308,106347,1,8
315,308,106569,1,8
315,308,106791,5,2
403,253,107236,1,2
410,149,107680,1,8
380,105,107902,1,2
340,71,108124,1,8
289,57,108347,1,10
238,67,108569,5,2
141,105,109013,1,2
86,193,109458,2,8,B|120:264,1,65,8|2
164,266,109902,2,8,B|231:328,1,65,10|10
261,324,110347,5,2
365,322,110791,1,2
445,256,111236,1,8
405,222,111458,2,0,B|378:150,2,65,2|8|2
359,248,112124,2,0,B|344:331,2,65,2|8|2
313,222,112791,2,0,B|325:151,2,65,2|2|10
269,249,113458,5,8
235,209,113680,1,8
187,188,113902,1,8
256,110,114347,6,0,B|245:34|420:93|397:21,2,195,2|2|2
213,139,115902,2,0,B|173:165,2,32.5,2|0|2
258,164,116347,6,0,B|259:221,2,32.5,2|0|2
304,141,116791,6,0,B|338:164,2,32.5,2|0|2
290,90,117236,1,0
290,90,117458,2,0,B|148:90,2,130,2|2|14
