osu file format v5

[General]
AudioFilename: f-f-fishes.mp3
AudioLeadIn: 0
PreviewTime: -1
Countdown: 0
SampleSet: Soft

[Metadata]
Title:F-F-Fishes
Artist:Mr. Nervous
Creator:Kidwii
Version:Hard

[Difficulty]
HPDrainRate:5
CircleSize:4
OverallDifficulty:5
SliderMultiplier:1.4
SliderTickRate:2

[Events]
//Background and Video events
1,0,"The_Mr_Men_Show_-_F-f-fishes.avi"
//Break Periods
//Storyboard Layer 0 (Background)
//Storyboard Layer 1 (Failing)
//Storyboard Layer 2 (Passing)
//Storyboard Layer 3 (Foreground)
//Storyboard Sound Samples
//Background Colour Transformations
3,100,163,162,255

[TimingPoints]
3280,428.449014567267,4,2,0,100

[Colours]
Combo1 : 0,255,255
Combo2 : 128,0,255
Combo3 : 0,0,255

[HitObjects]
32,192,3494,1,0
96,192,3708,1,0
160,192,3922,1,0
216,160,4136,1,0
272,192,4351,1,0
328,192,4565,5,0
384,192,4779,1,0
440,192,4993,2,0,B|512:192|504:280|432:288|384:264|360:240,1,210
264,288,6064,6,0,B|184:224|248:144|296:120|344:144,1,210
368,136,6921,5,0
424,136,7136,2,0,B|456:56|384:40,1,105
320,48,7778,1,0
320,48,7992,1,0
280,88,8207,5,0
240,128,8421,1,0
200,88,8635,1,0
240,48,8849,1,0
184,32,9064,1,4
128,248,9920,5,0
168,216,10135,1,0
200,256,10349,1,0
240,216,10563,1,0
272,256,10777,1,0
312,216,10992,1,4
176,40,11848,6,2,B|176:200|288:192,1,210
496,280,13348,5,0
496,224,13562,5,0
448,248,13777,1,0
496,224,13991,5,0
448,248,14205,1,0
496,224,14419,5,0
448,248,14633,1,0
464,296,14848,6,0,B|456:368|344:288|392:176|320:104,1,280
304,64,15919,1,4
296,176,16347,5,0
296,176,16561,1,0
296,176,16776,1,0
296,176,16990,2,0,B|224:176,1,70
256,192,17847,12,0,18704
40,192,19132,2,0,B|184:208|232:312|312:296|432:184|392:64,1,490
256,192,21274,12,0,22774
256,192,23202,5,0
256,192,23417,1,0
256,192,23631,1,0
256,192,23845,2,0,B|176:192,1,70
256,192,24702,12,0,26416
168,136,26844,1,0
224,136,27058,1,0
280,136,27273,2,0,B|384:256,2,140
376,80,28558,6,0,B|416:152,1,70
432,192,28986,1,0
432,192,29201,1,0
432,192,29415,1,0
312,192,29843,6,0,B|232:192,1,70
128,192,30486,1,0
256,80,31129,5,0
368,104,31557,1,0
376,160,31771,1,0
424,128,31986,1,0
456,240,32414,5,0
368,304,32842,1,0
296,216,33271,1,0
352,208,33485,1,0
312,168,33699,1,0
424,168,34128,5,4
424,112,34342,5,0
400,56,34556,1,0
352,16,34771,1,0
296,16,34985,1,0
240,16,35199,1,0
184,16,35413,1,0
128,32,35627,2,0,B|40:168|232:272,1,280
304,112,37127,5,0
344,152,37341,1,0
384,192,37555,1,0
384,192,37770,1,0
424,240,37984,1,0
424,240,38198,1,0
464,288,38412,1,0
464,288,38627,1,0
464,288,38841,1,0
408,288,39055,5,0
344,288,39269,1,0
288,288,39483,1,0
232,288,39698,1,0
176,288,39912,1,0
56,88,40769,5,0
120,88,40983,1,0
120,144,41197,1,0
184,144,41411,1,0
184,208,41626,1,0
240,208,41840,1,0
304,208,42054,1,0
304,144,42268,1,0
368,144,42483,1,0
368,80,42697,1,0
432,80,42911,1,0
496,80,43125,2,0,B|496:184|424:200,1,140
280,280,44196,6,0,B|184:224|240:80,1,210
288,88,45053,2,0,B|368:184|344:288,1,210
408,288,45910,2,0,B|464:208|448:128,2,140
296,328,47196,5,0
296,328,47410,1,0
296,328,47624,1,0
296,328,47838,2,0,B|216:328,1,70
432,56,49338,5,0
304,56,49766,1,0
240,56,49980,1,0
176,56,50195,1,0
112,56,50409,6,0,B|8:128|64:264|112:240,1,210
136,248,51266,2,0,B|184:296|208:232,1,70
256,192,52123,12,0,53622
256,192,54051,5,0
256,192,54265,1,0
256,192,54479,1,0
256,192,54693,2,0,B|184:192,1,70
256,192,55336,12,0,57264
64,128,57693,5,0
120,128,57907,1,0
176,128,58121,1,2
176,128,58335,1,2
232,128,58549,1,2
232,128,58764,1,2
232,128,58978,1,2
344,128,59406,6,0,B|400:208,1,70
400,240,59835,1,0
400,240,60049,1,0
400,240,60263,1,0
288,240,60692,6,2,B|216:240,1,70
104,240,61334,1,4
