osu file format v10

[General]
AudioFilename: Hanz Up!.mp3
AudioLeadIn: 2000
PreviewTime: 15012
Countdown: 0
SampleSet: Normal
StackLeniency: 0.4
Mode: 1
LetterboxInBreaks: 0

[Editor]
Bookmarks: 15031,29915,44799,52241,59682,74566,82008,89450,97124
DistanceSpacing: 0.8
BeatDivisor: 4
GridSize: 8

[Metadata]
Title:Hanz Up!
TitleUnicode:Hanz Up!
Artist:Mr. Funky
ArtistUnicode:Mr. Funky
Creator:Lolicore Flandre
Version:TK
Source:DJMAX Portable 3
Tags:Verdisphena DJNightmare Z_B DumpingLIFE Magix Soundpool electro hip house
BeatmapID:182211
BeatmapSetID:43510

[Difficulty]
HPDrainRate:5
CircleSize:5
OverallDifficulty:5
ApproachRate:5
SliderMultiplier:1.6
SliderTickRate:2

[Events]
//Background and Video events
0,0,"TK.jpg"
//Break Periods
//Storyboard Layer 0 (Background)
//Storyboard Layer 1 (Fail)
//Storyboard Layer 2 (Pass)
//Storyboard Layer 3 (Foreground)
//Storyboard Sound Samples
//Background Colour Transformations
3,100,163,162,255

[TimingPoints]
148,465.116279069767,4,1,1,70,1,0
15031,-100,4,1,1,70,0,1
21543,-100,4,1,1,70,0,0
22473,-100,4,1,1,70,0,1
28287,-100,4,1,1,70,0,0
29915,-100,4,1,1,70,0,1
42938,-100,4,1,1,70,0,0
74566,-100,4,1,1,70,0,1
81078,-100,4,1,1,70,0,0
82008,-100,4,1,1,70,0,1
89450,-100,4,1,2,70,0,0

[Colours]
Combo1 : 255,255,0
Combo2 : 255,0,0
Combo3 : 255,128,0
SliderBorder : 40,40,40

[HitObjects]
136,160,148,5,0,0:0:0
256,256,380,1,8,0:0:0
248,160,613,1,0,0:0:0
336,240,845,1,8,0:0:0
344,144,961,1,0,0:0:0
424,288,1194,1,8,0:0:0
424,288,1310,1,8,0:0:0
320,312,1543,1,0,0:0:0
320,312,1775,1,8,0:0:0
152,256,2008,5,0,0:0:0
192,304,2241,1,8,0:0:0
80,256,2473,1,0,0:0:0
192,304,2706,1,8,0:0:0
296,88,2822,1,0,0:0:0
296,88,3054,1,0,0:0:0
296,88,3171,1,8,0:0:0
296,88,3287,1,8,0:0:0
296,88,3403,1,0,0:0:0
176,160,3636,1,8,0:0:0
328,216,3868,5,0,0:0:0
272,224,4101,1,8,0:0:0
328,216,4334,1,0,0:0:0
272,224,4566,1,8,0:0:0
408,232,4682,1,0,0:0:0
408,232,4915,1,0,0:0:0
408,232,5031,1,8,0:0:0
416,304,5147,1,8,0:0:0
208,304,5264,1,0,0:0:0
440,160,5496,1,8,0:0:0
328,288,5729,5,0,0:0:0
328,288,5961,1,8,0:0:0
328,288,6194,1,0,0:0:0
104,232,6659,2,0,B|272:232,1,160
224,104,7357,1,8,0:0:0
24,88,7589,5,4,0:0:0
328,120,7822,1,8,0:0:0
328,120,7938,1,8,0:0:0
328,120,8054,1,0,0:0:0
384,272,8287,1,8,0:0:0
280,280,8520,1,0,0:0:0
200,264,8636,1,8,0:0:0
280,280,8752,1,0,0:0:0
184,224,8985,1,0,0:0:0
80,336,9217,1,8,0:0:0
288,192,9450,5,0,0:0:0
128,128,9682,1,8,0:0:0
128,128,9799,1,8,0:0:0
128,128,9915,1,0,0:0:0
208,120,10147,1,8,0:0:0
272,64,10380,1,8,0:0:0
272,64,10496,1,8,0:0:0
272,64,10613,1,0,0:0:0
272,64,10845,1,8,0:0:0
272,64,11078,1,0,0:0:0
384,184,11310,5,4,0:0:0
216,336,11543,1,8,0:0:0
216,336,11659,1,8,0:0:0
216,336,11775,1,0,0:0:0
216,336,12008,1,8,0:0:0
320,288,12241,1,0,0:0:0
320,288,12357,1,8,0:0:0
320,288,12473,1,8,0:0:0
320,288,12589,1,8,0:0:0
176,248,12706,1,0,0:0:0
248,192,12938,1,8,0:0:0
104,192,13171,5,0,0:0:0
144,72,13287,1,8,0:0:0
168,104,13403,1,0,0:0:0
248,96,13636,1,8,0:0:0
200,192,13868,1,0,0:0:0
96,296,14101,2,8,B|256:280,1,160
320,232,14799,1,0,0:0:0
336,128,15031,5,4,0:0:0
360,272,15264,1,8,0:0:0
360,272,15380,1,8,0:0:0
360,272,15496,1,0,0:0:0
424,224,15729,1,8,0:0:0
408,160,15961,1,0,0:0:0
408,160,16078,1,8,0:0:0
408,160,16194,1,0,0:0:0
120,144,16427,1,0,0:0:0
200,96,16659,1,8,0:0:0
312,80,16892,5,0,0:0:0
248,160,17124,1,8,0:0:0
248,160,17241,1,8,0:0:0
248,160,17357,1,0,0:0:0
248,160,17589,1,8,0:0:0
248,160,17822,1,0,0:0:0
248,160,17938,1,0,0:0:0
248,160,18054,1,8,0:0:0
248,160,18171,1,0,0:0:0
400,104,18287,1,0,0:0:0
400,104,18520,1,8,0:0:0
344,312,18752,5,0,0:0:0
360,216,18985,1,8,0:0:0
360,216,19101,1,8,0:0:0
360,216,19217,1,0,0:0:0
232,264,19450,1,8,0:0:0
232,264,19682,1,0,0:0:0
232,264,19799,1,0,0:0:0
232,264,19915,1,8,0:0:0
112,248,20147,1,0,0:0:0
112,248,20380,1,8,0:0:0
128,144,20613,5,0,0:0:0
208,152,20845,1,8,0:0:0
208,152,20961,1,8,0:0:0
208,152,21078,1,0,0:0:0
208,152,21310,1,8,0:0:0
208,152,21427,1,8,0:0:0
208,152,21543,1,0,0:0:0
208,152,21659,1,8,0:0:0
208,152,21775,1,8,0:0:0
280,56,22008,1,8,0:0:0
280,56,22241,1,8,0:0:0
296,144,22473,5,4,0:0:0
392,128,22706,1,8,0:0:0
392,128,22822,1,8,0:0:0
392,128,22938,1,0,0:0:0
392,128,23171,1,8,0:0:0
368,208,23403,1,0,0:0:0
368,208,23520,1,8,0:0:0
368,208,23636,1,8,0:0:0
368,208,23868,1,0,0:0:0
384,272,24101,1,8,0:0:0
384,272,24334,5,0,0:0:0
280,288,24566,1,8,0:0:0
280,288,24682,1,8,0:0:0
280,288,24799,1,0,0:0:0
224,264,24915,1,0,0:0:0
280,288,25031,1,8,0:0:0
248,208,25147,1,0,0:0:0
152,184,25264,1,0,0:0:0
288,144,25496,1,8,0:0:0
288,144,25613,1,8,0:0:0
288,144,25729,1,0,0:0:0
200,104,25961,1,8,0:0:0
336,96,26194,5,0,0:0:0
128,272,26427,1,8,0:0:0
128,272,26543,1,0,0:0:0
296,240,26659,1,0,0:0:0
296,240,26775,1,0,0:0:0
296,240,26892,1,8,0:0:0
296,240,27124,1,8,0:0:0
384,256,27357,1,8,0:0:0
384,256,27473,1,8,0:0:0
384,256,27589,1,0,0:0:0
384,256,27822,1,8,0:0:0
416,160,28054,5,0,0:0:0
144,184,28287,1,8,0:0:0
232,176,28520,1,0,0:0:0
144,184,28752,1,8,0:0:0
208,104,28985,1,0,0:0:0
208,104,29101,1,0,0:0:0
320,96,29217,1,8,0:0:0
72,184,29334,1,0,0:0:0
296,224,29450,1,8,0:0:0
296,224,29566,1,8,0:0:0
296,224,29682,1,8,0:0:0
296,224,29799,1,8,0:0:0
296,224,29915,1,0,0:0:0
192,280,30031,1,8,0:0:0
192,280,30147,1,0,0:0:0
96,128,30264,1,8,0:0:0
384,176,30496,5,0,0:0:0
384,176,30613,1,8,0:0:0
328,288,30729,1,8,0:0:0
328,288,30845,1,0,0:0:0
328,288,30961,1,8,0:0:0
328,288,31078,1,0,0:0:0
328,288,31194,1,8,0:0:0
72,248,31310,1,8,0:0:0
144,120,31427,1,0,0:0:0
224,88,31543,1,8,0:0:0
344,128,31775,1,8,0:0:0
224,272,32008,1,0,0:0:0
312,80,32085,1,0,0:0:0
312,80,32163,1,0,0:0:0
312,80,32241,1,8,0:0:0
288,192,32473,5,8,0:0:0
288,192,32589,1,8,0:0:0
288,192,32706,1,0,0:0:0
288,192,32822,1,8,0:0:0
400,240,32938,1,8,0:0:0
400,240,33054,1,0,0:0:0
400,240,33171,1,8,0:0:0
160,168,33287,1,0,0:0:0
160,168,33403,1,8,0:0:0
288,192,33636,1,8,0:0:0
384,112,33868,1,0,0:0:0
384,112,33946,1,0,0:0:0
384,112,34023,1,0,0:0:0
424,96,34101,1,8,0:0:0
176,112,34217,1,8,0:0:0
176,112,34334,5,0,0:0:0
176,112,34450,1,0,0:0:0
232,208,34566,1,8,0:0:0
176,112,34682,1,8,0:0:0
288,264,34799,1,0,0:0:0
288,264,34915,1,0,0:0:0
288,264,35031,1,8,0:0:0
160,160,35147,1,0,0:0:0
360,200,35264,1,8,0:0:0
360,288,35496,1,8,0:0:0
304,88,35729,1,8,0:0:0
240,112,35961,1,0,0:0:0
304,88,36194,1,8,0:0:0
144,248,36310,5,8,0:0:0
144,248,36427,1,0,0:0:0
144,248,36543,1,8,0:0:0
144,248,36659,1,0,0:0:0
144,248,36775,1,0,0:0:0
144,248,36892,1,8,0:0:0
424,160,37124,1,0,0:0:0
64,120,37357,1,8,0:0:0
64,120,37473,1,8,0:0:0
64,120,37706,5,8,0:0:0
192,96,37938,1,0,0:0:0
192,96,38054,1,8,0:0:0
192,96,38171,1,8,0:0:0
192,96,38287,1,0,0:0:0
312,248,38520,1,8,0:0:0
208,344,38752,5,0,0:0:0
208,344,38868,1,0,0:0:0
208,344,38985,1,8,0:0:0
416,288,39217,1,8,0:0:0
232,232,39450,1,0,0:0:0
400,184,39682,5,0,0:0:0
200,184,39915,1,8,0:0:0
200,184,40031,1,0,0:0:0
200,184,40147,1,0,0:0:0
200,184,40264,1,8,0:0:0
288,128,40380,1,0,0:0:0
368,104,40613,1,8,0:0:0
368,104,40845,1,0,0:0:0
240,248,41078,5,8,0:0:0
336,288,41310,1,0,0:0:0
240,248,41543,1,0,0:0:0
272,232,41659,1,8,0:0:0
272,232,41775,1,0,0:0:0
272,232,41892,1,8,0:0:0
336,288,42008,1,8,0:0:0
336,288,42241,1,0,0:0:0
360,208,42473,1,8,0:0:0
360,208,42589,1,8,0:0:0
248,312,42706,1,0,0:0:0
248,312,42938,5,8,0:0:0
112,152,43171,1,0,0:0:0
280,144,43287,1,8,0:0:0
280,144,43403,1,0,0:0:0
280,144,43520,1,0,0:0:0
280,144,43636,1,8,0:0:0
280,144,43752,1,0,0:0:0
280,144,43868,1,8,0:0:0
264,24,43946,1,0,0:0:0
264,24,44023,1,0,0:0:0
264,24,44101,1,0,0:0:0
264,24,44179,1,0,0:0:0
264,24,44256,1,0,0:0:0
264,24,44334,1,8,0:0:0
200,224,44450,1,0,0:0:0
320,224,44682,5,8,0:0:0
144,120,44799,1,0,0:0:0
320,144,45031,1,8,0:0:0
56,112,45264,1,0,0:0:0
200,224,45380,1,8,0:0:0
200,224,45613,1,8,0:0:0
88,144,45729,1,0,0:0:0
192,112,45961,1,8,0:0:0
192,112,46078,1,8,0:0:0
392,176,46310,1,8,0:0:0
392,176,46543,1,0,0:0:0
352,88,46659,1,0,0:0:0
248,240,46892,1,8,0:0:0
312,272,47124,5,0,0:0:0
312,272,47241,1,8,0:0:0
424,272,47473,1,8,0:0:0
424,272,47589,1,0,0:0:0
144,272,47706,1,8,0:0:0
424,272,47822,1,0,0:0:0
424,272,47938,1,0,0:0:0
144,272,48171,1,8,0:0:0
144,272,48403,1,8,0:0:0
144,272,48520,1,0,0:0:0
264,136,48752,1,8,0:0:0
264,136,48985,5,0,0:0:0
264,136,49101,1,8,0:0:0
264,136,49334,1,8,0:0:0
360,128,49450,1,8,0:0:0
360,128,49682,1,0,0:0:0
160,168,49799,1,0,0:0:0
240,208,49915,1,0,0:0:0
240,208,50031,1,8,0:0:0
328,200,50147,1,8,0:0:0
312,56,50264,1,0,0:0:0
216,40,50380,1,0,0:0:0
312,56,50613,1,8,0:0:0
144,88,50845,1,0,0:0:0
120,192,51078,5,8,0:0:0
120,192,51194,1,0,0:0:0
192,264,51310,1,0,0:0:0
192,264,51427,1,8,0:0:0
192,264,51543,1,8,0:0:0
400,248,51659,1,0,0:0:0
400,248,51775,1,0,0:0:0
400,248,51892,1,8,0:0:0
400,248,52008,1,8,0:0:0
400,248,52124,1,8,0:0:0
288,280,52241,1,0,0:0:0
288,280,52357,1,8,0:0:0
248,192,52589,1,8,0:0:0
224,136,52822,1,0,0:0:0
224,136,52938,1,8,0:0:0
224,136,53054,5,8,0:0:0
224,136,53171,1,0,0:0:0
288,136,53403,1,8,0:0:0
288,136,53636,1,0,0:0:0
288,136,53752,1,0,0:0:0
288,136,53868,1,8,0:0:0
312,192,54101,1,8,0:0:0
152,240,54334,1,0,0:0:0
272,72,54566,1,0,0:0:0
328,80,54682,1,8,0:0:0
328,80,54799,1,0,0:0:0
328,80,54915,1,8,0:0:0
200,112,55031,5,8,0:0:0
200,112,55264,1,0,0:0:0
208,272,55380,1,8,0:0:0
352,144,55613,1,0,0:0:0
304,280,55845,1,8,0:0:0
304,280,55961,1,0,0:0:0
416,240,56194,1,8,0:0:0
416,240,56310,1,0,0:0:0
272,184,56543,1,0,0:0:0
272,184,56659,1,8,0:0:0
272,184,56775,1,0,0:0:0
272,184,56892,1,8,0:0:0
104,216,57124,1,0,0:0:0
104,216,57241,5,0,0:0:0
176,80,57473,1,0,0:0:0
176,80,57706,1,0,0:0:0
176,80,57822,1,8,0:0:0
232,48,58054,1,8,0:0:0
304,104,58287,1,0,0:0:0
232,48,58520,1,8,0:0:0
304,104,58752,1,0,0:0:0
232,184,58868,1,0,0:0:0
272,256,58985,1,8,0:0:0
272,256,59101,5,0,0:0:0
272,256,59217,1,0,0:0:0
272,256,59334,1,8,0:0:0
272,256,59450,1,8,0:0:0
272,256,59566,5,8,0:0:0
344,152,59682,1,0,0:0:0
344,152,59799,5,8,0:0:0
400,104,60031,1,8,0:0:0
400,104,60147,1,0,0:0:0
432,240,60380,1,8,0:0:0
432,240,60496,1,8,0:0:0
432,240,60613,1,0,0:0:0
320,288,60729,5,8,0:0:0
320,288,60845,1,8,0:0:0
408,320,60961,1,0,0:0:0
272,344,61078,1,8,0:0:0
272,344,61194,5,0,0:0:0
288,96,61310,1,8,0:0:0
288,96,61427,1,8,0:0:0
88,160,61543,1,8,0:0:0
272,160,61775,1,0,0:0:0
192,144,61892,1,8,0:0:0
352,176,62124,1,8,0:0:0
192,248,62357,1,0,0:0:0
192,248,62473,1,8,0:0:0
192,248,62589,1,8,0:0:0
192,248,62706,1,8,0:0:0
192,248,62822,1,8,0:0:0
344,80,62938,1,0,0:0:0
352,232,63054,1,8,0:0:0
352,232,63171,1,8,0:0:0
352,232,63287,1,8,0:0:0
424,272,63403,5,8,0:0:0
296,304,63520,1,8,0:0:0
224,144,63636,1,0,0:0:0
432,192,63868,1,0,0:0:0
432,192,63985,1,8,0:0:0
136,176,64217,1,8,0:0:0
136,176,64334,1,0,0:0:0
272,216,64450,1,0,0:0:0
416,152,64566,5,8,0:0:0
272,216,64682,1,0,0:0:0
328,112,64799,1,0,0:0:0
160,64,64915,1,0,0:0:0
160,64,65031,1,8,0:0:0
256,80,65147,1,8,0:0:0
256,80,65264,1,0,0:0:0
360,296,65380,5,8,0:0:0
216,312,65496,1,0,0:0:0
128,248,65729,1,0,0:0:0
128,248,65845,1,8,0:0:0
304,352,65961,1,8,0:0:0
304,352,66078,1,0,0:0:0
304,352,66194,1,0,0:0:0
120,328,66310,1,8,0:0:0
120,328,66427,1,8,0:0:0
120,328,66543,1,8,0:0:0
208,232,66659,1,0,0:0:0
208,232,66775,1,8,0:0:0
208,232,66892,1,8,0:0:0
208,232,67008,1,8,0:0:0
344,152,67124,5,0,0:0:0
344,152,67241,1,8,0:0:0
400,104,67473,1,8,0:0:0
400,104,67589,1,0,0:0:0
432,240,67822,1,8,0:0:0
432,240,67938,1,8,0:0:0
432,240,68054,1,0,0:0:0
320,288,68171,1,8,0:0:0
320,288,68287,1,8,0:0:0
408,320,68403,1,0,0:0:0
272,344,68520,1,8,0:0:0
272,344,68636,1,0,0:0:0
288,96,68752,1,8,0:0:0
288,96,68868,1,8,0:0:0
88,160,68985,1,8,0:0:0
272,160,69217,5,0,0:0:0
192,144,69334,1,8,0:0:0
352,176,69566,1,8,0:0:0
192,248,69799,1,0,0:0:0
192,248,69915,1,8,0:0:0
192,248,70031,1,8,0:0:0
192,248,70147,1,8,0:0:0
192,248,70264,1,8,0:0:0
344,80,70380,1,0,0:0:0
352,232,70496,1,8,0:0:0
352,232,70613,1,8,0:0:0
352,232,70729,1,8,0:0:0
424,272,70845,1,8,0:0:0
296,304,70961,1,8,0:0:0
224,144,71078,1,0,0:0:0
96,80,71310,5,0,0:0:0
96,80,71427,1,8,0:0:0
296,104,71659,1,8,0:0:0
296,104,71775,1,0,0:0:0
296,104,71892,1,0,0:0:0
296,104,72008,1,8,0:0:0
296,104,72124,1,8,0:0:0
408,152,72241,1,8,0:0:0
304,240,72357,1,0,0:0:0
304,240,72473,1,8,0:0:0
304,240,72589,1,8,0:0:0
160,248,72706,1,0,0:0:0
160,248,72822,1,0,0:0:0
160,248,72938,1,8,0:0:0
160,248,73054,1,8,0:0:0
200,288,73171,1,0,0:0:0
200,288,73287,1,8,0:0:0
248,304,73403,1,0,0:0:0
248,304,73520,1,8,0:0:0
136,160,73636,1,8,0:0:0
136,160,73752,1,0,0:0:0
136,160,73868,1,8,0:0:0
136,160,73985,1,0,0:0:0
304,168,74101,1,8,0:0:0
304,168,74217,1,8,0:0:0
304,168,74334,1,8,0:0:0
304,168,74450,1,8,0:0:0
328,136,74566,1,0,0:0:0
352,280,74799,5,8,0:0:0
352,280,74915,1,8,0:0:0
352,280,75031,1,0,0:0:0
416,232,75264,1,8,0:0:0
400,168,75496,1,0,0:0:0
400,168,75613,1,8,0:0:0
400,168,75729,1,0,0:0:0
112,152,75961,1,0,0:0:0
192,104,76194,1,8,0:0:0
304,88,76427,1,0,0:0:0
240,168,76659,1,8,0:0:0
240,168,76775,1,8,0:0:0
240,168,76892,1,0,0:0:0
240,168,77124,1,8,0:0:0
240,168,77357,5,0,0:0:0
240,168,77473,1,0,0:0:0
240,168,77589,1,8,0:0:0
240,168,77706,1,0,0:0:0
392,112,77822,1,0,0:0:0
392,112,78054,1,8,0:0:0
336,320,78287,1,0,0:0:0
352,224,78520,1,8,0:0:0
352,224,78636,1,8,0:0:0
352,224,78752,1,0,0:0:0
224,272,78985,1,8,0:0:0
224,272,79217,1,8,0:0:0
224,272,79334,1,0,0:0:0
224,272,79450,5,8,0:0:0
104,256,79682,1,0,0:0:0
104,256,79915,1,8,0:0:0
120,152,80147,1,0,0:0:0
200,160,80380,1,8,0:0:0
200,160,80496,1,8,0:0:0
200,160,80613,1,0,0:0:0
200,160,80845,1,8,0:0:0
200,160,80961,1,8,0:0:0
200,160,81078,1,0,0:0:0
200,160,81194,1,8,0:0:0
200,160,81310,1,8,0:0:0
272,64,81543,1,8,0:0:0
272,64,81775,1,0,0:0:0
288,152,82008,1,4,0:0:0
320,272,82241,1,8,0:0:0
320,272,82357,1,8,0:0:0
320,272,82473,5,0,0:0:0
320,272,82706,1,8,0:0:0
408,224,82938,1,0,0:0:0
408,224,83054,1,0,0:0:0
408,224,83171,1,8,0:0:0
408,224,83403,1,0,0:0:0
408,224,83636,1,8,0:0:0
232,312,83868,1,0,0:0:0
232,312,84101,1,8,0:0:0
232,312,84217,1,8,0:0:0
232,312,84334,1,0,0:0:0
232,312,84450,1,0,0:0:0
232,312,84566,1,8,0:0:0
400,336,84799,5,0,0:0:0
400,336,84915,1,0,0:0:0
400,336,85031,1,8,0:0:0
400,336,85147,1,8,0:0:0
400,336,85264,1,0,0:0:0
400,336,85496,1,8,0:0:0
128,208,85729,1,0,0:0:0
128,208,85845,1,0,0:0:0
128,208,85961,1,8,0:0:0
128,208,86078,1,8,0:0:0
128,208,86194,1,0,0:0:0
128,208,86427,5,8,0:0:0
128,208,86543,1,8,0:0:0
128,208,86659,1,0,0:0:0
272,192,86775,1,8,0:0:0
272,192,86892,1,8,0:0:0
272,192,87008,1,0,0:0:0
208,80,87124,1,0,0:0:0
208,80,87357,1,8,0:0:0
376,160,87589,1,0,0:0:0
344,72,87822,1,8,0:0:0
368,272,88054,1,0,0:0:0
368,272,88287,1,8,0:0:0
200,288,88520,1,0,0:0:0
200,288,88636,1,0,0:0:0
200,288,88752,5,8,0:0:0
120,112,88868,1,0,0:0:0
120,112,88985,1,8,0:0:0
120,112,89101,1,8,0:0:0
120,112,89217,1,8,0:0:0
96,192,89334,1,0,0:0:0
136,160,89450,1,0,0:0:0
256,256,89682,5,8,0:0:0
248,160,89915,1,0,0:0:0
336,240,90147,1,8,0:0:0
344,144,90264,1,0,0:0:0
424,288,90496,1,8,0:0:0
424,288,90613,1,8,0:0:0
320,312,90845,1,0,0:0:0
320,312,91078,1,8,0:0:0
152,256,91310,1,0,0:0:0
192,304,91543,1,8,0:0:0
80,256,91775,1,0,0:0:0
192,304,92008,1,8,0:0:0
296,88,92124,1,0,0:0:0
296,88,92357,1,8,0:0:0
296,88,92473,1,8,0:0:0
296,88,92589,1,8,0:0:0
296,88,92706,1,0,0:0:0
176,160,92938,1,8,0:0:0
328,216,93171,1,0,0:0:0
272,224,93403,1,8,0:0:0
328,216,93636,1,0,0:0:0
272,224,93868,1,8,0:0:0
408,232,93985,1,0,0:0:0
408,232,94217,1,0,0:0:0
408,232,94334,1,8,0:0:0
416,304,94450,1,8,0:0:0
208,304,94566,1,0,0:0:0
440,160,94799,1,8,0:0:0
328,288,95031,1,0,0:0:0
328,288,95264,1,8,0:0:0
328,288,95496,1,0,0:0:0
104,232,95961,2,0,B|272:232,1,160
224,104,96659,1,8,0:0:0
24,88,96892,1,4,0:0:0
328,120,97124,1,8,0:0:0
328,120,97241,1,8,0:0:0
328,120,97357,1,0,0:0:0
384,272,97589,1,8,0:0:0
280,280,97822,1,0,0:0:0
200,264,97938,1,8,0:0:0
280,280,98054,1,0,0:0:0
184,224,98287,1,0,0:0:0
80,336,98520,1,8,0:0:0
288,192,98752,1,0,0:0:0
128,128,98985,1,8,0:0:0
128,128,99101,1,8,0:0:0
128,128,99217,1,0,0:0:0
208,120,99450,1,8,0:0:0
272,64,99682,1,8,0:0:0
272,64,99799,5,8,0:0:0
272,64,99915,1,0,0:0:0
272,64,100147,1,8,0:0:0
272,64,100380,1,0,0:0:0
384,184,100613,1,4,0:0:0
216,336,100845,1,8,0:0:0
216,336,100961,1,8,0:0:0
216,336,101078,1,0,0:0:0
216,336,101310,1,8,0:0:0
320,288,101543,1,0,0:0:0
320,288,101659,1,8,0:0:0
320,288,101775,1,8,0:0:0
320,288,101892,1,0,0:0:0
176,248,102008,1,0,0:0:0
248,192,102241,1,8,0:0:0
104,192,102473,1,0,0:0:0
144,72,102589,1,8,0:0:0
168,104,102706,1,0,0:0:0
264,104,102938,1,8,0:0:0
264,104,103054,1,8,0:0:0
328,160,103171,1,0,0:0:0
328,160,103287,1,8,0:0:0
400,248,103403,1,8,0:0:0
400,248,103520,5,8,0:0:0
424,160,103636,1,0,0:0:0
368,88,103868,1,8,0:0:0
304,224,104101,1,0,0:0:0
304,224,104334,1,4,0:0:0
152,208,104566,1,8,0:0:0
152,208,104682,1,8,0:0:0
240,304,104915,1,0,0:0:0
240,304,105031,1,8,0:0:0
240,304,105147,1,8,0:0:0
280,272,105264,1,0,0:0:0
280,272,105380,1,8,0:0:0
280,272,105496,5,0,0:0:0
280,272,105613,1,8,0:0:0
280,272,105729,1,0,0:0:0
256,192,106194,12,8,110148,0:0:0
