osu file format v10

[General]
AudioFilename: Hanz Up!.mp3
AudioLeadIn: 2000
PreviewTime: 15012
Countdown: 0
SampleSet: Normal
StackLeniency: 0.4
Mode: 0
LetterboxInBreaks: 0

[Editor]
Bookmarks: 15031,29915,44799,52241,59682,67822,74566,82008,89450,96892
DistanceSpacing: 0.8
BeatDivisor: 4
GridSize: 4

[Metadata]
Title:Hanz Up!
TitleUnicode:Hanz Up!
Artist:Mr. Funky
ArtistUnicode:Mr. Funky
Creator:Lolicore Flandre
Version:HD
Source:DJMAX Portable 3
Tags:Verdisphena DJNightmare Z_B DumpingLIFE Magix Soundpool electro hip house
BeatmapID:178828
BeatmapSetID:43510

[Difficulty]
HPDrainRate:6
CircleSize:3
OverallDifficulty:6
ApproachRate:7
SliderMultiplier:1.8
SliderTickRate:2

[Events]
//Background and Video events
0,0,"BG.jpg"
Video,-873,"BGA.avi"
//Break Periods
2,59882,66922
//Storyboard Layer 0 (Background)
//Storyboard Layer 1 (Fail)
//Storyboard Layer 2 (Pass)
//Storyboard Layer 3 (Foreground)
//Storyboard Sound Samples
//Background Colour Transformations
3,100,163,162,255

[TimingPoints]
148,465.116279069767,4,1,1,50,1,0
6659,-100,4,1,1,5,0,0
7589,-100,4,1,1,50,0,0
14101,-100,4,1,1,20,0,0
15031,-100,4,1,1,50,0,1
16775,-100,4,1,1,5,0,1
17008,-100,4,1,1,50,0,1
21543,-100,4,1,1,50,0,0
22473,-100,4,1,1,50,0,1
24217,-100,4,1,1,5,0,1
24450,-100,4,1,1,50,0,1
28287,-100,4,1,1,50,0,0
29915,-100,4,1,1,60,0,1
37124,-100,4,1,1,5,0,1
37241,-100,4,1,1,60,0,1
42938,-100,4,1,1,60,0,0
44799,-100,4,1,2,50,0,0
52241,-100,4,1,2,45,0,0
59682,-100,4,1,2,40,0,0
74566,-100,4,1,1,60,0,1
81078,-100,4,1,1,20,0,0
82008,-100,4,1,1,60,0,1
83752,-100,4,1,1,5,0,1
83985,-100,4,1,1,60,0,1
89450,-100,4,1,2,50,0,0
105031,-100,4,1,1,40,0,0
105264,-100,4,1,1,30,0,0
105496,-100,4,1,1,20,0,0
105729,-100,4,1,1,10,0,0

[Colours]
Combo1 : 255,255,0
Combo2 : 255,0,0
Combo3 : 255,128,0
SliderBorder : 40,40,40

[HitObjects]
208,272,148,5,0,0:0:0
144,184,380,1,4,0:0:0
40,208,613,2,0,B|16:120|80:40,1,180,8|0,0:0|0:0,0:0:0
472,208,1543,2,0,B|496:120|432:40,1,180,8|0,0:0|0:0,0:0:0
368,184,2241,5,4,0:0:0
328,280,2473,2,0,B|312:320|256:336|200:320|176:280,1,180,8|0,0:0|0:0,0:0:0
256,232,3171,1,0,0:0:0
320,152,3403,1,8,0:0:0
256,80,3636,1,0,0:0:0
192,152,3868,5,0,0:0:0
312,296,4334,2,0,B|336:208|336:208|424:216,2,180,8|0|8,0:0|0:0|0:0,0:0:0
256,192,5496,1,0,0:0:0
200,296,5729,2,0,B|176:208|176:208|88:216,1,180,0|8,0:0|0:0,0:0:0
256,192,6659,12,0,7590,0:0:0
376,264,8054,6,0,B|323:290|289:268,1,90,8|0,0:0|0:0,0:0:0
232,200,8520,1,0,0:0:0
328,176,8752,2,0,B|384:152|392:96,2,90,0|8|0,0:0|0:0|0:0,0:0:0
300,88,9450,2,0,B|292:40,2,45
200,132,9915,2,0,B|156:96,2,45,12|0|0,0:0|0:0|0:0,0:0:0
124,212,10380,2,0,B|80:196,2,45
128,320,10845,2,0,B|80:336,2,45,12|0|0,0:0|0:0|0:0,0:0:0
160,328,11194,1,0,0:0:0
192,336,11310,6,0,B|232:312|280:320,1,90
384,184,11775,2,0,B|424:276|384:360,2,180,8|0|8,0:0|0:0|0:0,0:0:0
292,204,12938,2,0,B|240:120|276:32,1,180
364,60,13636,1,0,0:0:0
368,148,13868,1,0,0:0:0
296,200,14101,5,0,0:0:0
208,212,14334,1,0,0:0:0
120,204,14566,1,0,0:0:0
64,48,15031,5,0,0:0:0
96,56,15147,2,0,B|184:80,1,90,0|2,0:0|0:0,0:0:0
192,112,15496,2,0,B|288:136,1,90,8|0,0:0|0:0,0:0:0
384,208,15961,1,2,0:0:0
432,136,16194,1,0,0:0:0
480,208,16427,1,2,0:0:0
432,288,16659,6,2,B|432:376,2,90,0|0|4,0:0|0:0|0:0,0:0:0
392,296,17241,1,4,0:0:0
360,304,17357,1,8,0:0:0
328,312,17473,2,0,B|328:224,1,90,0|0,0:0|0:0,0:0:0
328,184,17822,1,0,0:0:0
256,88,18054,1,0,0:0:0
184,184,18287,1,8,0:0:0
256,312,18520,5,0,0:0:0
256,312,18636,1,0,0:0:0
256,312,18752,2,2,B|264:264|232:224,1,90,0|2,0:0|0:0,0:0:0
128,296,19217,2,4,B|88:272,1,45,12|6,0:0|0:0,0:0:0
144,168,19566,2,0,B|128:128,1,45,0|2,0:0|0:0,0:0:0
240,88,19915,2,2,B|256:40,2,45,2|2|10,0:0|0:0|0:0,0:0:0
352,128,20380,2,0,B|408:160|352:272|408:296,2,180,0|4|0,0:0|0:0|0:0,0:0:0
256,48,21543,5,0,0:0:0
208,128,21775,1,2,0:0:0
256,200,22008,1,2,0:0:0
208,272,22241,1,2,0:0:0
96,272,22473,6,0,B|104:216|144:200|144:200|104:184|96:128,1,180,0|8,0:0|0:0,0:0:0
144,48,23171,1,4,0:0:0
144,48,23287,1,4,0:0:0
144,48,23403,1,0,0:0:0
256,88,23636,2,0,B|328:32,1,90,0|8,0:0|0:0,0:0:0
376,120,24101,6,2,B|424:192|424:192|368:200|344:256,1,180,2|0,0:0|0:0,0:0:0
432,288,24799,2,0,B|416:352,1,45,8|0,0:0|0:0,0:0:0
336,352,25147,2,2,B|296:296,1,45,4|4,0:0|0:0,0:0:0
264,240,25496,2,0,B|216:272|224:344,1,90
136,320,25961,5,0,0:0:0
136,320,26078,2,2,B|132:248|64:212,1,135
40,112,26659,2,0,B|128:136,3,90,8|0|0|0,0:0|0:0|0:0|0:0,0:0:0
156,48,27589,2,0,B|244:72,1,90,8|0,0:0|0:0,0:0:0
272,184,28054,6,0,B|344:176|380:104|352:36,1,180,0|8,0:0|0:0,0:0:0
448,128,28752,1,0,0:0:0
460,160,28868,1,0,0:0:0
460,196,28985,1,2,0:0:0
456,304,29217,1,2,0:0:0
344,344,29450,2,0,B|336:296,3,45
304,360,29915,6,2,B|216:368|216:368|232:312|192:272,1,180,0|8,0:0|0:0,0:0:0
128,336,30613,1,4,0:0:0
128,336,30729,1,4,0:0:0
128,336,30845,2,0,B|96:312|96:256,1,90
32,168,31310,1,8,0:0:0
108,80,31543,1,0,0:0:0
208,24,31775,6,2,B|296:16|296:16|280:72|320:112,1,180,2|8,0:0|0:0,0:0:0
384,48,32473,1,4,0:0:0
384,48,32589,1,4,0:0:0
384,48,32706,2,0,B|424:88|416:128,1,90
480,216,33171,1,8,0:0:0
432,304,33403,1,0,0:0:0
336,336,33636,6,2,B|320:288|320:288|336:256|336:256|320:224|320:224|336:168,1,180,2|8,0:0|0:0,0:0:0
312,56,34334,1,0,0:0:0
280,64,34450,1,4,0:0:0
248,72,34566,2,0,B|160:104,1,90,4|0,0:0|0:0,0:0:0
72,192,35031,2,0,B|40:104,1,90,8|0,0:0|0:0,0:0:0
40,288,35496,5,2,0:0:0
160,280,35729,2,8,B|245:311,1,90,2|0,0:0|0:0,0:0:0
280,320,36078,1,0,0:0:0
312,328,36194,1,0,0:0:0
335,215,36427,2,0,B|320:160|320:160|336:128|336:128|320:96|320:96|336:48,1,180,0|8,0:0|0:0,0:0:0
232,40,37124,1,0,0:0:0
128,120,37357,5,2,0:0:0
88,136,37473,2,0,B|48:224,1,90,2|2,0:0|0:0,0:0:0
112,304,37938,1,0,0:0:0
112,304,38054,2,0,B|80:336,2,45,4|4|0,0:0|0:0|0:0,0:0:0
192,240,38520,2,0,B|248:192|312:240,1,90,0|8,0:0|0:0,0:0:0
320,304,38985,1,0,0:0:0
416,256,39217,6,0,B|448:312|432:352|400:376,2,135,2|0|0,0:0|0:0|0:0,0:0:0
368,168,40147,2,0,B|456:144,1,90
376,56,40613,2,0,B|288:72,1,90,8|0,0:0|0:0,0:0:0
272,176,41078,6,2,B|191:160|166:84|189:26,1,180,2|8,0:0|0:0,0:0:0
80,64,41775,1,4,0:0:0
80,64,41892,1,4,0:0:0
80,64,42008,2,0,B|34:145,1,90
104,256,42473,2,8,B|136:168,1,90,8|0,0:0|0:0,0:0:0
200,312,42938,5,12,0:0:0
280,224,43171,2,0,B|352:288|448:272,2,180
368,144,44334,2,8,B|416:128,3,45,8|0|8|0,0:0|0:0|0:0|0:0,0:0:0
360,88,44799,6,0,B|341:55|269:47|237:79,1,135,8|0,0:0|0:0,0:3:0
192,104,45264,2,0,B|160:72|88:80|64:120,1,135,8|0,0:0|0:0,0:0:0
32,176,45729,2,8,B|32:272,1,90
136,320,46194,2,0,B|136:232,1,90,8|0,0:0|0:0,0:0:0
192,148,46659,6,0,B|242:140|293:180|292:226,1,135,8|0,0:0|0:0,0:0:0
320,264,47124,2,0,B|360:296|424:288|448:248,1,135,8|0,0:0|0:0,0:0:0
480,192,47589,2,0,B|480:96,1,90,8|0,0:0|0:0,0:0:0
376,64,48054,2,0,B|376:152,1,90,8|0,0:0|0:0,0:0:0
272,64,48520,5,8,0:0:0
256,96,48636,2,0,B|168:120,1,90
160,152,48985,2,0,B|72:176,1,90,8|0,0:0|0:0,0:0:0
32,288,49450,1,8,0:0:0
104,352,49682,1,0,0:0:0
104,352,49799,1,0,0:0:0
160,256,50031,1,0,0:0:0
240,320,50264,5,0,0:0:0
240,320,50380,1,8,0:0:0
240,320,50496,2,0,B|328:296,1,90,0|0,0:0|0:0,0:0:0
344,264,50845,2,0,B|432:240,1,90,8|0,0:0|0:0,0:0:0
464,160,51310,1,8,0:0:0
400,80,51543,1,0,0:0:0
400,80,51659,1,0,0:0:0
400,80,51775,2,0,B|368:48,3,45
376,112,52241,6,0,B|312:176|208:160,1,180,0|8,0:0|0:0,0:0:0
128,56,52938,1,0,0:0:0
128,56,53054,1,0,0:0:0
128,56,53171,2,0,B|59:115,1,90,8|0,0:0|0:0,0:0:0
64,232,53636,2,0,B|136:176,1,90,8|0,0:0|0:0,0:0:0
128,320,54101,6,0,B|192:256|296:272,1,180,8|8,0:0|0:0,0:0:0
400,352,54799,1,0,0:0:0
400,352,54915,1,0,0:0:0
400,352,55031,2,0,B|456:280,1,90,8|0,0:0|0:0,0:0:0
456,248,55380,2,0,B|456:160,2,90
424,256,55961,6,0,B|352:200,1,90,8|0,0:0|0:0,0:0:0
400,120,56427,2,0,B|328:64,1,90,8|0,0:0|0:0,0:0:0
176,64,56892,2,0,B|104:128,1,90,8|0,0:0|0:0,0:0:0
168,200,57357,2,0,B|96:264,1,90,8|0,0:0|0:0,0:0:0
176,336,57822,5,0,0:0:0
304,248,58054,1,0,0:0:0
336,336,58287,1,0,0:0:0
208,248,58520,1,0,0:0:0
280,128,58752,2,0,B|296:80,3,45
232,128,59217,2,0,B|216:80,4,45
368,128,67822,6,0,B|424:144|432:232,2,90,0|8|0,0:0|0:0|0:0,0:0:0
321,220,68520,2,0,B|272:256|304:336,2,90,8|0|8,0:0|0:0|0:0,0:0:0
368,128,69217,2,0,B|404:68,2,45,4|4|8,0:0|0:0|0:0,0:0:0
320,124,69566,6,0,B|287:104|223:104|183:128,2,135
256,244,70613,1,0,0:0:0
128,280,70845,2,0,B|96:296|80:336,2,45,0|0|4,0:0|0:0|0:0,0:0:0
191,180,71310,1,8,0:0:0
144,88,71543,2,0,B|88:104|80:192,2,90,0|8|0,0:0|0:0|0:0,0:0:0
191,180,72241,2,0,B|240:216|208:296,2,90,8|0|0,0:0|0:0|0:0,0:0:0
191,180,72938,5,0,0:0:0
288,104,73171,1,0,0:0:0
288,104,73403,1,0,0:0:0
400,112,73636,1,0,0:0:0
400,112,73868,1,0,0:0:0
496,184,74101,2,0,B|440:224,3,45,0|4|0|4,0:0|0:0|0:0|0:0,0:0:0
472,248,74566,5,0,0:0:0
440,272,74682,2,0,B|352:248,1,90
320,272,75031,2,0,B|224:248,1,90,8|0,0:0|0:0,0:0:0
128,176,75496,1,0,0:0:0
80,248,75729,1,0,0:0:0
32,176,75961,1,8,0:0:0
80,96,76194,6,0,B|80:8,2,90,2|0|4,0:0|0:0|0:0,0:0:0
120,88,76775,1,4,0:0:0
152,80,76892,1,8,0:0:0
184,72,77008,2,0,B|184:160,1,90,0|0,0:0|0:0,0:0:0
184,200,77357,1,0,0:0:0
256,296,77589,1,0,0:0:0
328,200,77822,1,8,0:0:0
256,32,78054,6,0,B|256:144,1,90,2|0,0:0|0:0,0:0:0
256,160,78403,1,0,0:0:0
256,200,78520,1,2,0:0:0
408,88,78752,2,0,B|448:112,1,45,8|2,0:0|0:0,0:0:0
400,208,79101,2,4,B|416:248,1,45,0|2,0:0|0:0,0:0:0
312,296,79450,2,0,B|296:344,2,45,0|0|10,0:0|0:0|0:0,0:0:0
176,272,79915,2,0,B|120:240|176:128|120:104,2,180
256,360,81078,5,0,0:0:0
312,272,81310,1,8,0:0:0
256,184,81543,1,2,0:0:0
416,112,82008,6,0,B|408:168|368:184|368:184|408:200|416:256,1,180,0|8,0:0|0:0,0:0:0
368,336,82706,1,4,0:0:0
368,336,82822,1,4,0:0:0
368,336,82938,1,0,0:0:0
256,296,83171,2,0,B|184:352,1,90,0|8,0:0|0:0,0:0:0
136,264,83636,6,2,B|88:192|88:192|144:184|168:128,1,180,2|0,0:0|0:0,0:0:0
80,96,84334,2,0,B|96:32,1,45,8|0,0:0|0:0,0:0:0
176,32,84682,2,0,B|216:88,1,45
248,144,85031,2,0,B|296:112|288:40,1,90,0|8,0:0|0:0,0:0:0
376,88,85496,5,0,0:0:0
376,88,85613,1,0,0:0:0
376,88,85729,2,0,B|360:144|424:184,1,90
472,272,86194,2,0,B|384:248,3,90,8|0|0|0,0:0|0:0|0:0|0:0,0:0:0
376,336,87124,2,0,B|288:312,1,90,8|0,0:0|0:0,0:0:0
216,240,87589,6,2,B|184:280|192:328|192:328|152:320|112:352,1,180,2|8,0:0|0:0,0:0:0
64,256,88287,1,0,0:0:0
56,224,88403,1,0,0:0:0
48,192,88520,1,0,0:0:0
56,80,88752,1,0,0:0:0
168,40,88985,2,0,B|176:88,3,45
208,24,89450,6,0,B|296:16|296:16|280:72|320:112,1,180,8|8,0:0|0:0,0:0:0
384,48,90147,1,4,0:0:0
384,48,90264,1,4,0:0:0
384,48,90380,1,8,0:0:0
416,168,90613,1,0,0:0:0
336,256,90845,1,8,0:0:0
304,360,91078,1,0,0:0:0
304,360,91310,6,0,B|216:368|216:368|232:312|192:272,1,180,8|0,0:0|0:0,0:0:0
128,336,92008,1,4,0:0:0
128,336,92124,1,4,0:0:0
128,336,92241,1,8,0:0:0
88,216,92473,1,0,0:0:0
176,136,92706,1,0,0:0:0
144,24,92938,1,0,0:0:0
256,56,93171,6,0,B|344:48,1,90,8|4,0:0|0:0,0:0:0
320,152,93636,2,0,B|408:144,1,90,8|4,0:0|0:0,0:0:0
328,256,94101,2,0,B|416:256,1,90,8|4,0:0|0:0,0:0:0
256,328,94566,2,0,B|344:352,1,90,0|4,0:0|0:0,0:0:0
256,328,95031,6,0,B|168:336,1,90,8|4,0:0|0:0,0:0:0
192,232,95496,2,0,B|104:240,1,90
184,128,95961,2,0,B|136:72|32:104,2,135
208,224,96892,6,0,B|248:248|296:240,1,90,8|4,0:0|0:0,0:0:0
384,184,97357,2,0,B|424:264|384:360,2,180,8|8|8,0:0|0:0|0:0,0:0:0
208,224,98520,1,0,0:0:0
304,224,98752,2,0,B|264:144|304:48,2,180,0|4|0,0:0|0:0|0:0,0:0:0
352,312,99915,1,4,0:0:0
160,312,100147,1,8,0:0:0
256,224,100380,1,4,0:0:0
302,120,100613,6,8,B|255:96|207:120,1,90,8|4,0:0|0:0,0:0:0
128,200,101078,2,0,B|88:120|128:24,2,180,8|8|8,0:0|0:0|0:0,0:0:0
216,184,102241,1,0,0:0:0
304,168,102473,2,0,B|344:248|304:344,1,180,8|8,0:0|0:0,0:0:0
304,168,103403,5,0,0:0:0
392,152,103636,1,0,0:0:0
480,136,103868,1,0,0:0:0
416,288,104334,6,0,B|416:336,2,45,8|0|0,0:0|0:0|0:0,0:0:0
312,304,104799,2,0,B|312:352,2,45,8|0|0,0:0|0:0|0:0,0:0:0
200,304,105264,2,0,B|200:352,2,45,8|0|0,0:0|0:0|0:0,0:0:0
96,288,105729,5,8,0:0:0
