osu file format v10

[General]
AudioFilename: Break!.mp3
AudioLeadIn: 2000
PreviewTime: 27782
Countdown: 0
SampleSet: Normal
StackLeniency: 0.8
Mode: 0
LetterboxInBreaks: 0

[Editor]
DistanceSpacing: 0.8
BeatDivisor: 4
GridSize: 8

[Metadata]
Title:Break!
TitleUnicode:Break!
Artist:Mr. Funky
ArtistUnicode:Mr. Funky
Creator:PROGUY
Version:TS
Source:DJMax Portable 3
Tags:synth pop rock juna entia j rubystar rickyboi
BeatmapID:138831
BeatmapSetID:44222

[Difficulty]
HPDrainRate:2
CircleSize:4
OverallDifficulty:3
ApproachRate:4
SliderMultiplier:1.2
SliderTickRate:1

[Events]
//Background and Video events
Video,-1040,"vid.avi"
0,0,"Lolicore Flandre BG.jpg"
//Break Periods
2,63571,71994
//Storyboard Layer 0 (Background)
//Storyboard Layer 1 (Fail)
//Storyboard Layer 2 (Pass)
//Storyboard Layer 3 (Foreground)
//Storyboard Sound Samples
//Background Colour Transformations
3,100,163,162,255

[TimingPoints]
3012,359.281437125748,4,1,0,50,1,0
6065,-100,4,1,2,50,0,0
6425,-100,4,1,0,50,0,0
11814,-100,4,1,2,50,0,0
12173,-100,4,1,0,50,0,0
20437,-100,4,1,2,50,0,0
20796,-100,4,1,0,50,0,0
21874,-100,4,1,2,50,0,0
22233,-100,4,1,0,50,0,0
49179,-100,4,1,2,50,0,0
49538,-100,4,1,0,50,0,0
49898,-100,4,1,2,50,0,0
50257,-100,4,1,0,50,0,0
56365,-100,4,1,2,50,0,0
56724,-100,4,1,0,50,0,0
57083,-100,4,1,2,50,0,0
57443,-100,4,1,0,50,0,0
74868,-100,4,1,0,50,0,1
82233,-100,4,1,2,50,0,1
82592,-100,4,1,0,50,0,1
86365,-100,4,1,0,50,0,0
87263,-100,4,1,2,50,0,0
87622,-100,4,1,0,50,0,0
90856,-100,4,1,2,50,0,0
91215,-100,4,1,0,50,0,0
97862,-100,4,1,0,50,0,1
109359,-100,4,1,0,50,0,0

[Colours]
Combo1 : 160,66,255
Combo2 : 128,255,255
Combo3 : 255,255,111
Combo4 : 255,151,203

[HitObjects]
49,109,5886,2,0,B|82:41|182:13|266:55,1,240,4|0,0:0|0:0,0:0:0
207,187,7143,2,0,B|263:223|322:185,2,120
326,268,8401,1,8,0:0:0
420,247,8760,6,0,B|459:189|416:128,2,120,0|8|0,0:0|0:0|0:0,0:0:0
326,268,9838,1,8,0:0:0
230,268,10197,2,0,B|104:268,1,120,0|8,0:0|0:0,0:0:0
40,200,10916,2,0,B|178:200,1,120,0|8,0:0|0:0,0:0:0
92,132,11634,6,0,B|116:44|196:4|300:36,1,240
410,95,12892,2,0,B|456:155|417:218,2,120
327,212,14149,1,8,0:0:0
358,303,14509,6,8,B|279:370|186:339,1,180
88,239,15586,2,8,B|166:171|259:202,1,180
396,230,16664,1,8,0:0:0
396,230,17023,1,8,0:0:0
353,143,17383,1,6,0:0:0
276,85,17742,6,0,B|269:42|231:24,2,60,8|0|0,0:0|0:0|0:0,0:0:0
181,102,18461,1,8,0:0:0
88,75,18820,2,0,B|95:32|133:14,2,60,0|0|8,0:0|0:0|0:0,0:0:0
105,169,19538,1,0,0:0:0
105,169,19898,1,8,0:0:0
60,254,20257,6,0,B|144:328|232:264|328:184|408:256,1,360,0|8,0:0|0:0,0:0:0
428,157,21694,2,0,B|328:112|216:160|128:256|72:144,1,360,0|8,0:0|0:0,0:0:0
69,71,23131,1,4,0:0:0
164,58,23491,6,8,B|290:11|405:74,1,240
444,152,24568,1,0,0:0:0
445,248,24928,2,8,B|338:306|212:259,1,240
118,242,26006,5,0,0:0:0
162,157,26365,2,0,B|113:150|117:98,2,60,8|0|0,0:0|0:0|0:0,0:0:0
204,71,27083,2,0,B|234:39|279:39|313:73,1,120,8|4,0:0|0:0,0:0:0
353,157,27802,1,0,0:0:0
383,248,28161,2,0,B|424:199,2,60
324,324,28880,5,4,0:0:0
236,284,29239,2,8,B|181:245|181:101|245:61,2,240
401,176,31395,1,8,0:0:0
209,188,32113,5,8,0:0:0
123,143,32473,2,0,B|124:69|192:49,2,120,0|8|0,0:0|0:0|0:0,0:0:0
123,238,33550,2,0,B|124:312|192:332,2,120,8|0|8,0:0|0:0|0:0,0:0:0
307,299,34988,6,8,B|401:192|299:77,1,240,12|8,0:0|0:0,0:0:0
225,137,36065,2,0,B|265:193|225:250,1,120,0|8,0:0|0:0,0:0:0
146,194,36784,2,0,B|125:166|47:167|27:206,1,120,0|8,0:0|0:0,0:0:0
91,272,37503,6,8,B|125:330|208:330|239:272,1,180
165,148,38580,2,8,B|200:92|282:92|320:151,1,180,8|8,0:0|0:0,0:0:0
452,197,39658,1,8,0:0:0
452,197,40017,1,8,0:0:0
340,38,40736,6,0,B|294:99|227:99,1,120,14|0,0:0|0:0,0:0:0
213,190,41455,2,0,B|142:190|105:127,1,120,10|0,0:0|0:0,0:0:0
34,79,42173,2,0,B|34:14,2,60,8|0|0,0:0|0:0|0:0,0:0:0
34,175,42892,1,8,0:0:0
34,270,43251,5,0,0:0:0
127,292,43610,2,0,B|103:219|156:169,1,120,10|0,0:0|0:0,0:0:0
240,198,44329,2,0,B|263:270|210:320,1,120,10|0,0:0|0:0,0:0:0
313,329,45047,1,8,0:0:0
406,308,45407,2,0,B|439:301|454:257,2,60,0|8|8,0:0|0:0|0:0,0:0:0
331,132,46485,6,0,B|331:60,2,60,14|0|0,0:0|0:0|0:0,0:0:0
292,219,47203,2,0,B|292:291,2,60,10|0|0,0:0|0:0|0:0,0:0:0
199,192,47922,1,8,0:0:0
118,139,48281,1,0,0:0:0
118,139,48640,1,8,0:0:0
72,224,49000,6,0,B|72:296|161:347|265:379|369:347|440:296|440:216,1,480,4|0,0:0|0:0,0:0:0
374,36,51155,2,0,B|443:32|474:108,1,120,0|0,0:0|0:0,0:0:0
380,133,51874,1,4,0:0:0
290,100,52233,5,8,0:0:0
195,84,52592,1,0,0:0:0
301,181,53131,2,0,B|234:199|227:266,1,120,4|0,0:0|0:0,0:0:0
323,264,53850,2,0,B|321:331|256:355,1,120
125,304,54748,6,0,B|53:288|53:208,1,120,0|8,0:0|0:0,0:0:0
53,123,55467,2,0,B|52:54|124:38,1,120,0|8,0:0|0:0,0:0:0
219,33,56185,2,0,B|437:33|437:311|212:311,1,480,0|4,0:0|0:0,0:0:0
128,272,57982,6,0,B|96:240|96:192|136:160,1,120,8|0,0:0|0:0,0:0:0
212,112,58700,2,0,B|244:144|244:192|204:224,1,120,8|0,0:0|0:0,0:0:0
212,316,59419,2,0,B|244:348|292:348|324:308,1,120,8|0,0:0|0:0,0:0:0
388,248,60137,1,8,0:0:0
256,192,60497,12,4,63371,0:0:0
256,146,74868,5,4,0:0:0
311,67,75227,2,0,B|287:35|226:35|204:68,1,120,8|0,0:0|0:0,0:0:0
137,134,75946,2,0,B|105:158|105:219|138:241,1,120,8|0,0:0|0:0,0:0:0
208,304,76664,2,0,B|232:336|293:336|315:303,2,120,8|0|8,0:0|0:0|0:0,0:0:0
262,230,77742,5,0,0:0:0
262,230,78101,1,8,0:0:0
357,220,78461,1,0,0:0:0
357,220,78820,1,8,0:0:0
452,224,79179,2,0,B|459:185|425:129|368:124,1,120,0|8,0:0|0:0,0:0:0
407,34,79898,2,0,B|368:23|310:52|300:108,1,120,0|8,0:0|0:0,0:0:0
124,140,80976,6,8,B|56:213|168:316|235:241,1,240,12|8,0:0|0:0,0:0:0
305,176,82053,2,0,B|371:101|483:202|416:277,1,240
346,344,83131,1,8,0:0:0
256,192,83491,12,4,86365,0:0:0
370,52,87083,6,0,B|255:-15|140:54,1,240
142,148,88161,2,8,B|257:215|372:146,1,240
369,339,89598,6,8,B|256:406|141:339,1,240
141,244,90676,2,0,B|253:176|368:243,1,240
368,243,91754,1,8,0:0:0
324,55,92473,5,8,0:0:0
228,45,92832,2,0,B|160:14|122:74,1,120,0|8,0:0|0:0,0:0:0
72,153,93550,2,0,B|25:210|73:263,1,120,0|8,0:0|0:0,0:0:0
139,328,94269,2,0,B|197:372|248:323,1,120,0|8,0:0|0:0,0:0:0
308,254,94988,5,8,0:0:0
174,199,95526,2,8,B|103:192|72:120|114:61,1,180
252,39,96604,2,8,B|318:22|370:83|360:157,1,180
361,146,97503,1,8,0:0:0
276,189,97862,5,4,0:0:0
276,189,98221,2,0,B|161:228|177:88|52:138,1,240,10|10,0:0|0:0,0:0:0
34,326,99658,2,0,B|90:382|157:319,2,120,8|0|8,0:0|0:0|0:0,0:0:0
57,135,101095,6,0,B|151:180|151:180|125:199|125:199|224:247,1,240,10|10,0:0|0:0,0:0:0
396,316,102532,1,8,0:0:0
408,220,102892,2,0,B|474:220,2,60,0|8|8,0:0|0:0|0:0,0:0:0
310,54,103970,6,0,B|189:54,1,120,10|0,0:0|0:0,0:0:0
256,123,104689,2,0,B|142:175,1,120,10|0,0:0|0:0,0:0:0
236,209,105407,2,0,B|158:300,2,120,8|0|8,0:0|0:0|0:0,0:0:0
256,192,106485,12,4,109359,0:0:0
