osu file format v10

[General]
AudioFilename: Break!.mp3
AudioLeadIn: 2000
PreviewTime: 27782
Countdown: 0
SampleSet: Normal
StackLeniency: 0.8
Mode: 0
LetterboxInBreaks: 0

[Editor]
DistanceSpacing: 1
BeatDivisor: 4
GridSize: 8

[Metadata]
Title:Break!
TitleUnicode:Break!
Artist:Mr. Funky
ArtistUnicode:Mr. Funky
Creator:PROGUY
Version:SS
Source:DJMax Portable 3
Tags:synth pop rock juna entia j rubystar rickyboi
BeatmapID:138697
BeatmapSetID:44222

[Difficulty]
HPDrainRate:5
CircleSize:4
OverallDifficulty:4
ApproachRate:7
SliderMultiplier:1.5
SliderTickRate:2

[Events]
//Background and Video events
Video,-1040,"vid.avi"
0,0,"Lolicore Flandre BG.jpg"
//Break Periods
2,63571,68219
//Storyboard Layer 0 (Background)
//Storyboard Layer 1 (Fail)
//Storyboard Layer 2 (Pass)
//Storyboard Layer 3 (Foreground)
//Storyboard Sound Samples
//Background Colour Transformations
3,100,163,162,255

[TimingPoints]
3012,359.281437125748,4,2,0,50,1,0
4449,-100,4,1,0,50,0,0
13341,-100,4,1,2,50,0,0
13520,-100,4,1,0,50,0,0
56634,-83.3333333333333,4,1,0,50,0,0
57173,-83.3333333333333,4,1,2,50,0,0
57353,-83.3333333333333,4,1,0,50,0,0
57802,-100,4,1,0,50,0,0
63461,-100,4,2,0,50,0,0
71904,-100,4,1,0,50,0,0
74868,-100,4,1,0,50,0,1
82323,-100,4,1,2,50,0,1
82503,-100,4,1,0,50,0,1
83760,-100,4,1,2,50,0,1
83940,-100,4,1,0,50,0,1
86365,-100,4,1,0,50,0,0
93820,-100,4,1,2,50,0,0
94000,-100,4,1,0,50,0,0
97862,-100,4,1,0,50,0,1
109359,-100,4,1,0,50,0,0

[Colours]
Combo1 : 160,66,255
Combo2 : 128,255,255
Combo3 : 255,255,111
Combo4 : 255,151,203

[HitObjects]
98,295,3012,1,0,0:0:0
137,261,3191,2,0,B|166:236|213:229,1,75,0|8,0:0|0:0,0:0:0
257,224,3550,2,0,B|309:217|346:254,1,75
419,292,4089,1,8,0:0:0
438,136,4628,6,0,B|477:129|496:91,2,75
385,136,5167,1,0,0:0:0
279,136,5526,2,0,B|216:136,4,37.5,0|0|0|0|4,0:0|0:0|0:0|0:0|0:0,0:0:0
176,26,6245,6,0,B|70:20|67:119,1,150,8|0,0:0|0:0,0:0:0
53,253,6964,1,8,0:0:0
53,253,7143,2,0,B|55:359|162:356,1,150,0|0,0:0|0:0,0:0:0
289,359,7862,2,0,B|379:353|409:277,1,150
407,281,8401,1,8,0:0:0
454,137,8760,6,0,B|471:87|404:39|351:75,1,150,0|8,0:0|0:0,0:0:0
300,122,9299,1,0,0:0:0
243,72,9479,2,0,B|195:39|128:87|145:137,1,150,0|8,0:0|0:0,0:0:0
170,205,10017,1,0,0:0:0
56,303,10377,5,0,0:3:0
114,313,10556,1,8,0:0:0
173,324,10736,1,0,0:3:0
265,206,11095,1,0,0:0:0
265,206,11275,1,8,0:0:0
359,321,11634,6,0,B|460:321|460:228,2,150,0|12|0,0:0|0:0|0:0,0:0:0
208,321,12712,1,8,0:0:0
208,321,12892,2,0,B|107:321|107:228,2,150,0|0|0,0:0|0:0|0:0,0:0:0
169,175,13970,2,0,B|272:175,1,75,0|8,0:0|0:0,0:0:0
323,47,14509,5,12,0:0:0
431,150,14868,2,0,B|397:114|365:153,1,75,0|12,0:0|0:0,0:0:0
342,298,15407,2,0,B|308:334|276:295,1,75,0|12,0:0|0:0,0:0:0
244,150,15946,2,0,B|210:114|178:153,1,75,0|12,0:0|0:0,0:0:0
155,298,16485,2,0,B|121:334|89:295,1,75,0|12,0:0|0:0,0:0:0
91,297,17023,1,8,0:0:0
133,153,17383,5,6,0:0:0
238,47,17742,2,0,B|295:39|322:90,1,75,8|0,0:0|0:0,0:0:0
354,126,18101,1,0,0:0:0
419,261,18461,1,8,0:0:0
291,339,18820,5,0,0:0:0
291,339,19000,2,0,B|213:339,2,75,0|8|0,0:0|0:0|0:0,0:0:0
263,269,19538,2,0,B|337:269,2,75,0|0|8,0:0|0:0|0:0,0:0:0
123,212,20257,5,0,0:0:0
123,212,20437,1,0,0:0:0
87,145,20616,2,8,B|87:24|286:24|286:154,1,300
433,175,21694,5,0,0:0:0
433,175,21874,1,0,0:0:0
472,238,22053,2,8,B|472:356|269:355|268:233,1,300
252,163,22952,1,0,0:0:0
236,89,23131,5,4,0:0:0
92,43,23491,1,8,0:0:0
44,184,23850,2,0,B|34:281|135:299,1,150,0|8,0:0|0:0,0:0:0
269,324,24568,6,0,B|293:324|293:324|332:324|332:255|293:255|293:255|258:255,1,150,0|8,0:0|0:0,0:0:0
192,255,25107,1,0,0:0:0
222,186,25287,2,0,B|295:186,1,75
327,117,25646,2,0,B|250:117,1,75,8|0,0:0|0:0,0:0:0
213,51,26006,6,0,B|143:123|229:196,2,150,0|8|0,0:0|0:0|0:0,0:0:0
362,51,27083,2,0,B|432:123|346:196,1,150,0|4,0:0|0:0,0:0:0
288,314,27802,1,0,0:0:0
140,340,28161,2,0,B|121:350|92:343,8,37.5,0|0|0|0|0|0|0|0|4,0:0|0:0|0:0|0:0|0:0|0:0|0:0|0:0|0:0,0:0:0
186,197,29239,5,8,0:0:0
41,159,29598,2,0,B|62:75|164:52,1,150,0|8,0:0|0:0,0:0:0
216,44,30137,1,0,0:0:0
366,38,30497,2,0,B|412:39|440:71,2,75,0|8|0,0:0|0:0|0:0,0:0:0
279,160,31215,2,0,B|306:196|354:196,1,75,0|8,0:0|0:0,0:0:0
481,137,31754,5,0,0:0:0
332,114,32113,1,8,0:0:0
332,114,32473,2,0,B|242:95|184:166,1,150,0|8,0:0|0:0,0:0:0
259,191,33011,2,0,B|195:257|107:230,1,150,0|0,0:0|0:0,0:0:0
52,209,33550,1,8,0:0:0
52,209,33730,1,0,0:0:0
99,66,34089,2,0,B|139:43|182:66,1,75,0|8,0:0|0:0,0:0:0
317,94,34628,6,0,B|368:111|368:191|312:215,1,150,0|12,0:0|0:0,0:0:0
247,242,35167,1,0,0:0:0
181,279,35347,2,0,B|156:235|192:185,2,75,0|0|8,0:0|0:0|0:0,0:0:0
246,315,35886,1,0,0:0:0
395,330,36245,2,0,B|452:330|457:268,2,75,0|8|0,0:0|0:0|0:0,0:0:0
350,186,36964,1,0,0:0:0
350,186,37143,1,8,0:0:0
256,68,37503,6,8,B|304:65|330:107,1,75,12|8,0:0|0:0,0:0:0
132,192,38041,2,8,B|129:143|171:117,1,75,12|8,0:0|0:0,0:0:0
256,316,38580,2,8,B|207:318|181:276,1,75,12|8,0:0|0:0,0:0:0
380,192,39119,2,8,B|382:240|340:266,1,75,12|8,0:0|0:0,0:0:0
256,192,39658,1,6,0:0:0
256,192,40017,1,6,0:0:0
95,80,40377,5,0,0:0:0
240,48,40736,2,0,B|240:104|304:136|352:120,1,150,10|0,0:0|0:0,0:0:0
416,88,41275,1,0,0:0:0
488,104,41455,1,10,0:0:0
416,88,41634,1,0,0:0:0
373,268,41994,6,0,B|419:274|445:250,2,75,0|8|0,0:0|0:0|0:0,0:0:0
300,252,42532,2,0,B|246:244|230:211,1,75
186,161,42892,1,8,0:0:0
347,51,43251,5,0,0:0:0
488,102,43610,2,0,B|488:142|488:142|488:176|465:199|436:199|436:199|404:199,1,150,10|0,0:0|0:0,0:0:0
338,199,44149,1,0,0:0:0
267,226,44329,2,0,B|248:236|248:236|235:242|222:260|222:274|222:274|222:290,1,75,10|0,0:0|0:0,0:0:0
358,342,44868,5,0,0:0:0
409,287,45047,2,0,B|418:231|377:190,1,75,8|0,0:0|0:0,0:0:0
354,151,45407,1,0,0:0:0
300,99,45586,1,0,0:0:0
300,99,45766,1,8,0:0:0
163,36,46125,5,0,0:0:0
50,135,46485,2,0,B|17:177|32:237|94:263,1,150,10|0,0:0|0:0,0:0:0
35,314,47023,1,0,0:0:0
35,314,47203,2,0,B|72:358|125:362|177:327,1,150,10|0,0:0|0:0,0:0:0
227,283,47742,5,0,0:0:0
227,283,47922,1,8,0:0:0
282,232,48101,2,0,B|326:206|297:142,1,75
286,94,48461,2,0,B|271:49|217:38,2,75,0|8|0,0:0|0:0|0:0,0:0:0
256,192,49000,12,4,50437,0:0:0
235,37,51155,5,0,0:0:0
376,87,51514,2,0,B|358:32,2,37.5,0|0|0,0:0|0:0|0:0,0:0:0
397,159,51874,2,0,B|417:254|313:267,1,150,4|8,0:0|0:0,0:0:0
248,276,52413,1,0,0:0:0
174,264,52592,2,0,B|80:252|100:157,1,150,0|8,0:0|0:0,0:0:0
118,86,53131,1,4,0:0:0
267,103,53491,2,0,B|317:79|299:27,2,75,0|8|0,0:0|0:0|0:0,0:0:0
138,180,54209,2,0,B|88:204|106:256,2,75,0|8|0,0:0|0:0|0:0,0:0:0
203,142,54748,5,4,0:0:0
320,48,55107,2,0,B|358:37|405:58,1,75,8|0,0:0|0:0,0:0:0
352,136,55467,2,0,B|391:129|436:153,1,75
376,224,55826,2,0,B|415:220|458:248,1,75,8|0,0:0|0:0,0:0:0
392,312,56185,2,0,B|432:312|472:344,2,75,0|0|8,0:0|0:0|0:0,0:0:0
304,312,56724,2,0,B|176:320|168:248|176:160|256:176|320:192|320:80|312:0|168:56,1,450.000010728836,0|4,0:0|0:0,0:0:0
62,85,57982,6,0,B|31:123|73:165,1,75,8|0,0:0|0:0,0:0:0
131,121,58341,2,0,B|162:159|120:201,1,75
62,222,58700,1,8,0:0:0
62,222,58880,2,0,B|31:260|73:302,1,75
132,261,59239,2,0,B|129:309|187:319,1,75,0|8,0:0|0:0,0:0:0
215,253,59599,2,0,B|242:293|294:264,1,75,0|0,0:0|0:0,0:0:0
267,196,59958,2,0,B|312:210|336:156,1,75,0|8,0:0|0:0,0:0:0
256,192,60497,12,0,61934,0:0:0
219,315,62293,6,0,B|176:312|144:280,2,75,8|0|0,0:0|0:0|0:0,0:0:0
294,315,62832,2,8,B|336:312|368:280,1,75
256,128,63371,1,4,0:0:0
220,324,69119,6,0,B|191:278|236:238,1,75
292,324,69479,2,0,B|321:278|276:238,1,75,8|0,0:0|0:0,0:0:0
256,163,69838,1,0,0:0:0
256,163,70197,6,0,B|154:163|154:33|258:33,1,225,8|0,0:0|0:0,0:0:0
332,32,70916,2,0,B|437:32|438:129,1,150,8|0,0:0|0:0,0:0:0
437,189,71455,2,0,B|437:242|376:242,1,75,0|8,0:0|0:0,0:0:0
284,343,71994,6,0,B|131:269,1,150,8|0,0:0|0:0,0:0:0
150,202,72532,2,0,B|285:267,1,150,8|0,0:0|0:0,0:0:0
286,191,73071,2,0,B|133:117,1,150,8|0,0:0|0:0,0:0:0
152,50,73609,2,0,B|287:115,1,150,8|0,0:0|0:0,0:0:0
355,146,74149,1,8,0:0:0
352,70,74329,2,0,B|273:32,2,75,0|8|0,0:0|0:0|0:0,0:0:0
417,105,74868,5,4,0:0:0
492,234,75227,2,0,B|459:323|343:293,1,150,8|0,0:0|0:0,0:0:0
299,276,75766,2,0,B|260:256|225:276,1,75,0|8,0:0|0:0,0:0:0
160,309,76125,1,0,0:0:0
92,341,76305,2,0,B|49:365|11:343,2,75,0|0|8,0:0|0:0|0:0,0:0:0
160,309,76844,1,0,0:0:0
111,252,77023,2,0,B|77:215|34:225,2,75,0|0|8,0:0|0:0|0:0,0:0:0
54,107,77742,5,0,0:0:0
198,63,78101,2,0,B|251:53|275:86,1,75,8|0,0:0|0:0,0:0:0
320,133,78461,1,0,0:0:0
320,207,78640,2,0,B|298:252|242:255,2,75,0|8|0,0:0|0:0|0:0,0:0:0
462,158,79359,2,0,B|480:106|443:58,2,75,0|8|0,0:0|0:0|0:0,0:0:0
387,287,80077,2,0,B|357:319|318:324,1,75,0|8,0:0|0:0,0:0:0
249,341,80437,1,0,0:0:0
174,345,80616,5,0,0:0:0
32,293,80976,1,12,0:0:0
47,144,81335,2,0,B|83:122|127:136,1,75,0|0,0:0|0:0,0:0:0
192,153,81694,1,8,0:0:0
265,167,81874,2,0,B|356:175|402:95,3,150
419,36,83131,1,8,0:0:0
269,46,83491,5,0,0:0:0
269,46,83670,2,0,B|180:14|130:97,1,150
205,118,84209,2,0,B|133:178|180:263,1,150,0|8,0:0|0:0,0:0:0
236,209,84748,2,0,B|272:295|367:275,1,150
332,205,85287,2,0,B|425:204|444:109,1,150,8|0,0:0|0:0,0:0:0
441,121,86006,1,8,0:0:0
256,92,86365,5,4,0:0:0
115,39,86724,2,0,B|44:74,2,75,8|0|0,0:0|0:0|0:0,0:0:0
127,113,87263,2,0,B|52:149,1,75,0|8,0:0|0:0,0:0:0
72,219,87622,2,0,B|139:186,1,75
153,260,87982,2,0,B|78:296,1,75,0|8,0:0|0:0,0:0:0
104,365,88341,2,0,B|171:332,1,75,0|0,0:0|0:0,0:0:0
239,299,88700,1,0,0:0:0
239,299,88880,1,8,0:0:0
256,92,89239,5,0,0:0:0
397,39,89598,2,0,B|468:74,2,75,8|0|0,0:0|0:0|0:0,0:0:0
385,113,90137,2,0,B|460:149,1,75,0|8,0:0|0:0,0:0:0
440,219,90496,2,0,B|373:186,1,75
359,260,90856,2,0,B|434:296,1,75,0|8,0:0|0:0,0:0:0
408,365,91215,2,0,B|341:332,1,75,0|0,0:0|0:0,0:0:0
273,299,91574,1,0,0:0:0
273,299,91754,1,8,0:0:0
425,192,92113,5,0,0:0:0
323,81,92473,2,0,B|309:41|261:44,1,75,12|0,0:0|0:0,0:0:0
260,119,92832,2,0,B|225:95|189:126,1,75
231,188,93191,2,0,B|189:195|185:242,1,75,8|0,0:0|0:0,0:0:0
335,256,93730,2,0,B|291:332|187:317,2,150
356,184,94628,1,8,0:0:0
256,192,94988,12,0,97143,0:0:0
294,312,97503,6,0,B|255:322,2,37.5
366,292,97862,2,0,B|390:284|390:284|417:273|439:241|439:209|439:209|439:175,1,150,12|10,0:0|0:0,0:0:0
332,72,98580,1,8,0:0:0
181,72,98940,2,0,B|157:80|157:80|130:91|108:123|108:155|108:155|108:189,1,150,10|8,0:0|0:0,0:0:0
108,335,99658,1,8,0:0:0
258,335,100017,2,0,B|301:335|321:296,2,75,8|0|8,0:0|0:0|0:0,0:0:0
126,261,100736,5,8,0:0:0
73,120,101095,2,0,B|73:76|116:55,2,75,10|0|8,0:0|0:0|0:0,0:0:0
202,195,101814,2,0,B|241:175|241:127,1,75,10|0,0:0|0:0,0:0:0
241,60,102173,1,8,0:0:0
388,36,102532,2,0,B|430:37|450:75,2,75,8|0|8,0:0|0:0|0:0,0:0:0
385,110,103071,1,0,0:0:0
385,110,103251,1,8,0:0:0
470,234,103610,5,12,0:0:0
353,326,103970,2,0,B|279:360|196:321,1,150,10|8,0:0|0:0,0:0:0
189,253,104509,1,0,0:0:0
173,179,104688,2,0,B|244:145|318:179,2,150,10|8|8,0:0|0:0|0:0,0:0:0
106,214,105586,1,0,0:0:0
55,269,105766,2,0,B|21:298|40:347,2,75,8|0|8,0:0|0:0|0:0,0:0:0
256,192,106485,12,4,109359,0:0:0
