osu file format v10

[General]
AudioFilename: MAMMAMAMAMAMAMMAMAHJAKSDFGHDFJKGH DFGHDFGUDFBGGHGHDFHJHJJJHJ.mp3
AudioLeadIn: 0
PreviewTime: -1
Countdown: 1
SampleSet: Soft
StackLeniency: 0.7
Mode: 0
LetterboxInBreaks: 1

[Editor]
DistanceSpacing: 0.8
BeatDivisor: 12
GridSize: 8

[Metadata]
Title:MAMMAMAMAMAMAMMAMA
TitleUnicode:MAMMAMAMAMAMAMMAMA
Artist:Mr. Anacleto
ArtistUnicode:Mr. Anacleto
Creator:Anacleto
Version:Normal
Source:
Tags:Best Song EU.
BeatmapID:190688
BeatmapSetID:64955

[Difficulty]
HPDrainRate:5
CircleSize:5
OverallDifficulty:5
ApproachRate:5
SliderMultiplier:1.3
SliderTickRate:1

[Events]
//Background and Video events
0,0,"4687.jpg"
//Break Periods
2,32304,36378
2,62343,70859
2,116315,129331
2,247446,252693
2,335666,338540
2,356492,356592
2,491989,492042
//Storyboard Layer 0 (Background)
//Storyboard Layer 1 (Fail)
//Storyboard Layer 2 (Pass)
//Storyboard Layer 3 (Foreground)
//Storyboard Sound Samples
//Background Colour Transformations
3,100,255,255,255

[TimingPoints]
0,500,4,2,0,100,1,0
0,-133.333333333333,4,2,0,100,0,0

[HitObjects]
64,72,20429,1,0,0:0:0
216,80,21889,1,0,0:0:0
328,96,23009,1,0,0:0:0
304,168,23759,1,0,0:0:0
240,160,24401,1,0,0:0:0
176,152,25032,1,0,0:0:0
168,160,27605,2,0,P|456:200|456:200|448:200,3,292.5
256,192,37578,12,0,38583,0:0:0
256,192,39985,12,0,41499,0:0:0
256,192,43768,12,4,44598,0:0:0
256,192,46618,12,6,47098,0:0:0
96,128,48618,5,6,0:0:0
152,136,49139,1,6,0:0:0
192,136,49544,1,6,0:0:0
240,136,50044,1,6,0:0:0
256,224,50879,1,6,0:0:0
216,224,51265,1,6,0:0:0
176,208,51658,1,6,0:0:0
232,8,53650,2,6,P|168:208,1,205.833333333333
48,216,56410,2,6,P|232:224,1,184.166666666667
224,104,59004,2,6,P|256:272,1,162.5
176,288,61032,2,6,P|296:104,1,216.666666666667
277,116,72059,6,0,P|82:217,1,216.666666666667
120,161,77861,1,0,0:0:0
379,152,78622,1,0,0:0:0
288,267,79129,1,0,0:0:0
14,220,79703,1,0,0:0:0
156,134,80099,1,0,0:0:0
314,124,80484,1,0,0:0:0
279,217,81109,1,0,0:0:0
279,217,81290,1,0,0:0:0
189,229,81847,1,0,0:0:0
147,179,82221,1,0,0:0:0
296,153,82686,1,0,0:0:0
293,192,83317,1,0,0:0:0
241,266,83920,1,0,0:0:0
166,221,84241,1,0,0:0:0
166,131,84599,1,0,0:0:0
303,164,85080,1,0,0:0:0
304,222,85483,1,0,0:0:0
174,238,86051,1,0,0:0:0
147,129,86333,1,0,0:0:0
280,80,86644,1,0,0:0:0
346,144,87308,1,0,0:0:0
346,144,87469,1,0,0:0:0
346,144,87631,1,0,0:0:0
346,144,87792,1,0,0:0:0
346,144,87974,1,0,0:0:0
346,144,88129,1,0,0:0:0
346,144,88302,1,0,0:0:0
346,144,88481,1,0,0:0:0
346,144,88638,1,0,0:0:0
346,144,88778,1,0,0:0:0
346,144,88966,1,0,0:0:0
346,144,89150,1,0,0:0:0
346,144,89288,1,0,0:0:0
256,156,89698,1,0,0:0:0
182,173,90112,1,0,0:0:0
87,124,90639,1,0,0:0:0
202,90,91002,1,0,0:0:0
401,112,91361,1,0,0:0:0
360,186,91731,1,0,0:0:0
246,208,92203,1,0,0:0:0
246,208,92378,1,0,0:0:0
246,208,92539,1,0,0:0:0
246,208,92709,1,0,0:0:0
246,208,92882,1,0,0:0:0
246,208,93057,1,0,0:0:0
246,208,93336,1,0,0:0:0
246,208,93419,1,0,0:0:0
246,208,93600,1,0,0:0:0
246,208,93769,1,0,0:0:0
246,208,93963,1,0,0:0:0
246,208,94155,1,0,0:0:0
246,208,94340,1,0,0:0:0
246,208,94509,1,0,0:0:0
246,208,94681,1,0,0:0:0
246,208,94879,1,0,0:0:0
246,208,95068,1,0,0:0:0
246,208,95254,1,0,0:0:0
246,208,95421,1,0,0:0:0
246,208,95612,1,0,0:0:0
246,208,95800,1,0,0:0:0
246,208,95992,1,0,0:0:0
246,208,96171,1,0,0:0:0
246,208,96359,1,0,0:0:0
246,208,96555,1,0,0:0:0
246,208,96747,1,0,0:0:0
246,208,96915,1,0,0:0:0
246,208,97112,1,0,0:0:0
246,208,97310,1,0,0:0:0
246,208,97511,1,0,0:0:0
246,208,97672,1,0,0:0:0
246,208,97858,1,0,0:0:0
246,208,98048,1,0,0:0:0
246,208,98194,1,0,0:0:0
255,147,98692,1,0,0:0:0
164,153,99118,1,0,0:0:0
144,252,99532,1,0,0:0:0
321,264,99877,1,0,0:0:0
341,169,100244,1,0,0:0:0
244,131,100608,1,0,0:0:0
50,157,100939,1,0,0:0:0
85,232,101349,1,0,0:0:0
286,90,102074,1,0,0:0:0
244,121,103169,1,0,0:0:0
214,142,103669,1,0,0:0:0
186,164,104227,1,0,0:0:0
159,191,104691,1,0,0:0:0
181,216,105098,1,0,0:0:0
231,217,105475,1,0,0:0:0
251,176,105802,1,0,0:0:0
240,130,106162,1,0,0:0:0
204,101,106500,1,0,0:0:0
132,103,106730,1,0,0:0:0
111,121,106939,1,0,0:0:0
109,157,107142,1,0,0:0:0
132,200,107322,1,0,0:0:0
211,207,107519,1,0,0:0:0
296,184,107707,1,0,0:0:0
309,146,107900,1,0,0:0:0
349,109,108105,1,0,0:0:0
256,192,111444,12,0,116115,0:0:0
256,192,130531,12,4,131422,0:0:0
256,192,134939,12,0,135868,0:0:0
116,160,137899,5,0,0:0:0
302,98,138293,1,0,0:0:0
407,179,138712,1,0,0:0:0
163,257,139355,1,0,0:0:0
94,141,139659,1,0,0:0:0
239,69,139981,1,0,0:0:0
335,171,140323,1,0,0:0:0
182,256,141165,1,0,0:0:0
159,131,141477,1,0,0:0:0
316,186,142001,1,0,0:0:0
141,264,142755,1,0,0:0:0
191,130,143082,1,0,0:0:0
327,212,143369,1,0,0:0:0
247,319,143969,1,0,0:0:0
146,241,144497,1,0,0:0:0
277,109,144958,1,0,0:0:0
327,178,145201,1,0,0:0:0
152,131,145994,1,0,0:0:0
259,179,146375,1,0,0:0:0
295,97,146711,1,0,0:0:0
326,218,147043,1,0,0:0:0
229,236,147294,1,0,0:0:0
163,162,147538,1,0,0:0:0
231,96,147824,1,0,0:0:0
425,158,148011,1,0,0:0:0
391,244,148207,1,0,0:0:0
260,251,148382,1,0,0:0:0
148,197,148582,1,0,0:0:0
128,126,148782,1,0,0:0:0
231,96,148983,1,0,0:0:0
306,156,149177,1,0,0:0:0
348,222,149358,1,0,0:0:0
310,287,149566,1,0,0:0:0
184,254,149769,1,0,0:0:0
128,126,149981,1,0,0:0:0
306,125,150158,1,0,0:0:0
231,96,150354,1,0,0:0:0
128,126,150554,1,0,0:0:0
293,195,150740,1,0,0:0:0
378,196,151781,1,0,0:0:0
298,247,152983,1,0,0:0:0
228,166,154269,1,0,0:0:0
159,147,154838,1,0,0:0:0
297,171,155439,1,0,0:0:0
272,202,156817,1,0,0:0:0
166,179,158563,2,0,P|426:228,1,260
351,200,162215,2,0,P|102:167,1,249.166666666667
211,77,164690,2,0,P|223:286,1,205.833333333333
222,282,166018,2,0,P|411:171,1,216.666666666667
409,172,167588,2,0,P|271:84,1,162.5
272,84,169013,2,0,P|131:191,1,173.333333333333
131,195,170781,2,0,P|285:304,1,184.166666666667
273,309,173299,1,0,0:0:0
348,195,173869,1,0,0:0:0
244,113,174421,1,0,0:0:0
66,91,174988,1,0,0:0:0
318,211,176190,1,0,0:0:0
318,211,176477,1,0,0:0:0
318,211,176724,1,0,0:0:0
209,231,177265,1,0,0:0:0
132,126,177861,1,0,0:0:0
277,70,178412,1,0,0:0:0
179,221,179031,1,0,0:0:0
179,221,179338,1,0,0:0:0
179,221,179579,1,0,0:0:0
449,136,180168,1,0,0:0:0
257,106,180717,1,0,0:0:0
476,36,181695,1,0,0:0:0
273,139,182803,5,0,0:0:0
161,163,183351,1,0,0:0:0
157,79,183861,1,0,0:0:0
234,289,184753,1,0,0:0:0
171,269,185040,1,0,0:0:0
374,161,185612,1,0,0:0:0
354,262,186064,1,0,0:0:0
259,189,186652,1,0,0:0:0
259,189,186806,1,0,0:0:0
259,189,186945,1,0,0:0:0
259,189,187110,1,0,0:0:0
259,189,187267,1,0,0:0:0
259,189,187447,1,0,0:0:0
246,116,187758,1,0,0:0:0
172,105,190847,2,0,P|378:313,1,292.5
374,301,193860,2,0,P|439:48,1,260
181,194,198232,1,0,0:0:0
422,111,198796,1,0,0:0:0
200,295,199301,1,0,0:0:0
117,151,199969,1,0,0:0:0
317,39,200647,1,0,0:0:0
246,240,201405,1,0,0:0:0
204,152,201717,1,0,0:0:0
458,174,202213,1,0,0:0:0
199,256,202738,1,0,0:0:0
180,173,204165,5,0,0:0:0
337,213,205091,1,0,0:0:0
337,213,205418,1,0,0:0:0
117,246,206442,1,0,0:0:0
122,141,206937,1,0,0:0:0
249,38,207532,1,0,0:0:0
422,117,210095,1,2,0:0:0
276,206,210969,1,2,0:0:0
437,162,212345,1,6,0:0:0
224,144,212878,1,6,0:0:0
119,223,213353,1,6,0:0:0
377,174,214440,1,14,0:0:0
377,174,214731,1,14,0:0:0
377,174,215017,1,14,0:0:0
199,142,215564,1,14,0:0:0
199,142,215781,1,14,0:0:0
199,142,216122,1,14,0:0:0
303,72,216621,1,14,0:0:0
276,222,216905,1,14,0:0:0
126,201,217199,1,14,0:0:0
114,102,217641,1,14,0:0:0
114,102,217783,1,14,0:0:0
424,216,219973,1,14,0:0:0
256,200,220494,1,14,0:0:0
176,136,220992,1,14,0:0:0
312,176,221321,1,14,0:0:0
280,256,221679,1,14,0:0:0
144,224,222277,1,14,0:0:0
256,248,223389,1,14,0:0:0
296,192,224011,1,14,0:0:0
192,184,225001,1,14,0:0:0
272,128,225943,1,14,0:0:0
328,216,227112,1,14,0:0:0
112,216,227739,1,14,0:0:0
264,104,228345,1,14,0:0:0
112,120,229838,2,14,P|312:240,1,227.5
304,240,232173,2,14,P|88:184,1,216.666666666667
88,184,234483,2,14,P|312:152,1,216.666666666667
370,157,238227,2,0,P|228:165|206:163,1,162.5
311,155,242191,2,0,P|170:200,7,140.833333333333
256,192,253893,12,0,256457,0:0:0
90,132,260339,5,0,0:0:0
333,126,260964,1,0,0:0:0
263,244,262074,1,0,0:0:0
251,104,262657,1,0,0:0:0
122,141,263221,1,0,0:0:0
269,196,264114,1,0,0:0:0
260,116,264774,1,0,0:0:0
89,274,265332,1,0,0:0:0
354,112,266374,1,0,0:0:0
235,168,266908,1,0,0:0:0
153,102,267388,1,0,0:0:0
167,288,268065,1,0,0:0:0
347,179,268682,1,0,0:0:0
207,172,269394,1,0,0:0:0
194,86,270065,1,0,0:0:0
253,119,271817,1,2,0:0:0
117,219,272434,1,2,0:0:0
351,286,273062,1,2,0:0:0
351,171,273880,1,2,0:0:0
351,171,274177,1,2,0:0:0
209,119,274725,1,2,0:0:0
268,145,277554,5,0,0:0:0
144,182,278141,1,0,0:0:0
39,162,279947,2,0,P|371:276,1,346.666666666667
368,166,283207,2,0,P|80:228,3,292.5
109,197,290739,2,0,P|303:236,4,195
256,192,298515,12,0,299125,0:0:0
256,192,300344,12,0,306568,0:0:0
52,151,307993,5,0,0:0:0
344,134,308522,1,0,0:0:0
261,189,309599,1,0,0:0:0
261,189,309847,1,0,0:0:0
70,153,310878,1,0,0:0:0
167,84,311419,1,0,0:0:0
429,191,312624,1,0,0:0:0
218,235,313447,1,0,0:0:0
156,114,314169,1,0,0:0:0
124,232,314834,1,0,0:0:0
282,122,315904,1,0,0:0:0
141,128,317465,1,0,0:0:0
196,282,318530,1,0,0:0:0
285,122,319617,1,0,0:0:0
311,239,320118,1,0,0:0:0
202,143,320712,1,0,0:0:0
106,106,321922,2,0,P|347:221,1,260
77,138,324877,2,0,P|359:232,2,292.5
102,149,330578,2,0,P|322:239,4,238.333333333333
152,114,339740,5,0,0:0:0
433,122,340742,1,0,0:0:0
251,244,341737,1,0,0:0:0
149,132,342351,1,0,0:0:0
331,92,342912,1,0,0:0:0
318,208,343443,1,0,0:0:0
318,208,343649,1,0,0:0:0
318,208,343859,1,0,0:0:0
318,208,344034,1,0,0:0:0
318,208,344184,1,0,0:0:0
318,208,344357,1,0,0:0:0
318,208,344490,1,0,0:0:0
318,208,344625,1,0,0:0:0
318,208,344760,1,0,0:0:0
318,208,344897,1,0,0:0:0
318,208,345040,1,0,0:0:0
318,208,345205,1,0,0:0:0
318,208,345497,1,0,0:0:0
318,208,345624,1,0,0:0:0
318,208,345789,1,0,0:0:0
318,208,345960,1,0,0:0:0
318,208,346111,1,0,0:0:0
318,208,346282,1,0,0:0:0
192,48,346292,5,0,0:0:0
318,208,346441,1,0,0:0:0
318,208,346618,1,0,0:0:0
318,208,346802,1,0,0:0:0
304,296,347542,1,0,0:0:0
191,142,348361,1,0,0:0:0
320,80,348542,1,0,0:0:0
112,216,349541,1,0,0:0:0
112,216,349792,1,0,0:0:0
328,280,350529,1,0,0:0:0
328,280,350792,1,0,0:0:0
240,136,351198,1,0,0:0:0
240,136,351542,1,0,0:0:0
408,176,352292,1,0,0:0:0
122,104,352798,1,0,0:0:0
184,200,353292,1,0,0:0:0
232,72,354042,1,0,0:0:0
65,246,354795,1,0,0:0:0
320,280,355042,1,0,0:0:0
334,144,355662,1,0,0:0:0
80,176,356292,1,0,0:0:0
72,144,357792,6,0,B|224:280|312:160|88:280|128:288|432:296|368:232|-40:280|-40:280|-56:96|-48:96|528:256|552:264|160:240,5,1300
415,101,359429,1,0,0:0:0
247,57,360244,1,0,0:0:0
189,72,362762,1,0,0:0:0
358,57,364735,1,0,0:0:0
162,45,365548,1,0,0:0:0
423,127,366594,1,0,0:0:0
323,64,367802,1,0,0:0:0
274,52,370392,1,0,0:0:0
436,127,371093,1,0,0:0:0
384,229,371804,1,0,0:0:0
269,72,372880,1,0,0:0:0
177,56,373497,1,0,0:0:0
352,77,374107,1,0,0:0:0
418,163,375461,1,0,0:0:0
429,254,376000,1,0,0:0:0
371,88,376642,1,0,0:0:0
258,68,377304,1,0,0:0:0
307,198,377861,1,0,0:0:0
368,232,378449,1,0,0:0:0
378,101,379067,1,0,0:0:0
212,67,380193,1,0,0:0:0
312,147,380704,1,0,0:0:0
405,84,381280,1,0,0:0:0
413,162,381932,1,0,0:0:0
248,96,382292,6,0,B|304:264|168:128|96:232,4,260
346,86,383194,1,0,0:0:0
425,122,384495,1,0,0:0:0
371,57,385332,1,0,0:0:0
449,222,386189,1,0,0:0:0
387,119,386972,1,0,0:0:0
343,67,387727,1,0,0:0:0
256,192,388792,12,0,397292,0:0:0
466,44,389717,1,0,0:0:0
441,95,390297,1,0,0:0:0
354,77,390828,1,0,0:0:0
221,80,391361,1,0,0:0:0
133,141,392058,1,0,0:0:0
331,234,392647,1,0,0:0:0
355,138,393167,1,0,0:0:0
436,207,393823,1,0,0:0:0
411,136,394553,1,0,0:0:0
246,141,395089,1,0,0:0:0
139,227,395677,1,0,0:0:0
294,260,396140,1,0,0:0:0
338,181,396763,1,0,0:0:0
167,161,397338,1,0,0:0:0
361,244,397954,1,0,0:0:0
375,112,398543,1,0,0:0:0
131,194,399068,1,0,0:0:0
266,226,400343,5,0,0:0:0
373,182,400929,5,0,0:0:0
120,160,401042,5,0,0:0:0
381,96,401441,5,0,0:0:0
248,152,401542,1,0,0:0:0
272,79,401957,5,0,0:0:0
264,264,402042,1,0,0:0:0
181,92,402523,5,0,0:0:0
160,288,402542,1,0,0:0:0
256,240,403042,5,0,0:0:0
54,169,403087,1,0,0:0:0
87,239,403617,5,0,0:0:0
224,96,403792,1,0,0:0:0
335,193,404177,5,0,0:0:0
224,195,404718,5,0,0:0:0
488,104,405042,1,0,0:0:0
134,119,405229,5,0,0:0:0
106,227,405730,5,0,0:0:0
376,176,405792,1,0,0:0:0
262,262,406282,5,0,0:0:0
248,368,406792,5,0,0:0:0
331,303,406823,1,0,0:0:0
315,168,407312,5,0,0:0:0
159,170,407839,5,0,0:0:0
172,94,408349,5,0,0:0:0
409,126,408880,5,0,0:0:0
147,267,409490,5,0,0:0:0
80,173,410012,5,0,0:0:0
288,208,410042,1,0,0:0:0
216,152,410542,5,0,0:0:0
349,254,410561,1,0,0:0:0
224,240,411042,5,0,0:0:0
313,144,411197,1,0,0:0:0
288,232,411292,1,0,0:0:0
154,130,411668,5,0,0:0:0
176,216,411792,1,0,0:0:0
148,234,412189,5,0,0:0:0
272,96,412542,1,0,0:0:0
306,268,412700,5,0,0:0:0
312,152,412792,1,0,0:0:0
373,194,413159,1,0,0:0:0
216,224,413292,1,0,0:0:0
134,162,413744,5,0,0:0:0
49,140,414644,5,0,0:0:0
144,128,415042,6,0,B|400:280,1,260
61,222,415159,1,0,0:0:0
162,273,415629,5,0,0:0:0
152,192,416145,5,0,0:0:0
222,57,416789,1,0,0:0:0
152,192,417042,2,0,B|416:136|168:72|408:368|80:256|136:160,6,390
367,93,417222,1,0,0:0:0
42,82,417857,1,0,0:0:0
40,168,418391,1,0,0:0:0
352,205,418981,1,0,0:0:0
312,89,419518,1,0,0:0:0
171,128,420029,1,0,0:0:0
132,198,420543,1,0,0:0:0
269,266,421109,1,0,0:0:0
386,224,421594,1,0,0:0:0
243,112,422139,1,0,0:0:0
107,171,422833,1,0,0:0:0
292,214,423399,1,0,0:0:0
377,147,423929,1,0,0:0:0
387,269,424397,1,0,0:0:0
167,249,424967,1,0,0:0:0
146,158,425514,1,0,0:0:0
308,176,426092,1,0,0:0:0
399,214,426689,1,0,0:0:0
192,252,427252,1,0,0:0:0
82,231,427824,1,0,0:0:0
80,128,428544,1,0,0:0:0
147,82,429082,1,0,0:0:0
368,100,429605,1,0,0:0:0
380,207,430128,1,0,0:0:0
298,272,430676,1,0,0:0:0
181,267,431152,1,0,0:0:0
84,252,431745,1,0,0:0:0
82,167,432292,1,0,0:0:0
159,129,432818,1,0,0:0:0
321,123,433335,1,0,0:0:0
275,77,433855,5,0,0:0:0
167,63,434437,1,0,0:0:0
256,192,435042,12,0,438042,0:0:0
47,101,435535,1,0,0:0:0
74,182,436078,1,0,0:0:0
134,275,436610,1,0,0:0:0
249,239,437183,1,0,0:0:0
256,192,437394,1,0,0:0:0
311,112,438253,1,0,0:0:0
120,152,438792,5,0,0:0:0
396,171,438805,1,0,0:0:0
248,184,439292,1,0,0:0:0
401,266,439357,1,0,0:0:0
276,259,439855,1,0,0:0:0
162,261,440381,1,0,0:0:0
62,259,440880,1,0,0:0:0
106,142,441392,1,0,0:0:0
256,200,441542,1,0,0:0:0
125,70,441980,1,0,0:0:0
319,78,442703,1,0,0:0:0
355,117,443525,1,0,0:0:0
232,144,443792,1,0,0:0:0
341,181,444403,1,0,0:0:0
320,248,444542,1,0,0:0:0
402,284,444841,1,0,0:0:0
240,232,445042,1,0,0:0:0
55,224,445344,1,0,0:0:0
55,224,445517,1,0,0:0:0
288,168,445542,1,0,0:0:0
55,224,445679,1,0,0:0:0
224,136,445792,1,0,0:0:0
55,224,445827,1,0,0:0:0
55,224,445991,1,0,0:0:0
55,224,446163,1,0,0:0:0
152,216,446292,1,0,0:0:0
55,224,446329,1,0,0:0:0
55,224,446487,1,0,0:0:0
192,232,446542,1,0,0:0:0
55,224,446656,1,0,0:0:0
240,216,446792,1,0,0:0:0
55,224,446828,1,0,0:0:0
55,224,446994,1,0,0:0:0
224,136,447042,1,0,0:0:0
55,224,447145,1,0,0:0:0
184,160,447292,1,0,0:0:0
55,224,447299,1,0,0:0:0
56,148,447541,1,0,0:0:0
208,200,447542,1,0,0:0:0
256,168,447792,1,0,0:0:0
95,77,448017,1,0,0:0:0
200,168,448042,1,0,0:0:0
232,224,448292,1,0,0:0:0
124,179,448481,1,0,0:0:0
280,224,448542,1,0,0:0:0
123,245,448922,1,0,0:0:0
185,274,449252,1,0,0:0:0
185,274,449393,1,0,0:0:0
456,120,449542,1,0,0:0:0
185,274,449543,1,0,0:0:0
185,274,449688,1,0,0:0:0
185,274,449844,1,0,0:0:0
185,274,449968,1,0,0:0:0
185,274,450121,1,0,0:0:0
185,274,450264,1,0,0:0:0
185,274,450421,1,0,0:0:0
185,274,450574,1,0,0:0:0
185,274,450749,1,0,0:0:0
185,274,450890,1,0,0:0:0
185,274,451066,1,0,0:0:0
185,274,451228,1,0,0:0:0
185,274,451394,1,0,0:0:0
185,274,451752,1,0,0:0:0
185,274,451929,1,0,0:0:0
185,274,452251,1,0,0:0:0
185,274,452420,1,0,0:0:0
185,274,452590,1,0,0:0:0
185,274,452769,1,0,0:0:0
185,274,452941,1,0,0:0:0
185,274,453124,1,0,0:0:0
185,274,453291,1,0,0:0:0
185,274,453473,1,0,0:0:0
64,160,453542,2,0,B|376:168|384:184,2,260
185,274,453647,1,0,0:0:0
185,274,453827,1,0,0:0:0
185,274,454010,1,0,0:0:0
185,274,454192,1,0,0:0:0
185,274,454387,1,0,0:0:0
185,274,454583,1,0,0:0:0
185,274,454714,1,0,0:0:0
185,274,454840,1,0,0:0:0
185,274,455003,1,0,0:0:0
185,274,455190,1,0,0:0:0
185,274,455360,1,0,0:0:0
185,274,455537,1,0,0:0:0
185,274,455716,1,0,0:0:0
185,274,455907,1,0,0:0:0
185,274,456098,1,0,0:0:0
185,274,456291,1,0,0:0:0
185,274,456481,1,0,0:0:0
185,274,456668,1,0,0:0:0
185,274,456858,1,0,0:0:0
185,274,457061,1,0,0:0:0
185,274,457250,1,0,0:0:0
185,274,457419,1,0,0:0:0
185,274,457596,1,0,0:0:0
185,274,457774,1,0,0:0:0
256,192,457792,12,0,464542,0:0:0
185,274,457961,1,0,0:0:0
185,274,458145,1,0,0:0:0
185,274,458355,1,0,0:0:0
185,274,458534,1,0,0:0:0
185,274,458732,1,0,0:0:0
185,274,458919,1,0,0:0:0
185,274,459105,1,0,0:0:0
185,274,459281,1,0,0:0:0
185,274,459455,1,0,0:0:0
185,274,459637,1,0,0:0:0
185,274,459825,1,0,0:0:0
185,274,460011,1,0,0:0:0
185,274,460212,1,0,0:0:0
185,274,460612,1,0,0:0:0
185,274,460804,1,0,0:0:0
185,274,461011,1,0,0:0:0
185,274,461169,1,0,0:0:0
185,274,461332,1,0,0:0:0
185,274,461495,1,0,0:0:0
185,274,461685,1,0,0:0:0
185,274,461867,1,0,0:0:0
185,274,462018,1,0,0:0:0
364,209,462644,1,0,0:0:0
360,167,463265,1,0,0:0:0
265,134,463798,1,0,0:0:0
178,177,464298,1,0,0:0:0
216,99,464817,5,0,0:0:0
267,218,465848,5,0,0:0:0
137,185,466344,5,0,0:0:0
187,281,466839,1,0,0:0:0
359,197,467512,5,0,0:0:0
152,112,468042,6,0,B|304:184|336:304|288:240,3,195
397,94,468050,1,0,0:0:0
316,83,468471,1,0,0:0:0
158,74,469082,1,0,0:0:0
72,80,469570,1,0,0:0:0
152,112,470104,1,0,0:0:0
152,112,470288,1,0,0:0:0
114,222,470828,1,0,0:0:0
326,184,471347,1,0,0:0:0
338,115,471783,1,0,0:0:0
222,180,472271,1,0,0:0:0
178,109,472809,1,0,0:0:0
74,237,473370,1,0,0:0:0
261,252,473851,1,0,0:0:0
296,162,474393,1,0,0:0:0
264,168,475085,1,0,0:0:0
181,143,475495,1,0,0:0:0
264,168,475542,5,0,0:0:0
168,269,476049,1,0,0:0:0
334,257,476567,1,0,0:0:0
200,160,476792,1,0,0:0:0
382,131,477034,1,0,0:0:0
208,248,477292,1,0,0:0:0
296,64,477494,1,0,0:0:0
256,248,477542,1,0,0:0:0
224,200,477792,1,0,0:0:0
184,76,478001,1,0,0:0:0
184,200,478042,1,0,0:0:0
192,232,478292,1,0,0:0:0
129,203,478519,1,0,0:0:0
240,200,478542,1,0,0:0:0
248,144,478792,1,0,0:0:0
314,261,478995,1,0,0:0:0
216,120,479042,1,0,0:0:0
152,104,479292,1,0,0:0:0
377,150,479554,1,0,0:0:0
112,192,479792,1,0,0:0:0
343,97,479952,1,0,0:0:0
144,240,480042,1,0,0:0:0
184,264,480292,1,0,0:0:0
242,78,480453,1,0,0:0:0
224,240,480542,1,0,0:0:0
248,192,480792,1,0,0:0:0
441,171,480995,1,0,0:0:0
248,152,481042,1,0,0:0:0
208,144,481292,1,0,0:0:0
379,260,481522,1,0,0:0:0
152,136,481542,1,0,0:0:0
112,144,481792,1,0,0:0:0
80,184,482042,1,0,0:0:0
342,135,482058,1,0,0:0:0
104,240,482292,1,0,0:0:0
293,89,482485,1,0,0:0:0
144,264,482542,1,0,0:0:0
176,272,482792,1,0,0:0:0
152,88,482937,1,0,0:0:0
216,240,483042,1,0,0:0:0
200,184,483292,1,0,0:0:0
123,98,483457,1,0,0:0:0
160,152,483542,1,0,0:0:0
120,152,483792,1,0,0:0:0
96,117,483804,1,0,0:0:0
96,117,483965,1,0,0:0:0
96,192,484042,1,0,0:0:0
69,156,484160,1,0,0:0:0
88,248,484292,1,0,0:0:0
69,156,484351,1,0,0:0:0
120,280,484542,1,0,0:0:0
51,214,484547,1,0,0:0:0
59,246,484735,1,0,0:0:0
152,296,484792,1,0,0:0:0
64,281,484943,1,0,0:0:0
192,280,485042,1,0,0:0:0
104,306,485150,1,0,0:0:0
208,224,485292,1,0,0:0:0
152,296,485341,1,0,0:0:0
197,320,485538,1,0,0:0:0
244,321,485736,1,0,0:0:0
144,160,485792,1,0,0:0:0
258,289,485939,1,0,0:0:0
80,176,486042,1,0,0:0:0
258,289,486119,1,0,0:0:0
48,224,486292,1,0,0:0:0
263,242,486339,1,0,0:0:0
252,200,486525,1,0,0:0:0
56,272,486542,1,0,0:0:0
211,171,486730,1,0,0:0:0
112,288,486792,1,0,0:0:0
144,160,486912,1,0,0:0:0
184,280,487042,1,0,0:0:0
117,202,487121,1,0,0:0:0
224,248,487292,1,0,0:0:0
112,288,487328,1,0,0:0:0
163,295,487519,1,0,0:0:0
208,200,487542,1,0,0:0:0
258,289,487720,1,0,0:0:0
256,152,487792,1,0,0:0:0
289,214,487914,1,0,0:0:0
288,96,488042,1,0,0:0:0
256,152,488115,1,0,0:0:0
344,96,488292,1,0,0:0:0
181,126,488319,1,0,0:0:0
96,139,488491,1,0,0:0:0
84,202,488688,1,0,0:0:0
131,262,488894,1,0,0:0:0
258,289,489081,1,0,0:0:0
289,214,489271,1,0,0:0:0
301,174,489483,1,0,0:0:0
256,152,489675,1,0,0:0:0
181,126,489849,1,0,0:0:0
126,142,490031,1,0,0:0:0
129,220,490238,1,0,0:0:0
221,247,490442,1,0,0:0:0
301,174,490653,1,0,0:0:0
126,142,491390,1,0,0:0:0
126,142,491523,1,0,0:0:0
110,195,491789,1,0,0:0:0
204,182,493242,5,0,0:0:0
371,284,493952,1,0,0:0:0
256,192,494292,12,0,498523,0:0:0
361,137,494645,1,0,0:0:0
280,166,494931,1,0,0:0:0
256,192,495118,1,0,0:0:0
256,192,495298,1,0,0:0:0
256,192,495495,1,0,0:0:0
256,192,495671,1,0,0:0:0
256,192,495862,1,0,0:0:0
256,192,496073,1,0,0:0:0
256,192,496267,1,0,0:0:0
256,192,496455,1,0,0:0:0
256,192,496664,1,0,0:0:0
256,192,496939,1,0,0:0:0
181,173,497427,1,0,0:0:0
256,192,497542,12,0,498523,0:0:0
256,192,498023,1,0,0:0:0
256,192,498191,1,0,0:0:0
256,192,498408,1,0,0:0:0
256,192,498568,1,0,0:0:0
181,124,498573,1,0,0:0:0
