osu file format v14

[General]
AudioFilename: Nichismoke.mp3
AudioLeadIn: 0
PreviewTime: 3987
Countdown: 0
SampleSet: Normal
StackLeniency: 0.7
Mode: 0
LetterboxInBreaks: 1
WidescreenStoryboard: 0

[Editor]
Bookmarks: 23975
DistanceSpacing: 1
BeatDivisor: 4
GridSize: 4
TimelineZoom: 1

[Metadata]
Title:Nichismoke
TitleUnicode:Nichismoke
Artist:MowtenDoo
ArtistUnicode:MowtenDoo
Creator:Rad-
Version:Normal
Source:
Tags:Nichijou My ordinary life snoop dogg hyadain weed blaze it Bakari
BeatmapID:405023
BeatmapSetID:166649

[Difficulty]
HPDrainRate:4
CircleSize:3
OverallDifficulty:3
ApproachRate:5
SliderMultiplier:1.1
SliderTickRate:1

[Events]
//Background and Video events
0,0,"bg.png",0,0
Video,0,"video.avi"
//Break Periods
//Storyboard Layer 0 (Background)
//Storyboard Layer 1 (Fail)
//Storyboard Layer 2 (Pass)
//Storyboard Layer 3 (Foreground)
//Storyboard Sound Samples

[TimingPoints]
-679,333.333333333333,4,1,0,60,1,0
36654,-111.111111111111,4,2,0,60,0,0
55320,-111.111111111111,4,2,0,76,0,0
57654,-111.111111111111,4,1,0,60,0,0
57987,-100,4,1,0,60,0,1
73987,-100,4,2,0,76,0,0
75487,-100,4,1,0,60,0,0
78987,-100,4,2,0,76,0,0
91320,-100,4,2,0,30,0,0

[Colours]
Combo1 : 255,255,91
Combo2 : 20,159,235
Combo3 : 255,113,45
Combo4 : 0,213,0

[HitObjects]
420,108,4320,5,0,0:0:0:0:
420,108,4653,6,0,P|328:32|220:48,1,220,4|0,0:0|0:0,0:0:0:0:
172,132,5653,1,8,0:0:0:0:
168,184,5820,2,0,P|134:266|-24:294,2,220
116,28,7653,5,8,0:0:0:0:
224,44,7987,1,0,0:0:0:0:
332,72,8320,1,8,0:0:0:0:
376,104,8487,2,0,P|424:180|356:308,2,220,2|2|2,0:0|0:0|0:0,0:0:0:0:
256,220,10320,5,8,0:0:0:0:
212,120,10653,2,0,P|184:80|112:60,1,110,0|8,0:0|0:0,0:0:0:0:
76,72,11153,2,0,P|32:168|48:212,1,110,0|2,0:0|0:0,0:0:0:0:
36,276,11820,1,2,0:0:0:0:
132,328,12153,1,2,0:0:0:0:
228,276,12487,2,0,P|300:304|392:232,1,165,2|8,0:0|0:0,0:0:0:0:
296,188,13320,6,2,L|296:84,3,55
188,148,14153,1,0,0:0:0:0:
236,48,14487,1,4,0:0:0:0:
344,48,14820,1,4,0:0:0:0:
400,144,15153,6,0,P|400:240|336:288,1,165,4|8,0:0|0:0,0:0:0:0:
248,312,15987,2,0,P|176:296|148:224,1,110,0|8,0:0|0:0,0:0:0:0:
112,168,16653,1,0,0:0:0:0:
152,64,16987,2,0,P|220:32|308:56,1,165,8|0,0:0|0:0,0:0:0:0:
380,132,17820,6,0,P|380:228|292:284,2,165,2|8|0,0:0|0:0|0:0,0:0:0:0:
303,53,19153,1,0,0:0:0:0:
251,149,19487,1,2,0:0:0:0:
199,53,19820,1,2,0:0:0:0:
147,149,20153,1,2,0:0:0:0:
95,53,20487,6,0,P|39:117|75:229,1,165,2|8,0:0|0:0,0:0:0:0:
84,296,21320,2,0,P|152:352|220:340,1,110,0|8,0:0|0:0,0:0:0:0:
280,340,21987,1,0,0:0:0:0:
380,296,22320,1,8,0:0:0:0:
456,216,22653,2,0,L|456:136,1,55,0|2,0:0|0:0,0:0:0:0:
444,52,23153,6,0,P|368:44|300:132,1,165,2|8,0:0|0:0,0:0:0:0:
268,204,23987,1,0,0:0:0:0:
184,344,24487,6,0,P|116:344|40:240,1,165,0|8,0:0|0:0,0:0:0:0:
112,192,25320,1,0,0:0:0:0:
44,104,25653,1,8,0:0:0:0:
132,36,25987,6,2,P|208:56|240:112,1,110
244,188,26653,1,2,0:0:0:0:
144,236,26987,1,8,0:0:0:0:
228,306,27320,2,0,P|288:350|376:340,2,165,0|0|8,0:0|0:0|0:0,0:0:0:0:
320,244,28653,6,0,L|356:132,1,110,2|2,0:0|0:0,0:0:0:0:
388,36,29320,1,2,0:0:0:0:
280,56,29653,1,8,0:0:0:0:
176,18,29987,2,0,P|184:112|264:164,2,165,0|0|8,0:0|0:0|0:0,0:0:0:0:
280,56,31320,6,0,P|340:96|372:160,1,110,2|0,0:0|0:0,0:0:0:0:
360,236,31987,2,0,P|326:279|279:306,1,110,2|8,0:0|0:0,0:0:0:0:
176,324,32653,1,0,0:0:0:0:
88,256,32987,1,8,0:0:0:0:
88,148,33320,2,0,P|121:80|192:43,1,110,0|8,0:0|0:0,0:0:0:0:
256,40,33987,5,2,0:0:0:0:
392,132,34487,2,0,P|340:244|260:224,1,220
192,80,35653,1,2,0:0:0:0:
292,32,35987,1,2,0:0:0:0:
392,80,36320,1,2,0:0:0:0:
452,172,36654,6,0,P|448:288|360:348,1,197.99999395752,4|8,0:0|0:0,0:0:0:0:
232,220,37987,2,0,P|300:126|406:125,1,197.99999395752,0|8,0:0|0:0,0:0:0:0:
445,300,39320,1,0,0:0:0:0:
348,316,39653,6,0,P|249:318|234:303,2,98.9999969787599,2|10|2,0:0|0:0|0:0,0:0:0:0:
428,256,40653,2,0,P|464:152|444:64,2,197.99999395752,0|2|2,0:0|0:0|0:0,0:0:0:0:
336,296,42320,5,0,0:0:0:0:
268,224,42653,1,8,0:0:0:0:
312,136,42987,2,0,P|288:64|176:72,1,197.99999395752
96,120,43987,1,8,0:0:0:0:
184,168,44320,1,0,0:0:0:0:
96,212,44653,1,0,0:0:0:0:
180,264,44987,6,0,P|215:313|276:344,1,98.9999969787599,2|10,0:0|0:0,0:0:0:0:
346,335,45653,2,0,P|385:306|412:264,1,98.9999969787599,2|2,0:0|0:0,0:0:0:0:
256,156,46653,1,0,0:0:0:0:
184,88,46987,6,0,P|288:44|296:48,1,98.9999969787599
360,56,47653,1,2,0:0:0:0:
432,124,47987,1,2,0:0:0:0:
416,220,48320,2,0,P|344:248|296:236,1,98.9999969787599
240,192,48987,1,2,0:0:0:0:
184,272,49320,1,2,0:0:0:0:
140,184,49653,6,0,L|80:60,2,98.9999969787599,0|0|2,0:0|0:0|0:0,0:0:0:0:
184,272,50653,1,2,0:0:0:0:
264,332,50987,1,2,0:0:0:0:
364,328,51320,1,2,0:0:0:0:
440,264,51653,2,0,L|500:160,2,98.9999969787599
364,328,52653,6,0,P|252:296|224:208,1,197.99999395752,2|8,0:0|0:0,0:0:0:0:
332,60,53987,2,0,P|444:92|472:180,1,197.99999395752,2|10,0:0|0:0,0:0:0:0:
360,324,55320,6,0,P|336:272|280:232,1,98.9999969787599
206,244,55987,2,0,P|171:278|152:324,1,98.9999969787599
72,260,56653,1,0,0:0:0:0:
112,168,56987,1,0,0:0:0:0:
204,136,57320,1,0,0:0:0:0:
296,168,57653,1,8,0:0:0:0:
348,252,57987,5,4,0:0:0:0:
256,308,58320,2,0,L|256:368,2,55,8|0|0,0:0|0:0|0:0,0:0:0:0:
160,252,58987,1,8,0:0:0:0:
112,152,59320,2,0,P|157:69|253:75,2,165,0|0|8,0:0|0:0|0:0,0:0:0:0:
160,252,60653,5,0,0:0:0:0:
200,148,60987,1,8,0:0:0:0:
312,148,61320,1,0,0:0:0:0:
352,252,61653,1,8,0:0:0:0:
400,152,61987,2,0,P|355:69|259:75,2,165,0|0|8,0:0|0:0|0:0,0:0:0:0:
416,204,63153,6,0,P|428:284|352:352,1,165,0|8,0:0|0:0,0:0:0:0:
324,364,63820,1,0,0:0:0:0:
256,276,64153,2,0,L|256:196,2,55,0|8|0,0:0|0:0|0:0,0:0:0:0:
164,336,64820,2,0,P|119:268|131:197,2,110
212,364,65653,1,8,0:0:0:0:
276,274,65987,6,0,P|332:198|360:186,1,110,0|8,0:0|0:0,0:0:0:0:
304,89,66653,2,0,P|376:45|428:65,1,110,0|8,0:0|0:0,0:0:0:0:
488,111,67320,2,0,P|488:199|392:263,1,165
344,308,68153,6,0,L|292:372,2,55,0|8|0,0:0|0:0|0:0,0:0:0:0:
384,148,68987,2,0,P|328:80|268:68,1,110,8|0,0:0|0:0,0:0:0:0:
204,44,69653,1,8,0:0:0:0:
96,72,69987,2,0,P|48:156|88:252,2,165,0|0|8,0:0|0:0|0:0,0:0:0:0:
200,108,71320,5,0,0:0:0:0:
272,192,71653,1,8,0:0:0:0:
200,276,71987,1,0,0:0:0:0:
128,192,72320,2,0,P|72:96|176:16,1,220,8|8,0:0|0:0,0:0:0:0:
188,20,73153,1,0,0:0:0:0:
320,120,73653,5,8,0:0:0:0:
256,209,73987,1,4,0:0:0:0:
192,120,74320,2,0,L|136:80,1,55
44,124,74820,2,0,P|44:220|120:272,1,165
140,292,75487,6,0,P|176:308|224:308,2,55
172,188,76153,2,0,P|208:204|256:204,2,55
208,84,76820,2,0,P|244:100|292:100,2,55
104,52,77487,1,0,0:0:0:0:
24,128,77820,2,0,P|56:216|104:240,2,110
24,72,78653,1,0,0:0:0:0:
160,244,79320,6,0,P|276:240|328:136,1,220,4|0,0:0|0:0,0:0:0:0:
292,56,80320,1,8,0:0:0:0:
252,20,80487,2,0,P|146:14|81:98,2,220
228,184,82320,5,8,0:0:0:0:
192,288,82653,1,0,0:0:0:0:
92,336,82987,1,8,0:0:0:0:
52,299,83153,2,0,P|32:219|124:123,2,220,2|2|2,0:0|0:0|0:0,0:0:0:0:
207,357,84987,6,0,P|287:309|291:253,1,110,8|2,0:0|0:0,0:0:0:0:
308,192,85653,2,0,P|304:160|276:120,1,55,10|2,0:0|0:0,0:0:0:0:
212,68,86153,1,0,0:0:0:0:
188,176,86487,1,0,0:0:0:0:
100,108,86820,1,0,0:0:0:0:
72,216,87153,1,2,0:0:0:0:
160,356,87653,5,8,0:0:0:0:
228,268,87987,2,0,L|308:268,3,55,2|2|2|2,0:0|0:0|0:0|0:0,0:0:0:0:
372,204,88820,1,0,0:0:0:0:
312,112,89153,1,4,0:0:0:0:
200,112,89487,1,4,0:0:0:0:
140,204,89820,1,4,0:0:0:0:
256,192,90153,12,0,91320,0:0:0:0:
