osu file format v14

[General]
AudioFilename: Nichismoke.mp3
AudioLeadIn: 0
PreviewTime: 3987
Countdown: 0
SampleSet: Normal
StackLeniency: 0.7
Mode: 0
LetterboxInBreaks: 1
WidescreenStoryboard: 0

[Editor]
DistanceSpacing: 1.1
BeatDivisor: 4
GridSize: 4
TimelineZoom: 1.1

[Metadata]
Title:Nichismoke
TitleUnicode:Nichismoke
Artist:MowtenDoo
ArtistUnicode:MowtenDoo
Creator:Rad-
Version:Hard
Source:
Tags:Nichijou My ordinary life snoop dogg hyadain weed blaze it Bakari
BeatmapID:405613
BeatmapSetID:166649

[Difficulty]
HPDrainRate:5
CircleSize:4
OverallDifficulty:6
ApproachRate:7.5
SliderMultiplier:1.4
SliderTickRate:1

[Events]
//Background and Video events
0,0,"bg.png",0,0
Video,0,"video.avi"
//Break Periods
//Storyboard Layer 0 (Background)
//Storyboard Layer 1 (Fail)
//Storyboard Layer 2 (Pass)
//Storyboard Layer 3 (Foreground)
//Storyboard Sound Samples

[TimingPoints]
-679,333.333333333333,4,1,0,60,1,0
3987,-76.9230769230769,4,1,0,60,0,0
4654,-90.9090909090909,4,2,0,76,0,0
15153,-100,4,2,0,76,0,0
33987,-111.111111111111,4,2,0,76,0,0
36653,-166.666666666667,4,2,0,60,0,0
56653,-166.666666666667,4,2,0,76,0,0
57653,-100,4,1,0,60,0,0
57987,-90.9090909090909,4,1,0,60,0,1
73987,-100,4,2,0,76,0,0
75487,-100,4,1,0,60,0,0
78987,-90.9090909090909,4,2,0,76,0,0
91320,-90.9090909090909,4,2,0,30,0,0

[Colours]
Combo1 : 255,255,91
Combo2 : 20,159,235
Combo3 : 255,113,45
Combo4 : 0,213,0

[HitObjects]
160,292,3987,6,0,L|160:224,1,45.4999979171754
216,204,4237,2,0,L|216:136,1,45.4999979171754
256,100,4487,5,0,0:0:0:0:
256,100,4654,2,0,P|320:76|412:112,1,154.000004699707,4|8,0:0|0:0,0:0:0:0:
404,256,5321,1,0,0:0:0:0:
352,312,5488,2,0,P|312:340|256:340,2,77.0000023498536,0|8|0,0:0|0:0|0:0,0:0:0:0:
160,312,6154,5,2,0:0:0:0:
256,192,6488,1,2,0:0:0:0:
352,312,6821,1,0,0:0:0:0:
352,312,6988,1,8,0:0:0:0:
352,312,7154,2,0,P|440:320|480:248,1,154.000004699707,2|0,0:0|0:0,0:0:0:0:
488,200,7654,5,8,0:0:0:0:
432,144,7821,1,0,0:0:0:0:
360,120,7988,2,0,P|304:152|296:192,1,77.0000023498536
244,216,8321,1,8,0:0:0:0:
176,180,8488,1,4,0:0:0:0:
40,40,8821,5,4,0:0:0:0:
76,188,9154,1,4,0:0:0:0:
204,88,9488,1,4,0:0:0:0:
76,188,9821,6,0,P|120:308|232:324,1,231.000007049561,4|8,0:0|0:0,0:0:0:0:
360,300,10654,2,0,P|396:280|420:240,1,77.0000023498536
432,176,10988,1,8,0:0:0:0:
408,104,11154,1,0,0:0:0:0:
252,100,11488,5,2,0:0:0:0:
276,252,11821,1,2,0:0:0:0:
148,164,12154,1,2,0:0:0:0:
352,192,12488,6,2,P|348:312|248:348,1,231.000007049561,2|8,0:0|0:0,0:0:0:0:
112,296,13321,1,2,0:0:0:0:
68,232,13488,1,2,0:0:0:0:
80,156,13654,1,2,0:0:0:0:
154,136,13821,6,0,L|202:228,1,77.0000023498536,2|0,0:0|0:0,0:0:0:0:
180,280,14154,2,0,L|288:348,1,77.0000023498536,2|0,0:0|0:0,0:0:0:0:
304,272,14488,2,0,L|408:272,1,77.0000023498536,2|0,0:0|0:0,0:0:0:0:
392,196,14821,2,0,L|464:140,1,77.0000023498536,2|8,0:0|0:0,0:0:0:0:
448,72,15154,6,0,P|328:48|264:120,1,210,12|8,0:0|0:0,0:0:0:0:
208,228,15988,2,0,P|148:260|80:220,1,140,0|8,0:0|0:0,0:0:0:0:
48,96,16654,5,0,0:0:0:0:
104,54,16821,1,0,0:0:0:0:
160,96,16988,2,0,P|212:136|240:136,1,70,8|0,0:0|0:0,0:0:0:0:
280,156,17321,2,0,P|324:160|368:128,1,70
400,104,17654,1,8,0:0:0:0:
414,36,17821,1,2,0:0:0:0:
270,92,18154,5,0,0:0:0:0:
214,136,18321,2,0,P|162:176|110:116,1,140,8|0,0:0|0:0,0:0:0:0:
54,96,18821,1,0,0:0:0:0:
184,40,19154,5,0,0:0:0:0:
320,113,19488,1,2,0:0:0:0:
184,184,19821,2,0,B|152:248|152:248|192:312,2,140,2|2|2,0:0|0:0|0:0,0:0:0:0:
256,48,20821,5,0,0:0:0:0:
256,48,20988,1,8,0:0:0:0:
400,104,21321,2,0,P|372:180|320:200,1,140,0|8,0:0|0:0,0:0:0:0:
256,224,21821,1,0,0:0:0:0:
192,256,21988,6,0,P|160:308|116:320,1,70
84,312,22321,2,0,P|52:288|44:240,1,70,8|0,0:0|0:0,0:0:0:0:
36,192,22654,1,0,0:0:0:0:
56,124,22821,2,0,P|128:100|208:160,1,140,0|2,0:0|0:0,0:0:0:0:
304,196,23488,5,0,0:0:0:0:
360,237,23654,2,0,P|413:232|444:209,2,70,8|0|2,0:0|0:0|0:0,0:0:0:0:
256,332,24321,1,8,0:0:0:0:
185,332,24488,6,0,P|121:300|117:196,1,140
104,168,24988,1,8,0:0:0:0:
124,100,25154,2,0,P|192:60|276:84,1,140
316,92,25654,2,0,P|372:120|436:108,1,70,8|0,0:0|0:0,0:0:0:0:
376,248,25988,6,0,L|316:164,1,70,2|0,0:0|0:0,0:0:0:0:
240,260,26321,2,0,L|180:176,1,70,10|0,0:0|0:0,0:0:0:0:
100,268,26654,2,0,L|40:184,2,70,2|0|8,0:0|0:0|0:0,0:0:0:0:
148,320,27154,6,0,P|228:328|280:256,1,140
280,222,27654,1,8,0:0:0:0:
269,152,27821,2,0,P|214:111|147:123,1,140
104,176,28321,2,0,P|96:222|128:272,1,70,8|0,0:0|0:0,0:0:0:0:
152,312,28654,6,0,L|204:224,1,70,2|0,0:0|0:0,0:0:0:0:
288,314,28988,2,0,L|336:228,1,70,10|0,0:0|0:0,0:0:0:0:
428,312,29321,2,0,L|480:224,2,70,2|0|8,0:0|0:0|0:0,0:0:0:0:
368,344,29821,6,0,P|288:304|304:224,1,140
280,192,30321,1,8,0:0:0:0:
244,132,30488,2,0,P|204:140|164:172,2,70
316,132,30988,2,0,P|388:156|396:164,1,70,8|0,0:0|0:0,0:0:0:0:
412,216,31321,6,0,P|419:251|392:336,1,70,2|0,0:0|0:0,0:0:0:0:
304,284,31654,2,0,P|297:250|304:216,1,70,10|0,0:0|0:0,0:0:0:0:
192,184,31988,2,0,P|172:248|208:328,1,140,2|8,0:0|0:0,0:0:0:0:
124,340,32488,5,0,0:0:0:0:
124,340,32654,2,0,P|92:324|68:292,1,70
37,235,32988,2,0,P|29:191|37:159,1,70,8|0,0:0|0:0,0:0:0:0:
56,100,33321,2,0,P|78:73|109:57,1,70
171,23,33654,1,8,0:0:0:0:
248,120,33988,6,0,P|304:96|376:136,1,125.999996154785,2|0,0:0|0:0,0:0:0:0:
364,192,34488,2,0,P|302:214|248:192,1,125.999996154785,2|0,0:0|0:0,0:0:0:0:
188,156,34988,1,0,0:0:0:0:
188,88,35154,1,2,0:0:0:0:
44,168,35543,6,0,L|64:216,1,41.9999987182618,0|2,0:0|0:0,0:0:0:0:
112,312,35988,1,2,0:0:0:0:
184,356,36210,2,0,L|236:356,1,41.9999987182618,0|2,0:0|0:0,0:0:0:0:
324,308,36654,6,0,P|340:236|332:212,1,83.9999974365235,4|0,0:0|0:0,0:0:0:0:
328,192,37154,1,0,0:0:0:0:
308,160,37321,1,8,0:0:0:0:
248,80,37654,2,0,P|201:69|164:88,2,83.9999974365235
356,104,38654,1,8,0:0:0:0:
384,128,38821,1,0,0:0:0:0:
408,156,38988,2,0,P|432:216|424:252,1,83.9999974365235
378,323,39654,5,2,0:0:0:0:
336,319,39821,1,0,0:0:0:0:
296,305,39988,1,10,0:0:0:0:
268,273,40154,1,0,0:0:0:0:
256,232,40321,2,0,L|256:120,1,83.9999974365235,2|0,0:0|0:0,0:0:0:0:
236,112,40821,1,0,0:0:0:0:
204,84,40988,1,8,0:0:0:0:
164,84,41154,1,0,0:0:0:0:
128,108,41321,2,0,P|96:148|96:188,2,83.9999974365235,2|0|2,0:0|0:0|0:0,0:0:0:0:
216,48,42321,5,0,0:0:0:0:
252,40,42488,1,0,0:0:0:0:
288,48,42654,2,0,P|336:88|348:136,1,83.9999974365235,8|0,0:0|0:0,0:0:0:0:
356,200,43321,1,0,0:0:0:0:
350,237,43488,1,0,0:0:0:0:
330,269,43654,1,0,0:0:0:0:
300,293,43821,1,0,0:0:0:0:
263,303,43988,2,0,P|199:287|183:247,1,83.9999974365235,8|0,0:0|0:0,0:0:0:0:
164,188,44654,1,0,0:0:0:0:
256,188,44988,6,0,L|256:130,1,41.9999987182618,2|0,0:0|0:0,0:0:0:0:
248,104,45321,1,10,0:0:0:0:
222,70,45488,1,0,0:0:0:0:
182,55,45654,2,0,P|130:63|93:88,1,83.9999974365235,2|0,0:0|0:0,0:0:0:0:
41,147,46321,1,8,0:0:0:0:
41,239,46654,1,8,0:0:0:0:
120,288,46988,6,0,P|157:311|224:304,1,83.9999974365235
196,313,47654,1,2,0:0:0:0:
196,313,47988,1,2,0:0:0:0:
392,288,48321,2,0,P|354:311|288:304,1,83.9999974365235
315,313,48988,1,2,0:0:0:0:
315,313,49321,1,2,0:0:0:0:
256,232,49654,6,0,L|256:144,1,83.9999974365235
176,100,50321,1,2,0:0:0:0:
256,54,50654,1,2,0:0:0:0:
336,100,50988,1,2,0:0:0:0:
300,184,51321,1,2,0:0:0:0:
212,184,51654,6,0,P|216:216|208:248,1,41.9999987182618,2|0,0:0|0:0,0:0:0:0:
152,297,51988,2,0,P|148:273|152:255,1,41.9999987182618,2|0,0:0|0:0,0:0:0:0:
84,184,52321,2,0,P|72:232|92:280,1,83.9999974365235,2|4,0:0|0:0,0:0:0:0:
160,348,52988,5,0,0:0:0:0:
220,276,53321,1,8,0:0:0:0:
256,264,53488,1,0,0:0:0:0:
292,276,53654,1,0,0:0:0:0:
352,348,53988,2,0,P|400:284|400:252,1,83.9999974365235,2|0,0:0|0:0,0:0:0:0:
403,245,54488,1,0,0:0:0:0:
390,209,54654,1,8,0:0:0:0:
367,178,54821,1,0,0:0:0:0:
337,154,54988,2,0,P|273:138|257:146,1,83.9999974365235,2|0,0:0|0:0,0:0:0:0:
256,284,55988,5,2,0:0:0:0:
248,56,56654,2,0,P|152:56|112:120,1,167.999994873047
120,184,57654,6,0,P|224:232|240:224,1,140,8|4,0:0|0:0,0:0:0:0:
360,136,58321,1,8,0:0:0:0:
424,192,58488,1,0,0:0:0:0:
424,276,58654,2,0,P|384:324|288:308,1,154.000004699707,0|8,0:0|0:0,0:0:0:0:
252,248,59154,1,0,0:0:0:0:
168,228,59321,2,0,P|125:212|108:176,1,77.0000023498536
168,124,59654,2,0,P|211:140|228:176,1,77.0000023498536,8|0,0:0|0:0,0:0:0:0:
454,272,60321,6,0,P|415:335|341:339,1,154.000004699707,8|0,0:0|0:0,0:0:0:0:
170,339,60988,2,0,P|96:334|57:271,1,154.000004699707,8|0,0:0|0:0,0:0:0:0:
72,188,61488,1,0,0:0:0:0:
148,148,61654,1,8,0:0:0:0:
220,188,61821,2,0,P|248:220|300:232,2,77.0000023498536
240,104,62321,1,8,0:0:0:0:
240,104,62488,2,0,P|328:92|372:152,1,154.000004699707
416,216,62988,5,8,0:0:0:0:
464,136,63154,1,0,0:0:0:0:
304,312,63488,1,0,0:0:0:0:
208,312,63654,1,8,0:0:0:0:
256,240,63821,1,0,0:0:0:0:
92,224,64154,1,0,0:0:0:0:
92,224,64321,1,8,0:0:0:0:
92,224,64488,2,0,P|132:168|220:184,1,154.000004699707
256,240,64988,1,8,0:0:0:0:
256,240,65154,2,0,P|243:307|156:330,1,154.000004699707
88,308,65654,5,8,0:0:0:0:
92,224,65821,1,0,0:0:0:0:
140,156,65988,2,0,P|228:144|252:164,1,77.0000023498536
296,140,66321,2,0,P|332:149|360:176,1,77.0000023498536,8|0,0:0|0:0,0:0:0:0:
360,260,66654,2,0,P|340:292|307:311,1,77.0000023498536
220,320,66988,1,8,0:0:0:0:
156,264,67154,1,0,0:0:0:0:
156,264,67321,2,0,P|100:192|204:136,1,231.000007049561
344,192,68155,1,0,0:0:0:0:
380,116,68320,1,8,0:0:0:0:
340,40,68487,1,0,0:0:0:0:
168,192,68988,5,8,0:0:0:0:
132,116,69154,1,0,0:0:0:0:
172,40,69321,1,0,0:0:0:0:
252,16,69488,1,0,0:0:0:0:
328,52,69654,2,0,P|377:97|372:138,2,77.0000023498536,8|0|0,0:0|0:0|0:0,0:0:0:0:
256,96,70154,1,0,0:0:0:0:
312,160,70321,1,8,0:0:0:0:
256,224,70488,2,0,P|189:259|118:235,1,154.000004699707
104,152,70988,5,8,0:0:0:0:
184,176,71154,1,0,0:0:0:0:
360,152,71488,1,0,0:0:0:0:
280,120,71654,1,8,0:0:0:0:
348,68,71821,1,0,0:0:0:0:
488,184,72154,1,0,0:0:0:0:
448,260,72321,1,8,0:0:0:0:
372,224,72488,2,0,P|356:172|376:128,2,77.0000023498536
372,308,72988,2,0,P|316:340|260:312,1,77.0000023498536,8|0,0:0|0:0,0:0:0:0:
216,200,73488,6,0,L|152:136,2,77.0000023498536,0|8|0,0:0|0:0|0:0,0:0:0:0:
296,200,73987,2,0,L|360:136,2,70,4|0|0,0:0|0:0|0:0,0:0:0:0:
256,264,74488,1,0,0:0:0:0:
256,264,74821,2,0,P|172:288|168:184,1,210,0|0,0:0|0:0,0:0:0:0:
152,104,75487,6,0,L|84:40,2,70
360,104,76154,2,0,L|428:40,2,70
256,264,76821,2,0,L|256:360,2,70
256,124,77488,1,0,0:0:0:0:
436,204,77821,6,0,P|400:296|360:320,2,140
436,204,78654,1,0,0:0:0:0:
440,48,78988,5,8,0:0:0:0:
416,120,79154,1,0,0:0:0:0:
360,168,79321,2,0,P|264:192|232:160,1,154.000004699707,4|8,0:0|0:0,0:0:0:0:
112,64,79988,2,0,L|48:152,1,77.0000023498536
32,192,80321,1,8,0:0:0:0:
72,256,80488,1,0,0:0:0:0:
160,144,80821,5,2,0:0:0:0:
256,264,81154,1,2,0:0:0:0:
352,144,81488,1,2,0:0:0:0:
352,144,81654,1,10,0:0:0:0:
352,144,81821,2,0,P|416:108|488:160,1,154.000004699707
484,228,82321,5,8,0:0:0:0:
432,296,82488,1,0,0:0:0:0:
360,340,82654,2,0,P|312:352|268:328,2,77.0000023498536,0|0|8,0:0|0:0|0:0,0:0:0:0:
356,264,83154,1,2,0:0:0:0:
268,120,83488,5,2,0:0:0:0:
168,256,83821,1,2,0:0:0:0:
172,88,84154,1,2,0:0:0:0:
256,236,84488,6,0,P|232:304|84:296,1,231.000007049561,2|8,0:0|0:0,0:0:0:0:
48,160,85321,2,0,P|56:112|100:88,1,77.0000023498536,2|0,0:0|0:0,0:0:0:0:
152,92,85654,1,8,0:0:0:0:
180,164,85821,1,2,0:0:0:0:
116,300,86154,5,2,0:0:0:0:
256,236,86488,1,2,0:0:0:0:
396,300,86821,1,2,0:0:0:0:
448,156,87154,6,0,P|392:88|256:112,1,231.000007049561,2|8,0:0|0:0,0:0:0:0:
120,164,87988,1,2,0:0:0:0:
156,232,88154,1,2,0:0:0:0:
212,288,88321,1,2,0:0:0:0:
284,312,88488,2,0,P|352:284|376:184,1,154.000004699707,2|0,0:0|0:0,0:0:0:0:
336,64,89154,5,4,0:0:0:0:
256,196,89488,1,4,0:0:0:0:
176,64,89821,1,4,0:0:0:0:
256,192,90154,12,0,91321,0:0:0:0:
