osu file format v14

[General]
AudioFilename: Nichismoke.mp3
AudioLeadIn: 0
PreviewTime: 3987
Countdown: 0
SampleSet: Normal
StackLeniency: 0.7
Mode: 0
LetterboxInBreaks: 1
WidescreenStoryboard: 0

[Editor]
Bookmarks: 15142
DistanceSpacing: 1.1
BeatDivisor: 4
GridSize: 4
TimelineZoom: 1

[Metadata]
Title:Nichismoke
TitleUnicode:Nichismoke
Artist:MowtenDoo
ArtistUnicode:MowtenDoo
Creator:Rad-
Version:Bakari's Easy
Source:
Tags:Nichijou My ordinary life snoop dogg hyadain weed blaze it Bakari
BeatmapID:405612
BeatmapSetID:166649

[Difficulty]
HPDrainRate:2
CircleSize:3
OverallDifficulty:2
ApproachRate:3.5
SliderMultiplier:0.799999999999999
SliderTickRate:1

[Events]
//Background and Video events
0,0,"bg.png",0,0
Video,0,"video.avi"
//Break Periods
//Storyboard Layer 0 (Background)
//Storyboard Layer 1 (Fail)
//Storyboard Layer 2 (Pass)
//Storyboard Layer 3 (Foreground)
//Storyboard Sound Samples

[TimingPoints]
-679,333.333333333333,4,1,0,60,1,0
55320,-100,4,2,0,60,0,0
56653,-100,4,2,0,76,0,0
57653,-100,4,1,0,60,0,0
57987,-100,4,1,0,60,0,1
73987,-100,4,2,0,76,0,0
75487,-100,4,1,0,60,0,0
78987,-100,4,2,0,76,0,0
91320,-100,4,2,0,30,0,0

[Colours]
Combo1 : 255,255,91
Combo2 : 20,159,235
Combo3 : 255,113,45
Combo4 : 0,213,0

[HitObjects]
48,220,4655,6,0,L|64:88,1,120,4|0,0:0|0:0,0:0:0:0:
140,56,5488,2,0,L|145:9,2,40,0|8|0,0:0|0:0|0:0,0:0:0:0:
184,132,6154,2,0,L|172:236,2,79.9999999999999,2|2|2,0:0|0:0|0:0,0:0:0:0:
260,88,7154,1,2,0:0:0:0:
348,100,7488,2,0,P|352:168|300:248,1,160,0|0,0:0|0:0,0:0:0:0:
220,228,8488,5,4,0:0:0:0:
244,312,8821,1,4,0:0:0:0:
168,356,9154,2,0,P|136:360|84:348,1,79.9999999999999,4|4,0:0|0:0,0:0:0:0:
48,272,9821,2,0,P|69:217|120:186,1,120,4|8,0:0|0:0,0:0:0:0:
160,108,10654,6,0,L|288:88,1,120,0|0,0:0|0:0,0:0:0:0:
360,124,11488,2,0,P|392:120|440:100,2,79.9999999999999,2|2|2,0:0|0:0|0:0,0:0:0:0:
312,200,12488,2,0,P|250:248|172:245,2,160,2|0|0,0:0|0:0|0:0,0:0:0:0:
392,236,14154,6,0,L|384:336,2,79.9999999999999,2|2|10,0:0|0:0|0:0,0:0:0:0:
448,168,15154,1,12,0:0:0:0:
336,88,15654,6,0,B|256:72|256:72|148:92,1,160,8|8,0:0|0:0,0:0:0:0:
152,260,16988,1,8,0:0:0:0:
192,344,17321,2,0,B|132:348|132:348|60:308,2,120,2|2|8,0:0|0:0|0:0,0:0:0:0:
264,304,18654,2,0,L|244:176,1,120
292,108,19488,2,0,L|304:16,2,79.9999999999999,2|2|2,0:0|0:0|0:0,0:0:0:0:
304,196,20488,6,0,P|252:220|176:200,1,120,2|8,0:0|0:0,0:0:0:0:
60,96,21654,1,8,0:0:0:0:
12,168,21988,2,0,L|16:268,1,79.9999999999999,0|8,0:0|0:0,0:0:0:0:
100,264,22654,2,0,P|76:312|-4:332,2,120,0|2|8,0:0|0:0|0:0,0:0:0:0:
144,188,23988,6,0,L|272:168,1,120,2|0,0:0|0:0,0:0:0:0:
340,212,24821,2,0,P|336:252|296:324,1,120,0|0,0:0|0:0,0:0:0:0:
216,292,25654,1,8,0:0:0:0:
136,328,25988,6,0,L|24:316,2,79.9999999999999,2|10|2,0:0|0:0|0:0,0:0:0:0:
256,268,27154,2,0,P|272:308|272:348,2,79.9999999999999,0|0|0,0:0|0:0|0:0,0:0:0:0:
188,212,28154,2,0,L|56:224,1,120,0|2,0:0|0:0,0:0:0:0:
56,136,28988,1,10,0:0:0:0:
140,108,29321,1,2,0:0:0:0:
228,116,29654,6,0,P|264:88|300:16,1,120,8|0,0:0|0:0,0:0:0:0:
380,60,30488,1,0,0:0:0:0:
468,44,30821,2,0,P|468:84|488:168,1,120,0|2,0:0|0:0,0:0:0:0:
400,184,31654,1,10,0:0:0:0:
328,232,31988,2,0,L|344:316,1,79.9999999999999,2|8,0:0|0:0,0:0:0:0:
268,360,32654,2,0,P|212:332|44:348,1,200
16,216,33988,6,0,P|40:192|56:84,1,120,2|0,0:0|0:0,0:0:0:0:
144,76,34821,2,0,P|188:84|240:84,1,79.9999999999999,0|2,0:0|0:0,0:0:0:0:
256,192,35488,12,4,36654,0:0:0:0:
168,32,37988,5,0,0:0:0:0:
296,152,38654,2,0,P|292:188|272:228,1,79.9999999999999,8|0,0:0|0:0,0:0:0:0:
192,272,39321,1,0,0:0:0:0:
116,224,39654,2,0,L|24:208,2,79.9999999999999,2|10|2,0:0|0:0|0:0,0:0:0:0:
176,160,40654,2,0,L|352:184,1,160,0|2,0:0|0:0,0:0:0:0:
444,320,41988,5,2,0:0:0:0:
364,360,42321,2,0,P|312:364|272:356,1,79.9999999999999,0|8,0:0|0:0,0:0:0:0:
228,292,42988,1,0,0:0:0:0:
152,336,43321,2,0,P|108:320|56:204,1,160,0|8,0:0|0:0,0:0:0:0:
120,164,44321,1,0,0:0:0:0:
64,96,44654,5,0,0:0:0:0:
132,40,44988,2,0,B|208:24|208:24|308:36,1,160,2|2,0:0|0:0,0:0:0:0:
320,116,45988,1,0,0:0:0:0:
164,196,46654,1,0,0:0:0:0:
276,332,47321,5,0,0:0:0:0:
348,280,47654,2,0,L|428:280,1,79.9999999999999,2|2,0:0|0:0,0:0:0:0:
488,112,48654,1,0,0:0:0:0:
424,52,48988,2,0,L|324:52,1,79.9999999999999,2|2,0:0|0:0,0:0:0:0:
308,132,49654,1,0,0:0:0:0:
224,104,49988,6,0,P|152:224|260:344,1,320,0|2,0:0|0:0,0:0:0:0:
324,288,51654,2,0,L|312:196,2,79.9999999999999,2|2|2,0:0|0:0|0:0,0:0:0:0:
380,356,52654,6,0,P|428:328|480:208,1,160,4|8,0:0|0:0,0:0:0:0:
400,80,53988,1,2,0:0:0:0:
328,128,54321,2,0,L|332:212,2,79.9999999999999,0|8|2,0:0|0:0|0:0,0:0:0:0:
280,52,55321,5,0,0:0:0:0:
172,192,55988,1,2,0:0:0:0:
332,264,56654,2,0,P|364:252|408:216,2,79.9999999999999,0|0|0,0:0|0:0|0:0,0:0:0:0:
248,232,57654,1,8,0:0:0:0:
200,156,57988,5,4,0:0:0:0:
124,200,58321,2,0,L|32:192,1,79.9999999999999,8|0,0:0|0:0,0:0:0:0:
108,28,59321,2,0,L|272:44,1,160,0|0,0:0|0:0,0:0:0:0:
320,116,60321,1,8,0:0:0:0:
396,72,60654,2,0,P|424:60|476:52,2,79.9999999999999,0|8|0,0:0|0:0|0:0,0:0:0:0:
220,92,61988,6,0,P|292:216|332:228,2,160,0|0|0,0:0|0:0|0:0,0:0:0:0:
264,16,63654,2,0,B|324:48|324:48|376:48,2,120,8|0|0,0:0|0:0|0:0,0:0:0:0:
176,16,64988,6,0,L|40:16,2,120,8|0|0,0:0|0:0|0:0,0:0:0:0:
232,84,66321,2,0,P|240:128|232:212,1,120,8|0,0:0|0:0,0:0:0:0:
156,240,67154,1,0,0:0:0:0:
224,296,67488,2,0,L|312:288,1,79.9999999999999,0|0,0:0|0:0,0:0:0:0:
432,316,68321,6,0,P|436:268|448:224,1,79.9999999999999,8|0,0:0|0:0,0:0:0:0:
488,160,68988,2,0,L|480:8,1,120,8|0,0:0|0:0,0:0:0:0:
396,12,69821,1,0,0:0:0:0:
332,72,70154,2,0,P|340:112|336:192,2,120,0|0|0,0:0|0:0|0:0,0:0:0:0:
204,36,71654,6,0,L|112:24,1,79.9999999999999,8|0,0:0|0:0,0:0:0:0:
52,72,72321,2,0,P|32:120|32:200,2,120,8|0|0,0:0|0:0|0:0,0:0:0:0:
256,140,73988,5,4,0:0:0:0:
256,192,75488,12,0,77821,0:0:0:0:
292,272,78988,5,8,0:0:0:0:
220,220,79321,2,0,P|196:180|204:32,1,200,4|0,0:0|0:0,0:0:0:0:
292,16,80488,2,0,P|336:28|388:24,2,79.9999999999999,0|2|2,0:0|0:0|0:0,0:0:0:0:
272,100,81488,2,0,P|292:136|340:168,1,79.9999999999999,2|0,0:0|0:0,0:0:0:0:
344,244,82154,2,0,P|192:300|124:272,1,240,0|2,0:0|0:0,0:0:0:0:
72,204,83488,5,2,0:0:0:0:
152,164,83821,1,2,0:0:0:0:
132,80,84154,1,2,0:0:0:0:
200,24,84488,2,0,P|288:12|340:24,1,120,2|8,0:0|0:0,0:0:0:0:
368,88,85321,6,0,L|344:216,1,120,2|0,0:0|0:0,0:0:0:0:
425,246,86154,2,0,P|433:290|421:350,1,79.9999999999999
352,368,86821,1,2,0:0:0:0:
276,324,87154,2,0,L|144:344,1,120,2|8,0:0|0:0,0:0:0:0:
80,300,87988,6,0,P|48:256|48:176,1,120,2|0,0:0|0:0,0:0:0:0:
112,140,88821,1,2,0:0:0:0:
168,208,89154,2,0,L|268:196,1,79.9999999999999,4|4,0:0|0:0,0:0:0:0:
316,256,89821,1,4,0:0:0:0:
432,196,90320,6,0,P|392:96|272:120,1,240
