osu file format v14

[General]
AudioFilename: Nichismoke.mp3
AudioLeadIn: 0
PreviewTime: 3987
Countdown: 0
SampleSet: Normal
StackLeniency: 0.7
Mode: 0
LetterboxInBreaks: 1
WidescreenStoryboard: 0

[Editor]
DistanceSpacing: 0.9
BeatDivisor: 4
GridSize: 4
TimelineZoom: 1

[Metadata]
Title:Nichismoke
TitleUnicode:Nichismoke
Artist:MowtenDoo
ArtistUnicode:MowtenDoo
Creator:Rad-
Version:420 style
Source:
Tags:Nichijou My ordinary life snoop dogg hyadain weed blaze it Bakari
BeatmapID:405022
BeatmapSetID:166649

[Difficulty]
HPDrainRate:6
CircleSize:4.2
OverallDifficulty:7
ApproachRate:9
SliderMultiplier:1.8
SliderTickRate:1

[Events]
//Background and Video events
0,0,"bg.png",0,0
Video,0,"video.avi"
//Break Periods
//Storyboard Layer 0 (Background)
//Storyboard Layer 1 (Fail)
//Storyboard Layer 2 (Pass)
//Storyboard Layer 3 (Foreground)
//Storyboard Sound Samples

[TimingPoints]
-679,333.333333333333,4,1,0,60,1,0
3987,-76.9230769230769,4,1,0,60,0,0
4654,-90.9090909090909,4,2,0,76,0,0
15154,-100,4,2,0,76,0,0
15987,-125,4,2,0,76,0,0
16320,-100,4,2,0,76,0,0
20487,-125,4,2,0,76,0,0
20820,-100,4,2,0,76,0,0
25987,-83.3333333333333,4,2,0,76,0,0
26987,-100,4,2,0,76,0,0
28654,-83.3333333333333,4,2,0,76,0,0
29654,-100,4,2,0,76,0,0
35987,-125,4,2,0,76,0,0
36654,-166.666666666667,4,2,0,60,0,0
55320,-100,4,2,0,60,0,0
56654,-100,4,2,0,76,0,0
57654,-100,4,1,0,60,0,0
57672,-100,4,1,0,60,0,0
57987,-76.9230769230769,4,1,0,60,0,1
59820,-90.9090909090909,4,1,0,60,0,1
60320,-76.9230769230769,4,1,0,60,0,1
62487,-90.9090909090909,4,1,0,60,0,1
62987,-83.3333333333333,4,1,0,60,0,1
71154,-111.111111111111,4,1,0,60,0,1
72487,-100,4,1,0,60,0,1
72987,-83.3333333333333,4,1,0,60,0,1
73487,-100,4,1,0,60,0,1
73987,-100,4,2,0,76,0,0
74820,-142.857142857143,4,2,0,76,0,0
75487,-76.9230769230769,4,1,0,60,0,0
78987,-90.9090909090909,4,2,0,76,0,0
91320,-90.9090909090909,4,2,0,30,0,0

[Colours]
Combo1 : 255,255,91
Combo2 : 20,159,235
Combo3 : 255,113,45
Combo4 : 0,213,0

[HitObjects]
256,192,3987,5,0,0:0:0:0:
256,192,4070,1,0,0:0:0:0:
224,320,4236,1,0,0:0:0:0:
224,320,4320,2,0,P|136:288|128:240,1,116.999994644165,0|0,0:0|0:0,0:0:0:0:
96,160,4654,6,0,P|136:104|276:120,1,198.000006042481,4|8,0:0|0:0,0:0:0:0:
352,216,5153,1,0,0:0:0:0:
207,253,5320,2,0,P|167:281|156:328,1,99.0000030212403,0|0,0:0|0:0,0:0:0:0:
308,304,5653,1,8,0:0:0:0:
256,168,5820,2,0,L|212:60,1,99.0000030212403,0|0,0:0|0:0,0:0:0:0:
472,160,6153,6,0,P|460:224|416:260,1,99.0000030212403,2|8,0:0|0:0,0:0:0:0:
340,104,6487,2,0,P|377:51|436:24,1,99.0000030212403,2|0,0:0|0:0,0:0:0:0:
400,184,6820,1,2,0:0:0:0:
333,257,6987,1,10,0:0:0:0:
236,264,7153,6,0,P|172:192|180:84,1,198.000006042481,2|0,0:0|0:0,0:0:0:0:
292,60,7653,1,8,0:0:0:0:
160,8,7819,1,0,0:0:0:0:
248,160,7986,1,0,0:0:0:0:
232,20,8153,1,0,0:0:0:0:
88,28,8320,1,8,0:0:0:0:
174,95,8487,1,4,0:0:0:0:
410,258,8820,5,4,0:0:0:0:
89,167,9153,1,4,0:0:0:0:
422,167,9487,2,0,P|372:188|296:176,1,99.0000030212403,4|0,0:0|0:0,0:0:0:0:
160,40,9820,1,4,0:0:0:0:
160,40,9987,6,0,P|232:20|376:64,1,198.000006042481,0|8,0:0|0:0,0:0:0:0:
350,46,10653,1,0,0:0:0:0:
376,232,10820,1,0,0:0:0:0:
444,74,10987,1,8,0:0:0:0:
280,204,11153,2,0,P|216:156|204:128,1,99.0000030212403
300,36,11487,1,2,0:0:0:0:
292,120,11653,1,8,0:0:0:0:
208,140,11820,1,2,0:0:0:0:
148,12,12153,1,2,0:0:0:0:
92,144,12487,6,0,P|115:191|324:164,1,297.000009063721,2|8,0:0|0:0,0:0:0:0:
416,68,13320,1,2,0:0:0:0:
312,32,13486,1,2,0:0:0:0:
200,32,13653,1,2,0:0:0:0:
96,68,13819,1,2,0:0:0:0:
48,344,14153,5,2,0:0:0:0:
464,344,14486,1,2,0:0:0:0:
200,116,14820,1,10,0:0:0:0:
304,32,14986,1,8,0:0:0:0:
120,96,15153,6,0,P|40:184|152:312,1,297.000009063721,12|8,0:0|0:0,0:0:0:0:
192,224,15820,1,0,0:0:0:0:
288,328,15987,6,0,P|360:348|440:304,1,144,0|8,0:0|0:0,0:0:0:0:
448,48,16653,5,0,0:0:0:0:
448,48,16820,2,0,L|368:120,1,90,0|8,0:0|0:0,0:0:0:0:
267,140,17153,1,0,0:0:0:0:
152,168,17320,1,0,0:0:0:0:
152,168,17487,2,0,L|232:240,1,90,0|8,0:0|0:0,0:0:0:0:
307,308,17820,6,0,P|403:260|419:156,1,180,2|0,0:0|0:0,0:0:0:0:
416,96,18320,2,0,P|376:56|320:32,1,90,8|0,0:0|0:0,0:0:0:0:
256,84,18653,1,0,0:0:0:0:
224,180,18820,1,0,0:0:0:0:
128,160,18987,1,8,0:0:0:0:
148,64,19153,6,0,B|104:48|104:48|56:68,1,90
184,184,19487,2,0,B|223:200|223:200|267:183,1,90,2|8,0:0|0:0,0:0:0:0:
384,64,19820,2,0,B|340:48|340:48|292:68,1,90,2|0,0:0|0:0,0:0:0:0:
204,112,20153,1,2,0:0:0:0:
288,200,20320,1,8,0:0:0:0:
196,272,20487,6,0,P|116:248|92:196,1,144,2|0,0:0|0:0,0:0:0:0:
116,100,20986,5,8,0:0:0:0:
204,56,21153,1,0,0:0:0:0:
280,128,21320,2,0,L|384:176,1,90,0|0,0:0|0:0,0:0:0:0:
144,224,21653,2,0,L|56:264,1,90,8|0,0:0|0:0,0:0:0:0:
280,294,21987,6,0,P|358:295|376:277,1,90
424,208,22320,1,8,0:0:0:0:
360,128,22486,1,0,0:0:0:0:
296,208,22653,1,0,0:0:0:0:
232,128,22820,2,0,P|210:80|152:48,1,90,0|8,0:0|0:0,0:0:0:0:
80,48,23153,6,0,P|24:152|48:224,1,180,2|0,0:0|0:0,0:0:0:0:
96,288,23653,1,8,0:0:0:0:
192,320,23820,1,0,0:0:0:0:
288,288,23986,2,0,P|296:200|208:148,1,180,2|8,0:0|0:0,0:0:0:0:
143,122,24486,2,0,P|128:56|143:10,2,90
155,212,24986,5,8,0:0:0:0:
272,180,25153,1,0,0:0:0:0:
352,272,25320,1,0,0:0:0:0:
260,352,25487,1,0,0:0:0:0:
224,236,25653,1,8,0:0:0:0:
116,292,25820,1,0,0:0:0:0:
88,152,25987,6,0,L|152:48,1,107.999996704102,2|0,0:0|0:0,0:0:0:0:
365,61,26320,2,0,L|424:152,1,107.999996704102,10|0,0:0|0:0,0:0:0:0:
256,256,26653,2,0,L|256:120,1,107.999996704102,2|0,0:0|0:0,0:0:0:0:
256,40,26986,5,8,0:0:0:0:
164,76,27153,2,0,P|144:164|204:256,1,180
256,148,27653,1,8,0:0:0:0:
328,240,27820,2,0,P|368:161|348:76,1,180
256,148,28320,1,8,0:0:0:0:
164,224,28486,1,0,0:0:0:0:
108,348,28654,6,0,L|260:348,1,107.999996704102,2|0,0:0|0:0,0:0:0:0:
404,284,28987,2,0,L|252:284,1,107.999996704102,10|0,0:0|0:0,0:0:0:0:
108,220,29320,2,0,L|260:220,1,107.999996704102,2|0,0:0|0:0,0:0:0:0:
336,128,29653,5,8,0:0:0:0:
336,128,29820,2,0,P|328:80|216:32,1,180,0|0,0:0|0:0,0:0:0:0:
136,88,30320,1,8,0:0:0:0:
56,144,30486,2,0,L|56:264,2,90,0|0|0,0:0|0:0|0:0,0:0:0:0:
56,48,30986,1,8,0:0:0:0:
156,160,31153,1,0,0:0:0:0:
228,292,31320,6,0,P|312:332|396:236,1,180,2|10,0:0|0:0,0:0:0:0:
464,104,31820,1,0,0:0:0:0:
464,104,31987,2,0,P|380:64|296:160,1,180,2|8,0:0|0:0,0:0:0:0:
248,208,32486,5,0,0:0:0:0:
148,268,32653,1,0,0:0:0:0:
240,308,32820,1,0,0:0:0:0:
172,192,32986,1,8,0:0:0:0:
168,348,33153,1,0,0:0:0:0:
63,285,33320,5,0,0:0:0:0:
59,258,33403,1,0,0:0:0:0:
64,231,33487,1,0,0:0:0:0:
72,205,33570,1,0,0:0:0:0:
90,185,33653,1,8,0:0:0:0:
111,168,33737,1,0,0:0:0:0:
134,155,33820,1,0,0:0:0:0:
160,149,33903,1,0,0:0:0:0:
187,151,33987,6,0,P|247:234|240:307,1,180,2|0,0:0|0:0,0:0:0:0:
148,364,34486,1,2,0:0:0:0:
240,12,34820,1,0,0:0:0:0:
316,68,34986,1,0,0:0:0:0:
224,104,35153,1,2,0:0:0:0:
64,48,35542,5,0,0:0:0:0:
64,48,35653,1,2,0:0:0:0:
72,248,35987,2,0,P|160:228|192:252,1,96,2|0,0:0|0:0,0:0:0:0:
188,248,36320,1,2,0:0:0:0:
360,336,36654,6,0,P|304:280|304:240,1,107.999996704102,4|0,0:0|0:0,0:0:0:0:
328,192,37153,1,0,0:0:0:0:
304,128,37320,2,0,P|256:112|184:152,1,107.999996704102,8|0,0:0|0:0,0:0:0:0:
256,304,37986,5,0,0:0:0:0:
136,272,38209,1,0,0:0:0:0:
104,256,38320,1,0,0:0:0:0:
104,136,38542,1,0,0:0:0:0:
136,120,38653,2,0,P|188:104|248:136,2,107.999996704102,8|0|0,0:0|0:0|0:0,0:0:0:0:
154,233,39653,5,0,0:0:0:0:
232,208,39820,1,0,0:0:0:0:
279,274,39987,1,8,0:0:0:0:
232,340,40153,1,0,0:0:0:0:
152,316,40320,2,0,P|84:284|72:252,1,107.999996704102
64,184,40820,5,0,0:0:0:0:
112,128,40986,1,8,0:0:0:0:
160,184,41153,1,0,0:0:0:0:
208,128,41320,2,0,P|232:72|216:16,2,107.999996704102,2|0|2,0:0|0:0|0:0,0:0:0:0:
164,272,42320,5,0,0:0:0:0:
220,320,42486,1,0,0:0:0:0:
292,320,42653,2,0,P|364:272|380:232,1,107.999996704102,8|0,0:0|0:0,0:0:0:0:
384,112,43320,5,0,0:0:0:0:
319,144,43486,1,0,0:0:0:0:
272,88,43653,2,0,P|240:64|200:64,1,71.9999978027344
174,68,43986,1,8,0:0:0:0:
88,184,44320,1,0,0:0:0:0:
64,44,44653,1,0,0:0:0:0:
224,60,44987,5,2,0:0:0:0:
284,112,45153,1,0,0:0:0:0:
252,188,45320,1,10,0:0:0:0:
208,256,45487,1,0,0:0:0:0:
256,320,45653,1,2,0:0:0:0:
256,320,45987,5,0,0:0:0:0:
144,340,46209,1,0,0:0:0:0:
144,340,46320,1,8,0:0:0:0:
70,251,46542,1,0,0:0:0:0:
70,251,46653,1,8,0:0:0:0:
152,168,46875,1,0,0:0:0:0:
152,168,46986,2,0,P|176:128|240:128,1,107.999996704102,0|0,0:0|0:0,0:0:0:0:
256,320,47653,5,2,0:0:0:0:
256,320,47986,1,2,0:0:0:0:
360,168,48320,2,0,P|336:128|272:128,1,107.999996704102,0|0,0:0|0:0,0:0:0:0:
152,192,48986,1,2,0:0:0:0:
152,192,49320,1,2,0:0:0:0:
280,296,49653,6,0,P|328:272|352:208,1,107.999996704102,0|0,0:0|0:0,0:0:0:0:
232,152,50320,1,2,0:0:0:0:
328,48,50653,1,2,0:0:0:0:
424,152,50986,1,2,0:0:0:0:
328,256,51320,1,2,0:0:0:0:
80,304,51653,5,2,0:0:0:0:
72,323,51987,1,2,0:0:0:0:
64,340,52320,1,2,0:0:0:0:
224,64,52653,5,4,0:0:0:0:
364,44,52986,1,0,0:0:0:0:
432,168,53320,1,8,0:0:0:0:
360,184,53486,1,0,0:0:0:0:
288,168,53653,2,0,P|240:152|176:176,1,107.999996704102,0|2,0:0|0:0,0:0:0:0:
92,276,54320,1,0,0:0:0:0:
52,216,54486,1,0,0:0:0:0:
56,144,54653,1,8,0:0:0:0:
100,88,54819,1,0,0:0:0:0:
172,72,54987,2,0,P|232:102|260:150,1,107.999996704102,2|0,0:0|0:0,0:0:0:0:
256,280,55653,5,0,0:0:0:0:
56,40,55986,1,2,0:0:0:0:
256,352,56320,1,0,0:0:0:0:
452,72,56653,5,0,0:0:0:0:
332,32,56987,1,0,0:0:0:0:
228,92,57320,1,0,0:0:0:0:
212,124,57403,1,0,0:0:0:0:
204,160,57486,1,0,0:0:0:0:
212,196,57570,1,0,0:0:0:0:
228,228,57653,2,0,P|320:268|332:264,1,90,8|0,0:0|0:0,0:0:0:0:
412,272,57987,6,0,P|455:282|504:348,1,116.999994644165,4|0,0:0|0:0,0:0:0:0:
408,372,58320,1,8,0:0:0:0:
316,344,58486,1,0,0:0:0:0:
364,216,58653,2,0,P|356:144|324:104,1,116.999994644165,0|0,0:0|0:0,0:0:0:0:
232,68,58986,1,8,0:0:0:0:
208,184,59153,5,0,0:0:0:0:
140,100,59320,1,0,0:0:0:0:
292,176,59486,1,0,0:0:0:0:
168,260,59653,1,8,0:0:0:0:
76,200,59820,6,0,P|22:120|48:28,1,198.000006042481
300,260,60320,6,0,P|247:282|196:258,1,116.999994644165,8|0,0:0|0:0,0:0:0:0:
148,152,60653,2,0,P|204:128|268:184,1,116.999994644165
348,288,60987,2,0,P|288:301|236:234,1,116.999994644165,8|0,0:0|0:0,0:0:0:0:
200,116,61320,2,0,P|260:103|307:153,1,116.999994644165
300,260,61653,5,8,0:0:0:0:
200,196,61820,1,0,0:0:0:0:
300,135,61986,1,0,0:0:0:0:
400,196,62153,1,0,0:0:0:0:
420,312,62320,1,8,0:0:0:0:
420,312,62487,2,0,P|332:272|240:312,1,198.000006042481
152,364,62986,5,8,0:0:0:0:
100,268,63153,2,0,P|100:180|208:108,1,215.999993408203,0|0,0:0|0:0,0:0:0:0:
296,144,63653,1,8,0:0:0:0:
396,184,63820,2,0,P|380:96|248:28,1,215.999993408203,0|0,0:0|0:0,0:0:0:0:
196,108,64320,5,8,0:0:0:0:
196,108,64487,2,0,P|212:196|344:264,1,215.999993408203,0|0,0:0|0:0,0:0:0:0:
396,184,64986,1,8,0:0:0:0:
311,263,65153,2,0,P|209:289|119:234,1,215.999993408203,0|0,0:0|0:0,0:0:0:0:
72,136,65653,1,8,0:0:0:0:
156,68,65820,1,0,0:0:0:0:
240,136,65987,6,0,P|292:179|358:175,1,107.999996704102
460,264,66320,2,0,P|384:312|343:300,1,107.999996704102,8|0,0:0|0:0,0:0:0:0:
192,248,66653,1,0,0:0:0:0:
330,182,66820,1,0,0:0:0:0:
283,294,66987,1,8,0:0:0:0:
240,136,67153,1,0,0:0:0:0:
371,310,67320,6,0,P|423:302|460:264,1,107.999996704102
448,120,67653,1,8,0:0:0:0:
448,120,67820,2,0,P|416:56|264:48,1,215.999993408203,0|0,0:0|0:0,0:0:0:0:
176,80,68320,1,8,0:0:0:0:
344,120,68486,1,0,0:0:0:0:
344,120,68987,6,0,P|391:191|386:223,1,107.999996704102,8|0,0:0|0:0,0:0:0:0:
296,328,69320,2,0,P|250:256|255:224,1,107.999996704102
248,116,69653,5,8,0:0:0:0:
108,116,69820,1,0,0:0:0:0:
176,184,69987,1,0,0:0:0:0:
120,24,70153,1,0,0:0:0:0:
28,60,70320,1,8,0:0:0:0:
212,8,70486,2,0,P|308:36|348:152,1,215.999993408203
304,272,70986,5,8,0:0:0:0:
400,360,71154,2,0,P|432:280|396:184,1,161.999995056153
336,116,71653,1,8,0:0:0:0:
216,136,71820,2,0,P|184:209|202:286,1,161.999995056153
312,220,72320,1,8,0:0:0:0:
209,62,72487,6,0,P|168:78|144:116,1,90
308,32,72820,1,0,0:0:0:0:
216,136,72986,1,8,0:0:0:0:
384,188,73153,1,0,0:0:0:0:
280,100,73320,1,0,0:0:0:0:
312,220,73487,6,0,P|367:268|396:276,2,90,0|8|0,0:0|0:0|0:0,0:0:0:0:
224,72,73987,2,0,P|168:24|139:16,2,90,4|0|0,0:0|0:0|0:0,0:0:0:0:
260,140,74486,1,0,0:0:0:0:
336,48,74820,6,0,B|376:44|384:80|384:80|420:88|424:116|424:116|464:120|460:164,1,188.999994232178
376,264,75486,5,0,0:0:0:0:
376,264,75653,1,0,0:0:0:0:
248,236,75820,2,0,P|197:207|167:157,1,116.999994644165
256,72,76153,1,0,0:0:0:0:
136,20,76320,1,0,0:0:0:0:
256,72,76487,2,0,P|306:100|336:150,1,116.999994644165,0|0,0:0|0:0,0:0:0:0:
256,280,76820,5,0,0:0:0:0:
232,152,76986,1,0,0:0:0:0:
132,236,77153,2,0,P|81:207|51:157,1,116.999994644165
232,152,77487,2,0,P|282:180|312:230,1,116.999994644165,0|0,0:0|0:0,0:0:0:0:
256,352,77820,1,0,0:0:0:0:
424,20,78153,5,0,0:0:0:0:
332,136,78320,1,0,0:0:0:0:
344,32,78487,1,0,0:0:0:0:
408,164,78653,1,0,0:0:0:0:
264,40,78986,5,8,0:0:0:0:
332,136,79153,1,0,0:0:0:0:
168,44,79320,2,0,P|96:64|96:180,1,198.000006042481,4|8,0:0|0:0,0:0:0:0:
259,323,79987,2,0,P|305:310|336:272,1,99.0000030212403,0|0,0:0|0:0,0:0:0:0:
252,180,80320,1,8,0:0:0:0:
168,268,80487,1,0,0:0:0:0:
40,40,80820,5,2,0:0:0:0:
472,40,81153,1,2,0:0:0:0:
472,344,81486,1,2,0:0:0:0:
364,295,81653,1,10,0:0:0:0:
256,344,81820,6,0,P|184:320|208:192,1,198.000006042481,0|0,0:0|0:0,0:0:0:0:
300,192,82320,1,8,0:0:0:0:
192,144,82486,1,0,0:0:0:0:
308,124,82653,1,0,0:0:0:0:
200,76,82820,1,0,0:0:0:0:
316,56,82986,1,8,0:0:0:0:
424,104,83153,6,0,P|424:156|368:232,1,99.0000030212403,2|0,0:0|0:0,0:0:0:0:
237,157,83487,2,0,P|237:105|293:29,1,99.0000030212403,2|0,0:0|0:0,0:0:0:0:
361,249,83820,2,0,P|324:285|230:299,1,99.0000030212403,2|0,0:0|0:0,0:0:0:0:
157,209,84153,2,0,P|193:172|287:158,1,99.0000030212403,2|0,0:0|0:0,0:0:0:0:
352,208,84487,6,0,P|255:301|157:209,1,297.000009063721,2|8,0:0|0:0,0:0:0:0:
256,32,85320,1,2,0:0:0:0:
168,112,85486,1,0,0:0:0:0:
200,224,85653,1,8,0:0:0:0:
296,288,85820,2,0,P|392:256|408:232,1,99.0000030212403,2|0,0:0|0:0,0:0:0:0:
472,192,86153,1,2,0:0:0:0:
40,120,86486,5,2,0:0:0:0:
472,40,86820,1,2,0:0:0:0:
72,312,87153,2,0,P|184:328|216:176,1,297.000009063721,2|8,0:0|0:0,0:0:0:0:
128,96,87820,6,0,P|192:64|224:72,1,99.0000030212403,0|2,0:0|0:0,0:0:0:0:
320,120,88153,1,2,0:0:0:0:
392,216,88320,1,2,0:0:0:0:
432,328,88486,1,2,0:0:0:0:
80,328,88820,5,2,0:0:0:0:
256,40,89153,1,4,0:0:0:0:
432,328,89486,1,4,0:0:0:0:
168,144,89820,2,0,P|256:80|352:144,1,198.000006042481,4|0,0:0|0:0,0:0:0:0:
340,128,90237,1,0,0:0:0:0:
348,144,90320,1,4,0:0:0:0:
256,192,90403,12,0,91320,0:0:0:0:
