osu file format v14

[General]
AudioFilename: El Bombito.mp3
AudioLeadIn: 1500
PreviewTime: 8072
Countdown: 0
SampleSet: Normal
StackLeniency: 0.7
Mode: 1
LetterboxInBreaks: 0
WidescreenStoryboard: 0

[Editor]
DistanceSpacing: 1.3
BeatDivisor: 4
GridSize: 32
TimelineZoom: 2.699999

[Metadata]
Title:El Bombito
TitleUnicode:El Bombito
Artist:MowtenDoo
ArtistUnicode:MowtenDoo
Creator:DaxMasterix
Version:xtrem3x's Taco Muzukashii
Source:
Tags:hechizeros band sonidito xtrem3x naruto artifical intelligence bomb famicom Gero
BeatmapID:632263
BeatmapSetID:239262

[Difficulty]
HPDrainRate:5
CircleSize:2
OverallDifficulty:5
ApproachRate:5
SliderMultiplier:1.4
SliderTickRate:1

[Events]
//Background and Video events
0,0,"BGT.jpg",0,0
//Break Periods
//Storyboard Layer 0 (Background)
//Storyboard Layer 1 (Fail)
//Storyboard Layer 2 (Pass)
//Storyboard Layer 3 (Foreground)
//Storyboard Sound Samples

[TimingPoints]
275,389.888881668724,4,1,0,80,1,0
20549,-100,4,1,0,80,0,1
31271,-100,4,1,0,80,0,0

[Colours]
Combo1 : 242,24,57
Combo2 : 0,128,64
Combo3 : 255,255,255

[HitObjects]
256,192,275,5,2,0:0:0:0:
256,192,664,1,2,0:0:0:0:
256,192,1054,1,2,0:0:0:0:
256,192,1444,1,2,0:0:0:0:
256,192,1639,1,0,0:0:0:0:
256,192,1834,1,2,0:0:0:0:
256,192,2224,1,2,0:0:0:0:
256,192,2614,1,2,0:0:0:0:
256,192,3004,1,2,0:0:0:0:
256,192,3394,1,2,0:0:0:0:
256,192,3589,1,0,0:0:0:0:
256,192,3783,1,2,0:0:0:0:
256,192,3978,1,2,0:0:0:0:
256,192,4173,1,2,0:0:0:0:
256,192,4563,1,2,0:0:0:0:
256,192,4953,1,2,0:0:0:0:
256,192,5148,1,0,0:0:0:0:
256,192,5343,1,2,0:0:0:0:
256,192,5538,1,2,0:0:0:0:
256,192,5733,1,2,0:0:0:0:
256,192,6123,1,2,0:0:0:0:
256,192,6513,1,0,0:0:0:0:
256,192,6708,1,2,0:0:0:0:
256,192,6903,1,2,0:0:0:0:
256,192,7098,1,2,0:0:0:0:
256,192,7292,1,2,0:0:0:0:
256,192,7682,1,6,0:0:0:0:
256,192,8072,1,4,0:0:0:0:
256,192,8365,1,2,0:0:0:0:
256,192,8657,1,0,0:0:0:0:
256,192,8852,1,0,0:0:0:0:
256,192,9047,1,2,0:0:0:0:
256,192,9242,1,2,0:0:0:0:
256,192,9632,1,0,0:0:0:0:
256,192,9827,1,2,0:0:0:0:
256,192,10022,1,2,0:0:0:0:
256,192,10217,1,0,0:0:0:0:
256,192,10412,1,2,0:0:0:0:
256,192,10704,1,0,0:0:0:0:
256,192,10996,1,2,0:0:0:0:
256,192,11191,1,2,0:0:0:0:
256,192,11484,1,0,0:0:0:0:
256,192,11776,1,0,0:0:0:0:
256,192,11971,1,2,0:0:0:0:
256,192,12166,1,2,0:0:0:0:
256,192,12361,1,0,0:0:0:0:
256,192,12751,1,2,0:0:0:0:
256,192,12848,1,2,0:0:0:0:
256,192,12946,1,2,0:0:0:0:
256,192,13141,1,2,0:0:0:0:
256,192,13531,1,0,0:0:0:0:
256,192,13628,1,0,0:0:0:0:
256,192,13726,1,0,0:0:0:0:
256,192,13921,1,2,0:0:0:0:
256,192,14310,1,12,0:0:0:0:
256,192,14895,1,0,0:0:0:0:
256,192,15090,1,2,0:0:0:0:
256,192,15383,1,2,0:0:0:0:
256,192,15675,1,2,0:0:0:0:
256,192,16065,1,0,0:0:0:0:
256,192,16260,1,0,0:0:0:0:
256,192,16552,1,2,0:0:0:0:
256,192,17040,1,0,0:0:0:0:
256,192,17235,1,0,0:0:0:0:
256,192,17430,1,2,0:0:0:0:
256,192,17819,1,2,0:0:0:0:
256,192,18014,1,0,0:0:0:0:
256,192,18209,1,2,0:0:0:0:
256,192,18599,1,0,0:0:0:0:
256,192,18989,1,2,0:0:0:0:
256,192,19184,1,0,0:0:0:0:
256,192,19379,1,2,0:0:0:0:
256,192,19574,1,0,0:0:0:0:
256,192,19769,1,2,0:0:0:0:
256,192,19964,1,2,0:0:0:0:
256,192,20549,1,4,0:0:0:0:
256,192,20939,1,2,0:0:0:0:
256,192,21134,1,0,0:0:0:0:
256,192,21328,1,2,0:0:0:0:
256,192,21523,1,0,0:0:0:0:
256,192,21718,1,2,0:0:0:0:
256,192,21816,1,2,0:0:0:0:
256,192,22108,1,2,0:0:0:0:
256,192,22303,1,0,0:0:0:0:
256,192,22498,1,2,0:0:0:0:
256,192,22693,1,0,0:0:0:0:
256,192,22888,1,2,0:0:0:0:
256,192,23180,1,2,0:0:0:0:
256,192,23473,1,0,0:0:0:0:
256,192,23668,1,2,0:0:0:0:
256,192,23960,1,0,0:0:0:0:
256,192,24253,1,2,0:0:0:0:
256,192,24448,1,0,0:0:0:0:
256,192,24643,1,0,0:0:0:0:
256,192,24837,1,2,0:0:0:0:
256,192,25227,1,0,0:0:0:0:
256,192,25617,1,0,0:0:0:0:
256,192,26007,1,0,0:0:0:0:
256,192,26202,1,0,0:0:0:0:
256,192,26397,1,2,0:0:0:0:
256,192,26787,1,2,0:0:0:0:
256,192,27177,1,2,0:0:0:0:
256,192,27372,1,0,0:0:0:0:
256,192,27567,1,2,0:0:0:0:
256,192,27859,1,2,0:0:0:0:
256,192,28152,1,2,0:0:0:0:
256,192,28346,1,0,0:0:0:0:
256,192,28541,1,2,0:0:0:0:
256,192,28736,1,0,0:0:0:0:
256,192,28834,1,0,0:0:0:0:
256,192,28931,1,0,0:0:0:0:
256,192,29126,1,2,0:0:0:0:
256,192,29516,1,2,0:0:0:0:
256,192,29711,1,0,0:0:0:0:
256,192,29906,1,2,0:0:0:0:
256,192,30296,1,2,0:0:0:0:
256,192,30491,1,0,0:0:0:0:
256,192,30686,1,2,0:0:0:0:
256,192,31076,1,2,0:0:0:0:
256,192,31271,1,0,0:0:0:0:
256,192,31466,1,2,0:0:0:0:
256,192,31563,1,2,0:0:0:0:
256,192,31661,1,2,0:0:0:0:
256,192,31855,1,2,0:0:0:0:
256,192,31953,1,2,0:0:0:0:
256,192,32245,1,4,0:0:0:0:
