osu file format v14

[General]
AudioFilename: El Bombito.mp3
AudioLeadIn: 1500
PreviewTime: 8072
Countdown: 0
SampleSet: Normal
StackLeniency: 0.7
Mode: 0
LetterboxInBreaks: 0
WidescreenStoryboard: 0

[Editor]
DistanceSpacing: 1.3
BeatDivisor: 4
GridSize: 4
TimelineZoom: 1.8

[Metadata]
Title:El Bombito
TitleUnicode:El Bombito
Artist:MowtenDoo
ArtistUnicode:MowtenDoo
Creator:DaxMasterix
Version:Experto
Source:
Tags:hechizeros band sonidito xtrem3x naruto artifical intelligence bomb famicom Gero
BeatmapID:553189
BeatmapSetID:239262

[Difficulty]
HPDrainRate:6
CircleSize:4
OverallDifficulty:7
ApproachRate:9
SliderMultiplier:1.8
SliderTickRate:1

[Events]
//Background and Video events
0,0,"HALLO.jpg",0,0
Video,0,"VivaMexicoCabrones.avi"
//Break Periods
//Storyboard Layer 0 (Background)
//Storyboard Layer 1 (Fail)
//Storyboard Layer 2 (Pass)
//Storyboard Layer 3 (Foreground)
//Storyboard Sound Samples

[TimingPoints]
275,389.888881668724,4,1,0,70,1,0
19379,-80,4,1,0,70,0,0
19769,-66.6666666666667,4,1,0,70,0,0
20159,-57.1428571428571,4,1,0,70,0,0
20549,-100,4,1,0,70,0,1
31271,-100,4,1,1,70,0,0

[Colours]
Combo1 : 242,24,57
Combo2 : 0,128,64
Combo3 : 255,255,255

[HitObjects]
104,104,80,5,0,0:0:0:0:
104,104,275,2,0,L|192:128,1,90,4|0,0:0|0:0,0:0:0:0:
262,63,567,2,0,L|176:40,1,90,0|0,0:0|0:0,0:0:0:0:
288,152,957,2,0,P|336:112|352:40,1,135
456,80,1444,1,0,0:0:0:0:
416,168,1639,1,0,0:0:0:0:
416,168,1704,1,0,0:0:0:0:
416,168,1769,1,0,0:0:0:0:
416,168,1834,6,0,L|440:256,1,90,4|0,0:0|0:0,0:0:0:0:
321,328,2224,2,0,L|328:240,1,90,0|0,0:0|0:0,0:0:0:0:
184,240,2614,2,0,L|190:328,1,90,0|0,0:0|0:0,0:0:0:0:
72,254,3004,2,0,L|96:168,2,90,0|0|4,0:0|0:0|0:0,0:0:0:0:
8,152,3589,5,0,0:0:0:0:
88,72,3783,2,0,L|176:88,1,90
424,72,4173,2,0,L|336:88,1,90
120,152,4563,1,0,0:0:0:0:
256,192,4758,1,0,0:0:0:0:
392,152,4953,6,0,P|408:200|432:232,1,90,4|0,0:0|0:0,0:0:0:0:
448,248,5246,1,0,0:0:0:0:
464,264,5343,2,0,P|450:306|424:343,1,90
400,352,5635,1,0,0:0:0:0:
376,344,5733,2,0,P|328:328|288:320,1,90,4|0,0:0|0:0,0:0:0:0:
256,312,6025,1,0,0:0:0:0:
222,320,6123,2,0,P|178:329|136:344,1,90,0|0,0:0|0:0,0:0:0:0:
112,352,6415,1,0,0:0:0:0:
87,343,6513,2,0,P|61:306|48:264,1,90,4|0,0:0|0:0,0:0:0:0:
64,248,6805,5,0,0:0:0:0:
256,112,7000,1,0,0:0:0:0:
448,248,7195,1,0,0:0:0:0:
256,240,7682,1,2,0:3:0:0:
256,240,7877,1,0,0:0:0:0:
136,152,8072,6,0,L|88:104|56:40,2,135,0|2|0,0:0|0:3|0:0,0:0:0:0:
168,48,8852,1,0,0:0:0:0:
256,120,9047,1,0,0:0:0:0:
344,48,9242,1,2,0:3:0:0:
344,48,9339,2,0,B|384:104|384:104|440:144,1,135
320,200,9827,6,0,P|360:216|432:232,2,90,0|2|0,0:0|0:3|0:0,0:0:0:0:
288,336,10412,2,0,P|352:336|424:312,2,135,0|2|2,0:0|0:3|0:3,0:0:0:0:
256,336,11094,1,0,0:0:0:0:
224,336,11191,6,0,P|160:336|88:312,2,135,0|2|0,0:0|0:3|0:0,0:0:0:0:
200,160,11971,1,0,0:0:0:0:
187,203,12068,1,0,0:0:0:0:
175,246,12165,1,2,0:3:0:0:
96,168,12362,1,2,0:3:0:0:
84,124,12459,1,0,0:0:0:0:
72,81,12556,1,0,0:0:0:0:
172,60,12751,5,0,0:0:0:0:
205,55,12848,1,0,0:0:0:0:
238,50,12945,1,0,0:0:0:0:
272,45,13043,1,0,0:0:0:0:
305,40,13140,1,2,0:3:0:0:
344,136,13336,1,0,0:0:0:0:
132,166,13531,5,0,0:0:0:0:
186,160,13628,1,0,0:0:0:0:
238,152,13725,1,0,0:0:0:0:
290,144,13823,1,0,0:0:0:0:
344,136,13920,1,2,0:3:0:0:
314,294,14116,1,2,0:3:0:0:
96,256,14310,6,0,P|56:288|24:328,1,90,0|0,0:0|0:0,0:0:0:0:
198,294,14700,1,2,0:3:0:0:
314,294,14895,1,0,0:0:0:0:
352,288,14992,1,0,0:0:0:0:
384,264,15090,6,0,P|416:232|448:176,1,90
402,203,15383,2,0,P|417:160|423:96,1,90,0|2,0:0|0:3,0:0:0:0:
393,140,15675,2,0,P|389:95|367:34,1,90
256,80,16065,5,0,0:0:0:0:
135,52,16260,1,2,0:3:0:0:
135,52,16357,2,0,P|136:104|152:144,1,90,0|0,0:0|0:0,0:0:0:0:
176,160,16650,2,0,B|216:192|256:200|256:200|296:192|336:160,1,180,0|2,0:0|0:3,0:0:0:0:
112,232,17235,1,2,0:3:0:0:
400,232,17430,5,0,0:0:0:0:
304,296,17625,1,0,0:0:0:0:
335,327,17722,1,0,0:0:0:0:
374,351,17819,1,2,0:3:0:0:
208,296,18014,5,0,0:0:0:0:
176,327,18111,1,0,0:0:0:0:
137,351,18208,1,0,0:0:0:0:
112,232,18404,5,2,0:3:0:0:
143,200,18501,1,0,0:0:0:0:
182,176,18598,1,2,0:3:0:0:
327,104,18794,5,0,0:0:0:0:
295,72,18891,1,0,0:0:0:0:
256,48,18989,6,0,L|168:64,1,90
288,124,19379,2,0,L|416:148,1,112.5,2|0,0:3|0:0,0:0:0:0:
256,192,19769,2,0,L|88:224,1,135.000005149842
256,264,20159,1,2,0:3:0:0:
295,271,20256,1,0,0:0:0:0:
334,278,20353,1,0,0:0:0:0:
372,286,20451,1,0,0:0:0:0:
411,293,20549,6,0,L|440:208,1,90,4|0,0:0|0:0,0:0:0:0:
102,293,20939,2,0,L|72:208,1,90,2|0,0:3|0:0,0:0:0:0:
440,208,21328,2,0,L|470:122,1,90,0|0,0:0|0:0,0:0:0:0:
72,208,21718,2,0,L|43:122,1,90,2|0,0:3|0:0,0:0:0:0:
470,122,22108,6,0,L|440:208,1,90
43,122,22498,2,0,L|72:208,1,90,2|0,0:3|0:0,0:0:0:0:
441,207,22888,2,0,L|411:292,1,90,0|0,0:0|0:3,0:0:0:0:
71,207,23278,2,0,L|101:292,1,90,2|0,0:3|0:3,0:0:0:0:
411,92,23668,6,0,L|497:115,1,90,0|0,0:3|0:0,0:0:0:0:
101,292,24058,2,0,L|13:268,1,90,2|0,0:3|0:0,0:0:0:0:
411,292,24448,2,0,L|499:268,1,90,0|0,0:3|0:0,0:0:0:0:
101,92,24837,2,0,L|14:115,1,90,2|0,0:3|0:0,0:0:0:0:
312,144,25227,5,0,0:0:0:0:
200,144,25422,1,0,0:0:0:0:
200,144,25520,1,2,0:3:0:0:
256,256,25715,1,0,0:0:0:0:
256,256,25812,1,2,0:3:0:0:
383,98,26007,5,0,0:0:0:0:
129,98,26202,1,0,0:0:0:0:
129,98,26300,1,2,0:3:0:0:
256,336,26495,1,0,0:0:0:0:
256,336,26592,1,2,0:3:0:0:
456,72,26787,5,0,0:0:0:0:
456,72,26884,1,0,0:0:0:0:
456,72,26981,1,0,0:0:0:0:
408,208,27177,1,2,0:3:0:0:
408,208,27274,5,0,0:0:0:0:
408,208,27372,1,0,0:0:0:0:
256,256,27567,1,0,0:0:0:0:
256,256,27664,1,0,0:0:0:0:
256,256,27762,5,0,0:0:0:0:
96,208,27957,1,2,0:3:0:0:
96,208,28054,1,0,0:0:0:0:
96,208,28152,1,0,0:0:0:0:
56,72,28346,5,0,0:0:0:0:
56,72,28443,5,0,0:0:0:0:
56,72,28540,1,0,0:0:0:0:
256,48,28736,1,2,0:3:0:0:
256,48,28834,1,0,0:0:0:0:
256,48,28931,1,0,0:0:0:0:
320,168,29126,6,0,P|336:216|336:256,1,90,0|0,0:0|0:3,0:0:0:0:
176,255,29516,2,0,P|177:210|192:168,1,90,2|0,0:3|0:0,0:0:0:0:
494,198,29906,5,0,0:0:0:0:
487,242,30003,1,0,0:0:0:0:
465,281,30100,1,0,0:0:0:0:
431,309,30198,1,0,0:0:0:0:
387,304,30296,5,2,0:3:0:0:
358,270,30394,1,0,0:0:0:0:
320,248,30491,1,0,0:0:0:0:
275,240,30588,1,0,0:0:0:0:
237,240,30686,5,0,0:0:0:0:
192,248,30783,1,0,0:0:0:0:
154,270,30880,1,0,0:0:0:0:
125,304,30978,1,0,0:0:0:0:
81,309,31076,5,2,0:3:0:0:
47,281,31174,1,0,0:0:0:0:
25,242,31271,1,0,0:0:0:0:
18,198,31368,1,0,0:0:0:0:
256,192,31466,12,4,32245,0:0:0:0:
