osu file format v14

[General]
AudioFilename: El Bombito.mp3
AudioLeadIn: 1500
PreviewTime: 8072
Countdown: 0
SampleSet: Normal
StackLeniency: 0.7
Mode: 0
LetterboxInBreaks: 0
WidescreenStoryboard: 0

[Editor]
DistanceSpacing: 1.3
BeatDivisor: 4
GridSize: 8
TimelineZoom: 1.7

[Metadata]
Title:El Bombito
TitleUnicode:El Bombito
Artist:MowtenDoo
ArtistUnicode:MowtenDoo
Creator:DaxMasterix
Version:Duro
Source:
Tags:hechizeros band sonidito xtrem3x naruto artifical intelligence bomb famicom Gero
BeatmapID:587677
BeatmapSetID:239262

[Difficulty]
HPDrainRate:5
CircleSize:3.5
OverallDifficulty:5
ApproachRate:7
SliderMultiplier:1.6
SliderTickRate:1

[Events]
//Background and Video events
0,0,"HALLO.jpg",0,0
Video,0,"VivaMexicoCabrones.avi"
//Break Periods
//Storyboard Layer 0 (Background)
//Storyboard Layer 1 (Fail)
//Storyboard Layer 2 (Pass)
//Storyboard Layer 3 (Foreground)
//Storyboard Sound Samples

[TimingPoints]
275,389.888881668724,4,1,0,80,1,0
20549,-100,4,1,0,80,0,1
31271,-100,4,1,1,80,0,0

[Colours]
Combo1 : 242,24,57
Combo2 : 0,128,64
Combo3 : 255,255,255

[HitObjects]
104,80,80,5,0,0:0:0:0:
177,119,275,2,0,L|256:104,1,80,4|0,0:0|0:0,0:0:0:0:
288,112,567,2,0,L|312:200,1,80
486,124,957,6,0,P|434:96|376:104,1,120
416,200,1444,1,0,0:0:0:0:
424,304,1639,2,0,L|448:320,2,26.6666666666667
392,296,1834,6,0,L|328:344,1,80,4|0,0:0|0:0,0:0:0:0:
256,280,2224,2,0,L|256:200,1,80,0|0,0:0|0:0,0:0:0:0:
120,296,2614,2,0,L|184:344,1,80
256,280,3004,1,0,0:0:0:0:
168,216,3199,1,0,0:0:0:0:
344,216,3394,6,0,L|376:136,1,80,4|0,0:0|0:0,0:0:0:0:
256,32,3783,2,0,L|256:112,1,80,0|0,0:0|0:0,0:0:0:0:
168,216,4173,2,0,L|136:136,1,80
256,112,4563,1,0,0:0:0:0:
168,32,4758,1,0,0:0:0:0:
168,32,4953,6,0,P|120:32|88:40,1,80,4|0,0:0|0:0,0:0:0:0:
56,128,5343,2,0,P|104:128|136:120,1,80
168,216,5733,2,0,P|120:216|88:224,1,80,4|0,0:0|0:0,0:0:0:0:
56,312,6123,2,0,P|104:312|136:304,1,80,0|0,0:0|0:0,0:0:0:0:
256,328,6513,1,4,0:0:0:0:
377,304,6708,5,0,0:0:0:0:
377,304,6805,2,0,P|416:312|456:312,1,80,4|0,0:0|0:0,0:0:0:0:
424,216,7195,1,4,0:0:0:0:
256,176,7682,1,2,0:2:0:0:
256,176,7877,1,0,0:0:0:0:
352,136,8072,6,0,P|408:112|472:120,2,120,4|2|0,0:0|0:3|0:0,0:0:0:0:
424,216,8852,1,0,0:3:0:0:
377,304,9047,1,0,0:0:0:0:
272,280,9242,1,2,0:3:0:0:
272,280,9339,2,0,P|208:264|152:264,1,120,0|0,0:0|0:3,0:0:0:0:
56,224,9827,5,0,0:0:0:0:
136,160,10022,1,2,0:3:0:0:
40,120,10217,1,0,0:0:0:0:
128,56,10412,6,0,B|168:40|168:40|272:24,2,120,0|2|2,0:3|0:3|0:3,0:0:0:0:
136,160,11191,2,0,B|176:176|176:176|280:192,2,120,0|2|0,0:3|0:3|0:0,0:0:0:0:
228,108,11971,2,0,L|308:108,1,80,0|2,0:3|0:3,0:0:0:0:
408,96,12361,1,2,0:3:0:0:
376,192,12556,1,0,0:0:0:0:
344,288,12751,6,0,L|376:312,4,40,0|2|2|2|2,0:0|0:2|0:2|0:2|0:2,0:0:0:0:
256,224,13336,1,0,0:0:0:0:
168,288,13531,2,0,L|136:312,4,40,0|2|2|2|2,0:0|0:2|0:2|0:2|0:2,0:0:0:0:
256,224,14116,1,0,0:0:0:0:
320,144,14310,6,0,B|328:104|328:104|256:48|184:104|184:104|192:144,1,240
256,224,15090,2,0,B|264:248|264:248|248:320|248:320|256:344,2,120,0|2|2,0:0|0:3|0:3,0:0:0:0:
152,240,15870,6,0,P|120:272|88:288,1,80,0|2,0:0|0:3,0:0:0:0:
56,192,16260,1,2,0:3:0:0:
152,144,16455,2,0,P|120:112|88:96,1,80,0|0,0:0|0:3,0:0:0:0:
168,32,16845,1,2,0:3:0:0:
256,80,17040,1,2,0:3:0:0:
344,32,17235,1,0,0:0:0:0:
344,32,17430,6,0,B|384:72|384:72|384:120|384:120|424:160,1,160,0|2,0:0|0:3,0:0:0:0:
88,159,18209,2,0,B|128:120|128:120|128:72|128:72|168:32,1,160,0|2,0:0|0:3,0:0:0:0:
296,320,18989,6,0,L|216:328,1,80
128,232,19379,2,0,L|120:152,1,80,2|0,0:3|0:0,0:0:0:0:
216,64,19769,2,0,L|296:56,1,80,0|0,0:0|0:0,0:0:0:0:
384,167,20159,2,0,L|389:207,3,40,2|0|0|0,0:0|0:0|0:0|0:0,0:0:0:0:
384,232,20549,6,0,L|368:312,1,80,4|0,0:0|0:0,0:0:0:0:
256,272,20939,2,0,L|256:192,1,80,2|0,0:3|0:0,0:0:0:0:
128,232,21328,2,0,L|144:312,1,80,0|0,0:0|0:0,0:0:0:0:
256,360,21718,1,2,0:3:0:0:
256,360,21913,1,0,0:0:0:0:
368,310,22108,6,0,P|408:312|448:288,1,80
399,153,22498,2,0,P|359:151|319:175,1,80,2|0,0:3|0:0,0:0:0:0:
232,264,22888,2,0,P|272:266|312:242,1,80,0|0,0:0|0:3,0:0:0:0:
263,107,23278,1,2,0:3:0:0:
263,107,23473,1,0,0:3:0:0:
160,88,23668,6,0,L|96:136,1,80
128,232,24058,2,0,L|116:311,1,80,2|0,0:3|0:0,0:0:0:0:
232,264,24448,2,0,L|280:328,1,80,0|0,0:0|0:0,0:0:0:0:
328,213,24837,1,2,0:3:0:0:
328,213,25032,1,0,0:0:0:0:
328,108,25227,6,0,P|256:76|184:108,2,160,0|2|0,0:0|0:3|0:0,0:0:0:0:
416,160,26202,1,0,0:0:0:0:
328,213,26397,1,2,0:3:0:0:
96,160,26787,6,0,L|88:240,1,80,4|0,0:0|0:0,0:0:0:0:
200,264,27177,1,2,0:3:0:0:
200,264,27372,1,0,0:0:0:0:
312,233,27567,2,0,L|328:312,1,80
424,240,27957,2,0,L|416:160,1,80,2|0,0:3|0:0,0:0:0:0:
352,80,28346,5,0,0:0:0:0:
256,40,28541,1,0,0:0:0:0:
160,80,28736,2,0,L|136:160,1,80,2|0,0:3|0:0,0:0:0:0:
256,216,29126,2,0,L|256:136,3,80,0|0|2|0,0:0|0:0|0:3|0:3,0:0:0:0:
352,80,29906,6,0,L|432:104,1,80
440,192,30296,2,0,L|360:168,1,80,2|0,0:3|0:0,0:0:0:0:
256,216,30686,2,0,L|336:240,1,80,0|0,0:0|0:0,0:0:0:0:
344,328,31076,1,2,0:3:0:0:
344,328,31271,1,0,0:0:0:0:
256,192,31466,12,4,32245,0:0:0:0:
