osu file format v14

[General]
AudioFilename: El Bombito.mp3
AudioLeadIn: 1500
PreviewTime: 8072
Countdown: 0
SampleSet: Normal
StackLeniency: 0.7
Mode: 1
LetterboxInBreaks: 0
WidescreenStoryboard: 0

[Editor]
DistanceSpacing: 1.3
BeatDivisor: 4
GridSize: 32
TimelineZoom: 2.699999

[Metadata]
Title:El Bombito
TitleUnicode:El Bombito
Artist:MowtenDoo
ArtistUnicode:MowtenDoo
Creator:DaxMasterix
Version:xtrem3x's Taco Oni
Source:
Tags:hechizeros band sonidito xtrem3x naruto artifical intelligence bomb famicom Gero
BeatmapID:632265
BeatmapSetID:239262

[Difficulty]
HPDrainRate:6
CircleSize:2
OverallDifficulty:6
ApproachRate:5
SliderMultiplier:1.4
SliderTickRate:1

[Events]
//Background and Video events
0,0,"BGT.jpg",0,0
//Break Periods
//Storyboard Layer 0 (Background)
//Storyboard Layer 1 (Fail)
//Storyboard Layer 2 (Pass)
//Storyboard Layer 3 (Foreground)
//Storyboard Sound Samples

[TimingPoints]
275,389.888881668724,4,1,0,80,1,0
20549,-100,4,1,0,80,0,1
31271,-100,4,1,0,80,0,0

[Colours]
Combo1 : 242,24,57
Combo2 : 0,128,64
Combo3 : 255,255,255

[HitObjects]
256,192,275,5,2,0:0:0:0:
256,192,469,1,0,0:0:0:0:
256,192,664,1,2,0:0:0:0:
256,192,859,1,0,0:0:0:0:
256,192,1054,1,2,0:0:0:0:
256,192,1249,1,0,0:0:0:0:
256,192,1444,1,2,0:0:0:0:
256,192,1639,1,0,0:0:0:0:
256,192,1704,1,0,0:0:0:0:
256,192,1769,1,0,0:0:0:0:
256,192,1834,1,2,0:0:0:0:
256,192,2029,1,0,0:0:0:0:
256,192,2224,1,2,0:0:0:0:
256,192,2419,1,0,0:0:0:0:
256,192,2614,1,2,0:0:0:0:
256,192,2809,1,0,0:0:0:0:
256,192,3004,1,2,0:0:0:0:
256,192,3199,1,0,0:0:0:0:
256,192,3394,1,2,0:0:0:0:
256,192,3589,1,0,0:0:0:0:
256,192,3686,1,0,0:0:0:0:
256,192,3783,1,2,0:0:0:0:
256,192,3978,1,2,0:0:0:0:
256,192,4173,1,2,0:0:0:0:
256,192,4368,1,0,0:0:0:0:
256,192,4466,1,0,0:0:0:0:
256,192,4563,1,2,0:0:0:0:
256,192,4758,1,2,0:0:0:0:
256,192,4953,1,2,0:0:0:0:
256,192,5148,1,0,0:0:0:0:
256,192,5246,1,0,0:0:0:0:
256,192,5343,1,2,0:0:0:0:
256,192,5538,1,2,0:0:0:0:
256,192,5733,1,2,0:0:0:0:
256,192,5928,1,0,0:0:0:0:
256,192,6025,1,0,0:0:0:0:
256,192,6123,1,2,0:0:0:0:
256,192,6318,1,2,0:0:0:0:
256,192,6513,1,2,0:0:0:0:
256,192,6708,1,0,0:0:0:0:
256,192,6805,1,0,0:0:0:0:
256,192,7000,1,2,0:0:0:0:
256,192,7195,1,0,0:0:0:0:
256,192,7292,1,2,0:0:0:0:
256,192,7682,1,6,0:0:0:0:
256,192,8072,1,4,0:0:0:0:
256,192,8267,1,0,0:0:0:0:
256,192,8365,1,0,0:0:0:0:
256,192,8462,1,2,0:0:0:0:
256,192,8657,1,2,0:0:0:0:
256,192,8852,1,0,0:0:0:0:
256,192,9047,1,2,0:0:0:0:
256,192,9242,1,2,0:0:0:0:
256,192,9339,1,0,0:0:0:0:
256,192,9632,1,0,0:0:0:0:
256,192,9827,1,2,0:0:0:0:
256,192,10022,1,2,0:0:0:0:
256,192,10217,1,0,0:0:0:0:
256,192,10314,1,0,0:0:0:0:
256,192,10412,1,2,0:0:0:0:
256,192,10704,1,2,0:0:0:0:
256,192,10801,1,0,0:0:0:0:
256,192,10996,1,2,0:0:0:0:
256,192,11191,1,2,0:0:0:0:
256,192,11484,1,0,0:0:0:0:
256,192,11581,1,2,0:0:0:0:
256,192,11776,1,0,0:0:0:0:
256,192,11971,1,2,0:0:0:0:
256,192,12166,1,2,0:0:0:0:
256,192,12361,1,0,0:0:0:0:
256,192,12459,1,0,0:0:0:0:
256,192,12556,1,2,0:0:0:0:
256,192,12751,1,2,0:0:0:0:
256,192,12848,1,0,0:0:0:0:
256,192,12946,1,0,0:0:0:0:
256,192,13043,1,0,0:0:0:0:
256,192,13141,1,2,0:0:0:0:
256,192,13336,1,0,0:0:0:0:
256,192,13531,1,2,0:0:0:0:
256,192,13628,1,0,0:0:0:0:
256,192,13726,1,0,0:0:0:0:
256,192,13823,1,2,0:0:0:0:
256,192,13921,1,2,0:0:0:0:
256,192,14116,1,2,0:0:0:0:
256,192,14310,1,6,0:0:0:0:
256,192,14700,1,0,0:0:0:0:
256,192,14895,1,0,0:0:0:0:
256,192,14993,1,2,0:0:0:0:
256,192,15090,1,2,0:0:0:0:
256,192,15383,1,2,0:0:0:0:
256,192,15480,1,0,0:0:0:0:
256,192,15675,1,2,0:0:0:0:
256,192,15773,1,2,0:0:0:0:
256,192,15870,1,0,0:0:0:0:
256,192,16065,1,2,0:0:0:0:
256,192,16260,1,0,0:0:0:0:
256,192,16357,1,2,0:0:0:0:
256,192,16552,1,2,0:0:0:0:
256,192,16650,1,0,0:0:0:0:
256,192,16845,1,0,0:0:0:0:
256,192,17040,1,2,0:0:0:0:
256,192,17235,1,0,0:0:0:0:
256,192,17332,1,0,0:0:0:0:
256,192,17430,1,2,0:0:0:0:
256,192,17625,1,2,0:0:0:0:
256,192,17819,1,2,0:0:0:0:
256,192,18014,1,2,0:0:0:0:
256,192,18112,1,0,0:0:0:0:
256,192,18209,1,2,0:0:0:0:
256,192,18404,1,2,0:0:0:0:
256,192,18599,1,2,0:0:0:0:
256,192,18794,1,0,0:0:0:0:
256,192,18989,1,2,0:0:0:0:
256,192,19184,1,0,0:0:0:0:
256,192,19282,1,0,0:0:0:0:
256,192,19379,1,2,0:0:0:0:
256,192,19574,1,0,0:0:0:0:
256,192,19671,1,0,0:0:0:0:
256,192,19769,1,2,0:0:0:0:
256,192,19866,1,2,0:0:0:0:
256,192,19964,1,0,0:0:0:0:
256,192,20061,1,0,0:0:0:0:
256,192,20159,1,2,0:0:0:0:
256,192,20256,1,2,0:0:0:0:
256,192,20354,1,0,0:0:0:0:
256,192,20549,1,4,0:0:0:0:
256,192,20744,1,0,0:0:0:0:
256,192,20939,1,2,0:0:0:0:
256,192,21036,1,0,0:0:0:0:
256,192,21134,1,0,0:0:0:0:
256,192,21328,1,2,0:0:0:0:
256,192,21523,1,0,0:0:0:0:
256,192,21718,1,2,0:0:0:0:
256,192,21816,1,0,0:0:0:0:
256,192,22108,1,2,0:0:0:0:
256,192,22206,1,0,0:0:0:0:
256,192,22303,1,0,0:0:0:0:
256,192,22498,1,2,0:0:0:0:
256,192,22693,1,0,0:0:0:0:
256,192,22888,1,2,0:0:0:0:
256,192,22986,1,0,0:0:0:0:
256,192,23180,1,0,0:0:0:0:
256,192,23278,1,2,0:0:0:0:
256,192,23473,1,0,0:0:0:0:
256,192,23668,1,2,0:0:0:0:
256,192,23765,1,0,0:0:0:0:
256,192,23863,1,0,0:0:0:0:
256,192,24058,1,2,0:0:0:0:
256,192,24155,1,0,0:0:0:0:
256,192,24253,1,0,0:0:0:0:
256,192,24448,1,2,0:0:0:0:
256,192,24545,1,0,0:0:0:0:
256,192,24643,1,0,0:0:0:0:
256,192,24837,1,2,0:0:0:0:
256,192,24935,1,0,0:0:0:0:
256,192,25032,1,2,0:0:0:0:
256,192,25227,1,2,0:0:0:0:
256,192,25422,1,0,0:0:0:0:
256,192,25520,1,0,0:0:0:0:
256,192,25617,1,2,0:0:0:0:
256,192,25812,1,0,0:0:0:0:
256,192,26007,1,2,0:0:0:0:
256,192,26202,1,2,0:0:0:0:
256,192,26397,1,2,0:0:0:0:
256,192,26495,1,0,0:0:0:0:
256,192,26592,1,0,0:0:0:0:
256,192,26787,1,2,0:0:0:0:
256,192,27177,1,2,0:0:0:0:
256,192,27372,1,0,0:0:0:0:
256,192,27469,1,0,0:0:0:0:
256,192,27567,1,2,0:0:0:0:
256,192,27762,1,0,0:0:0:0:
256,192,27859,1,0,0:0:0:0:
256,192,27957,1,2,0:0:0:0:
256,192,28152,1,0,0:0:0:0:
256,192,28346,1,2,0:0:0:0:
256,192,28541,1,0,0:0:0:0:
256,192,28736,1,2,0:0:0:0:
256,192,28834,1,0,0:0:0:0:
256,192,28931,1,0,0:0:0:0:
256,192,29126,1,2,0:0:0:0:
256,192,29321,1,2,0:0:0:0:
256,192,29516,1,2,0:0:0:0:
256,192,29614,1,0,0:0:0:0:
256,192,29711,1,2,0:0:0:0:
256,192,29906,1,2,0:0:0:0:
256,192,30101,1,0,0:0:0:0:
256,192,30296,1,2,0:0:0:0:
256,192,30491,1,0,0:0:0:0:
256,192,30686,1,2,0:0:0:0:
256,192,30881,1,0,0:0:0:0:
256,192,31076,1,2,0:0:0:0:
256,192,31173,1,0,0:0:0:0:
256,192,31271,1,2,0:0:0:0:
256,192,31466,1,2,0:0:0:0:
256,192,31531,1,2,0:0:0:0:
256,192,31596,1,2,0:0:0:0:
256,192,31661,1,2,0:0:0:0:
256,192,31855,1,2,0:0:0:0:
256,192,31953,1,0,0:0:0:0:
256,192,32245,1,4,0:0:0:0:
