osu file format v5

[General]
AudioFilename: 09 Horny 98.mp3
AudioLeadIn: 0
PreviewTime: -1
Countdown: 1
SampleSet: Normal
StackLeniency: 0.7
Mode: 0
LetterboxInBreaks: 1
EditorBookmarks: 22838,53973,54095,77539,137001,153118,207330

[Metadata]
Title:Horny 98
Artist:Mousse T
Creator:Metroid
Version:Normal
Source:
Tags:

[Difficulty]
HPDrainRate:3
CircleSize:3
OverallDifficulty:3
SliderMultiplier:1.6
SliderTickRate:2

[Events]
//Background and Video events
0,0,"horny98ca.jpg"
1,-600,"horny98MV.avi"
//Break Periods
2,137234,151710
//Storyboard Layer 0 (Background)
//Storyboard Layer 1 (Failing)
//Storyboard Layer 2 (Passing)
//Storyboard Layer 3 (Foreground)
//Storyboard Sound Samples
//Background Colour Transformations
3,100,163,162,255

[TimingPoints]
4190,488.400488400488,4,1,0,100,1
82301,488.400488400488,4,2,0,100,0
95487,488.400488400488,4,1,0,100,0
137489,488.400488400488,4,2,0,100,0
162885,488.400488400488,4,1,0,100,0

[Colours]
Combo1 : 255,0,0
Combo2 : 0,128,255
Combo3 : 255,255,255
Combo4 : 255,128,255

[HitObjects]
96,48,20063,5,0
256,48,20551,1,0
416,48,21039,1,0
416,208,21528,1,0
336,336,22016,1,0
256,192,22505,1,0
176,336,22993,1,0
96,192,23481,1,4
256,192,23970,5,0
416,208,24458,1,0
400,48,24947,1,0
240,48,25435,1,0
80,80,25923,1,0
80,240,26412,1,0
240,192,26900,1,0
400,176,27389,1,4
400,336,27877,6,0,B|352:352|304:320,2,80
400,256,28610,2,0,B|352:224|304:272,1,80
256,208,29098,1,0
208,272,29342,1,0
128,256,29586,2,0,B|128:144|128:144,2,80
208,272,30319,1,0
272,224,30563,1,0
272,224,30807,2,0,B|317:188|256:128,2,80
192,80,31784,5,0
112,80,32028,1,0
112,160,32273,1,0
192,160,32517,2,0,B|240:160|240:160|240:160|288:112,1,80
336,112,33005,1,0
400,160,33249,1,0
352,224,33494,2,0,B|288:224|256:256,2,80
384,304,34226,1,0
448,256,34470,2,0,B|448:224|448:160,1,80
304,96,35203,1,4
192,224,35691,6,0,B|266:166|352:240,3,160
192,224,37645,2,0,B|225:176|176:64,3,160
336,48,39599,5,2
256,48,39843,1,2
176,48,40087,1,2
96,48,40331,2,2,B|112:112|144:128|176:144|240:144,1,160
288,144,41064,1,2
320,224,41308,2,2,B|256:336|208:320|176:288,1,160
128,272,42041,1,2
64,224,42285,2,2,B|128:192|192:176|224:176,1,160
224,96,43017,1,2
368,160,43506,5,0
320,224,43750,1,0
272,288,43994,1,0
192,256,44238,1,0
224,176,44483,2,0,B|257:146|320:192,1,80,0|4
96,320,45459,5,0
48,256,45704,1,0
48,176,45948,1,0
80,96,46192,1,0
128,160,46436,2,0,B|156:119|160:80,1,80,0|4
400,48,47413,5,0
448,112,47657,1,0
368,128,47901,1,0
288,160,48146,2,0,B|320:208|368:224,1,80
424,196,48634,1,0
400,272,48878,1,0
320,288,49122,1,0
272,224,49367,1,0
192,224,49611,1,0
320,128,50099,5,8
256,272,50588,1,8
192,128,51076,1,8
96,256,51564,5,0
208,144,52053,2,0,B|246:104|304:160,1,80
464,288,53030,2,0,B|464:192,5,80
96,64,55472,5,0
95,224,55960,2,0,B|130:254|168:218,1,80
272,96,56693,1,0
352,64,56937,2,0,B|432:64,5,80
112,304,59379,5,0
112,144,59867,2,0,B|73:181|112:224,1,80
336,240,60844,2,0,B|336:320,5,80
48,48,63286,5,0
96,192,63774,2,0,B|136:227|176:192,1,80
320,192,64507,2,0,B|400:192,6,80
240,192,66216,2,4,B|240:96,1,80
112,192,66949,5,0
224,80,67437,1,0
384,80,67926,1,0
352,240,68414,1,0
208,320,68903,2,0,B|32:320,3,160
80,160,70856,5,0
224,224,71345,1,0
368,160,71833,1,0
224,80,72321,1,0
384,80,72810,2,0,B|384:256,3,160
224,240,74763,6,0,B|320:240,2,80
144,240,75496,2,0,B|144:352,2,80
144,160,76229,2,0,B|48:160,2,80
224,160,76961,2,0,B|224:64,2,80
224,240,77694,2,0,B|336:240,2,80
224,80,78671,6,0,B|224:32,2,40
224,160,79159,2,0,B|320:160|400:208|368:304|208:320,1,320
144,320,80380,2,0,B|144:160,1,160
160,80,81113,2,0,B|64:80,2,80
256,208,82089,1,0
256,208,82334,6,0,B|432:208,3,160
256,208,84287,6,0,B|80:208,3,160
256,208,86241,6,0,B|256:32,3,160
256,208,88194,6,0,B|256:384,3,160
256,208,90148,6,0,B|256:32,3,160
256,192,92102,12,8,96009
208,208,96496,6,8,B|256:336|320:176,3,160
256,48,98450,5,0
96,48,98939,2,0,B|54:79|94:117,1,80
336,112,99915,2,0,B|432:112,5,80
64,320,102358,5,0
64,160,102846,2,0,B|99:130|137:166,1,80
288,160,103579,1,0
368,160,103822,2,0,B|480:160,5,80
64,288,106265,5,0
224,304,106753,2,0,B|256:270|217:233,1,80
448,208,107730,2,0,B|448:128,5,80
80,288,110172,5,0
240,288,110660,2,0,B|192:320|160:288,1,80
160,128,111393,1,0
160,48,111637,2,0,B|256:48,5,80
240,128,113102,2,4,B|144:128,1,80
352,272,114079,5,0
192,272,114568,2,0,B|150:242|190:204,1,80
384,64,115544,2,0,B|480:64,5,80
144,304,117987,5,0
144,144,118475,2,0,B|109:114|71:150,1,80
240,96,119208,1,0
288,32,119451,2,0,B|176:32,5,80
464,336,121894,5,0
464,176,122382,2,0,B|432:210|471:247,1,80
224,272,123358,2,0,B|224:368,5,80
480,48,125801,5,0
479,207,126289,2,0,B|440:173|408:203,1,80
256,272,127022,1,0
176,256,127266,2,0,B|176:368,5,80
176,256,128731,2,4,B|176:144,1,80
256,192,129219,12,0,134592
208,112,135080,6,8,B|256:0|320:128,3,160
256,272,137034,1,4
256,208,153150,6,0,B|64:208,3,160
256,208,155104,6,0,B|256:32,3,160
256,208,157058,6,0,B|448:208,3,160
256,208,159011,6,0,B|256:384,3,160
256,208,160965,6,0,B|128:64,1,160
256,208,161942,6,0,B|400:96,1,160
256,192,162918,12,0,165848
176,208,166336,6,8,B|368:208,3,160
256,64,168291,5,4
112,128,168778,5,0
256,192,169267,2,0,B|304:160|240:112,1,80
48,256,170244,2,0,B|48:352,5,80
432,256,172686,5,0
272,304,173174,2,0,B|236:339|201:309,1,80
96,192,173909,1,0
48,128,174151,2,0,B|48:32,5,80
368,272,176593,5,0
368,112,177081,2,0,B|406:148|374:182,1,80
128,176,178058,2,0,B|32:176,5,80
432,64,180500,5,0
368,208,180988,2,0,B|400:240|443:204,1,80
288,256,181723,1,0
208,256,181965,2,0,B|208:368,5,80
208,256,183430,2,4,B|112:256,1,80
368,256,184407,5,0
368,96,184896,2,0,B|320:128|372:163,1,80
128,160,185872,2,0,B|32:160,5,80
432,288,188315,5,0
368,144,188803,2,0,B|404:173|442:140,1,80,0|0
272,144,189537,1,0
192,144,189780,2,0,B|96:144,5,80
464,320,192222,5,0
304,320,192710,2,0,B|275:284|310:248,1,80
64,256,193687,2,0,B|64:352,5,80
368,80,196129,5,0
208,80,196617,2,0,B|240:50|280:85,1,80
288,240,197352,2,0,B|288:320,6,80
288,160,199059,2,4,B|176:160,1,80
256,208,201257,5,0
256,208,201501,1,0
256,208,201745,1,0
256,208,201990,1,0
256,208,202234,1,0
256,208,202478,1,0
256,208,202722,1,0
256,208,202966,2,4,B|256:288,1,80
256,128,205408,6,8,B|256:288,3,160
256,128,207362,5,4
