osu file format v5

[General]
AudioFilename: 09 Horny 98.mp3
AudioLeadIn: 0
PreviewTime: -1
Countdown: 1
SampleSet: Normal
StackLeniency: 0.7
Mode: 0
LetterboxInBreaks: 1
EditorBookmarks: 22838,53973,54095,77539,137001,153118,207330

[Metadata]
Title:Horny 98
Artist:Mousse T
Creator:Metroid
Version:Insane
Source:
Tags:

[Difficulty]
HPDrainRate:7
CircleSize:6
OverallDifficulty:7
SliderMultiplier:1.6
SliderTickRate:2

[Events]
//Background and Video events
0,0,"horny98ca.jpg"
1,-600,"horny98MV.avi"
//Break Periods
2,137236,152252
//Storyboard Layer 0 (Background)
//Storyboard Layer 1 (Failing)
//Storyboard Layer 2 (Passing)
//Storyboard Layer 3 (Foreground)
//Storyboard Sound Samples
//Background Colour Transformations
3,100,163,162,255

[TimingPoints]
4190,488.400488400488,4,1,0,100,1
82301,488.400488400488,4,2,0,100,0
95487,488.400488400488,4,1,0,100,0
137489,488.400488400488,4,2,0,100,0
162885,488.400488400488,4,1,0,100,0

[Colours]
Combo1 : 255,0,0
Combo2 : 0,128,255
Combo3 : 255,255,255
Combo4 : 255,128,255

[HitObjects]
112,64,20065,5,0
160,144,20309,1,0
208,64,20553,1,0
256,144,20797,1,0
320,64,21041,1,0
384,144,21286,1,0
320,224,21530,1,0
256,288,21774,1,0
208,208,22018,1,0
160,288,22262,1,0
96,208,22507,1,0
160,128,22751,1,0
64,128,22995,1,0
64,320,23483,1,4
64,128,23972,5,0
160,128,24216,1,0
112,208,24460,1,0
192,272,24704,1,0
272,336,24949,1,0
336,256,25193,1,0
416,304,25437,1,0
464,224,25681,1,0
384,176,25925,1,0
304,128,26170,1,0
384,176,26414,1,0
336,256,26658,1,0
240,256,26902,1,0
336,80,27391,1,4
144,32,27879,5,0
176,128,28123,1,0
176,224,28367,1,0
176,320,28612,1,0
272,320,28854,1,0
272,320,29098,2,0,B|352:336|368:304,4,80
272,320,30321,1,0
272,224,30565,1,0
352,224,30809,1,0
352,320,31052,2,0,B|352:336|272:320,1,80
272,144,31786,5,0
176,144,32030,1,0
80,144,32275,2,0,B|48:112|80:64,4,80
80,240,33496,1,0
176,240,33740,1,0
80,240,33984,1,0
176,240,34228,1,0
176,144,34472,2,0,B|145:114|96:144,1,80
288,144,35205,1,4
368,320,35693,5,0
272,320,35938,1,0
368,320,36182,1,0
272,320,36426,1,0
272,224,36670,1,0
176,224,36914,1,4
448,224,37647,1,0
448,128,37891,1,0
368,176,38135,1,0
272,176,38380,1,0
176,176,38624,1,0
80,144,38868,1,4
352,80,39601,5,0
368,176,39845,1,0
336,272,40089,1,2
240,272,40333,2,2,B|192:320|144:256|112:256|64:288,1,160
144,208,41066,1,2
224,160,41310,2,2,B|272:128|352:208|400:144,1,160
320,96,42043,1,2
240,48,42287,2,2,B|208:0|133:103|64:0,1,160
96,128,43019,1,6
224,272,43508,5,0
128,272,43752,1,0
224,272,43996,1,0
320,272,44240,1,0
320,176,44485,2,0,B|279:145|246:175,1,80,0|4
32,352,45461,1,0
32,256,45706,1,0
32,160,45950,1,0
128,160,46194,1,0
128,160,46438,2,0,B|160:192|128:240,1,80,0|4
416,224,47415,5,0
416,128,47659,1,0
320,128,47903,1,0
320,224,48148,1,0
320,224,48392,1,0
224,224,48636,1,0
128,224,48880,1,0
128,128,49124,1,0
224,128,49369,1,0
224,128,49613,1,0
448,48,50101,5,8
256,336,50590,1,8
64,48,51076,1,12
64,240,51566,5,0
224,320,52055,2,0,B|256:272|304:336,1,80
432,80,53032,1,0
432,176,53276,1,0
352,128,53520,1,0
432,80,53764,1,0
432,176,54008,1,0
432,272,54253,1,0
256,48,54983,1,4
112,176,55474,5,0
256,48,55962,2,0,B|291:78|329:42,1,80
256,224,56693,1,0
304,304,56939,1,0
352,224,57183,1,0
256,192,57427,1,0
176,256,57671,1,0
240,336,57916,1,0
240,240,58160,1,0
48,48,58892,1,4
240,48,59381,5,0
240,240,59869,2,0,B|201:277|240:320,1,80
416,96,60846,1,0
320,64,61090,1,0
336,160,61334,1,0
320,64,61578,1,0
240,112,61823,1,0
320,64,62067,1,0
64,192,62798,1,4
208,304,63288,5,0
400,304,63776,2,0,B|440:339|480:304,1,80
352,160,64507,1,0
256,128,64753,1,0
160,112,64997,1,0
240,160,65242,1,0
144,144,65486,1,0
224,192,65730,1,0
128,176,65974,1,0
208,224,66218,2,4,B|96:192,1,80
320,224,66951,5,0
272,304,67195,1,0
192,256,67439,1,0
96,288,67684,1,0
192,256,67928,1,0
192,160,68172,1,0
96,160,68416,1,0
192,160,68660,1,0
208,64,68905,1,0
304,48,69149,1,0
400,64,69393,1,0
416,160,69637,1,0
336,192,69881,1,0
176,288,70370,1,0
80,128,70858,5,0
160,64,71102,1,0
256,48,71347,1,0
224,144,71591,1,0
144,192,71835,1,0
192,272,72079,1,0
272,224,72323,1,0
352,176,72568,1,0
304,96,72812,1,0
256,176,73056,1,0
256,272,73300,1,0
352,272,73544,1,0
352,176,73789,1,0
160,176,74277,1,0
32,32,74765,5,0
48,128,75010,1,0
112,208,75254,1,0
192,256,75498,2,0,B|192:368,4,80
288,256,76719,2,0,B|288:160,4,80
384,256,77940,1,0
288,256,78184,1,0
480,256,78673,5,0
480,256,78795,1,0
480,256,78917,1,0
384,256,79161,1,0
288,240,79405,1,0
208,192,79649,1,0
128,128,79894,1,0
64,48,80138,1,0
160,48,80382,2,0,B|160:224,1,160
160,304,81115,1,0
256,336,81359,1,0
352,320,81603,1,0
256,144,82091,1,0
256,144,82336,5,0
320,320,82824,1,0
400,144,83312,1,0
240,240,83801,1,0
96,112,84289,1,0
96,304,84778,1,0
272,224,85266,1,0
384,80,85754,1,0
192,80,86243,5,0
336,192,86731,1,0
192,80,87220,1,0
192,272,87708,1,0
384,272,88196,1,0
384,80,88685,1,0
224,176,89173,1,0
96,304,89662,1,0
224,176,90150,5,0
368,304,90638,1,0
368,112,91127,1,0
256,256,91615,1,0
256,192,92104,12,8,96011
64,64,96498,5,8
448,64,96986,1,8
448,320,97475,1,8
64,320,97964,1,8
176,176,98452,5,0
368,176,98941,2,0,B|328:138|384:96,1,80
176,304,99918,1,0
272,304,100162,1,0
320,224,100406,1,0
272,144,100650,1,0
320,64,100894,1,0
224,64,101139,1,0
224,336,101871,1,4
80,208,102360,5,0
272,208,102848,2,0,B|304:240|345:202,1,80
144,240,103579,1,0
80,304,103825,1,0
80,208,104069,1,0
160,256,104313,1,0
240,208,104557,1,0
288,128,104802,1,0
240,208,105046,1,0
480,352,105777,1,4
480,160,106267,5,0
288,160,106755,2,0,B|320:126|281:89,1,80
128,320,107732,1,0
224,320,107976,1,0
320,320,108220,1,0
320,224,108464,1,0
320,320,108709,1,0
416,320,108953,1,0
128,320,109685,1,4
128,128,110174,5,0
128,320,110662,2,0,B|96:350|56:315,1,80
48,112,111393,1,0
48,112,111639,1,0
48,112,111883,1,0
144,128,112128,1,0
192,208,112372,1,0
272,256,112616,1,0
320,176,112860,1,0
384,112,113104,2,4,B|432:208,1,80
176,320,114081,5,0
176,128,114570,2,0,B|134:98|174:60,1,80
448,64,115547,1,0
384,128,115791,1,0
448,192,116035,1,0
384,256,116279,1,0
320,192,116523,1,0
384,128,116768,1,0
96,128,117500,1,4
288,128,117989,5,0
480,128,118477,2,0,B|445:98|407:134,1,80
256,240,119208,1,0
176,304,119452,1,0
224,224,119698,1,0
128,208,119942,1,0
224,224,120186,1,0
304,160,120431,1,0
384,224,120675,1,0
144,80,121407,1,4
144,272,121896,5,0
336,272,122384,2,0,B|304:306|343:343,1,80
416,64,123361,1,0
352,128,123605,1,0
288,192,123849,1,0
352,128,124093,1,0
352,224,124338,1,0
352,320,124582,1,0
128,144,125314,1,4
128,336,125802,5,0
128,144,126291,2,0,B|160:114|200:149,1,80
400,160,127022,1,0
480,112,127268,1,0
480,208,127512,1,0
480,304,127757,1,0
384,304,128001,1,0
480,304,128245,1,0
480,208,128489,1,0
480,112,128733,2,4,B|384:176,1,80
256,192,129221,12,0,134594
432,64,135082,5,8
96,64,135570,1,8
96,320,136059,1,8
432,320,136547,1,8
256,208,137034,1,4
144,288,153152,5,0
336,288,153641,1,0
336,96,154129,1,0
160,176,154618,1,0
256,336,155106,1,0
384,208,155594,1,0
192,240,156083,1,0
32,336,156571,1,0
80,160,157060,5,0
256,96,157548,1,0
368,256,158036,1,0
176,256,158525,1,0
320,128,159013,1,0
144,192,159502,1,0
304,288,159990,5,0
112,320,160478,1,0
192,144,160967,1,0
48,256,161455,1,0
240,272,161944,1,0
384,144,162432,1,0
256,192,162920,12,0,165850
80,64,166338,5,8
80,320,166827,1,8
432,320,167316,1,8
432,64,167804,1,8
256,192,168293,1,4
112,64,168780,5,0
112,256,169269,2,0,B|152:218|96:176,1,80
368,64,170246,1,0
352,160,170490,1,0
288,224,170734,1,0
192,240,170978,1,0
96,240,171222,1,0
96,144,171467,1,0
368,144,172199,1,4
256,288,172688,5,0
256,96,173176,2,0,B|224:144|185:101,1,80
32,240,173909,1,0
32,336,174153,1,0
128,336,174397,1,0
192,272,174641,1,0
256,208,174885,1,0
320,272,175130,1,0
384,336,175374,1,0
384,48,176106,1,4
272,208,176595,5,0
80,208,177083,2,0,B|118:244|86:278,1,80
368,272,178060,1,0
416,192,178304,1,0
368,112,178548,1,0
320,192,178792,1,0
368,112,179037,1,0
448,64,179281,1,0
288,288,180014,1,4
112,208,180502,5,0
304,208,180990,2,0,B|339:237|379:204,1,80
240,48,181723,1,0
144,48,181967,1,0
96,128,182211,1,0
144,208,182456,1,0
208,128,182700,1,0
304,128,182944,1,0
304,224,183188,1,0
400,224,183432,2,4,B|320:144,1,80
64,208,184409,5,0
256,208,184898,2,0,B|218:245|260:275,1,80
432,64,185875,1,0
336,64,186119,1,0
336,160,186363,1,0
240,160,186607,1,0
240,256,186851,1,0
144,256,187096,1,0
416,256,187828,1,4
416,64,188317,5,0
224,64,188805,2,0,B|260:93|298:60,1,80,0|0
304,256,189537,1,0
256,336,189782,1,0
208,256,190026,1,0
256,176,190270,1,0
304,256,190514,1,0
400,256,190759,1,0
400,160,191003,1,0
112,160,191735,1,4
256,48,192224,5,0
256,240,192712,2,0,B|227:204|262:168,1,80
48,352,193689,1,0
144,352,193933,1,0
144,256,194177,1,0
240,256,194421,1,0
144,256,194666,1,0
144,160,194910,1,0
416,160,195642,1,4
368,336,196131,5,0
176,336,196619,2,0,B|208:306|248:341,1,80
160,160,197352,1,0
160,64,197596,1,0
96,128,197840,1,0
96,224,198085,1,0
192,224,198329,1,0
144,304,198573,1,0
240,304,198817,1,0
240,208,199061,2,4,B|240:96,1,80
448,336,200038,5,0
256,336,200526,1,0
64,336,201015,1,0
112,256,201259,5,0
208,256,201503,1,0
304,256,201747,1,0
400,256,201992,1,0
336,176,202236,1,0
256,112,202480,1,0
176,176,202724,1,0
256,224,202968,2,4,B|256:304,1,80
64,48,203945,5,0
256,48,204434,1,0
160,208,204922,1,0
256,352,205410,5,8
480,208,205899,1,8
256,32,206387,1,8
32,208,206876,1,8
256,208,207364,1,4
