osu file format v5

[General]
AudioFilename: 09 Horny 98.mp3
AudioLeadIn: 0
PreviewTime: -1
Countdown: 1
SampleSet: Normal
StackLeniency: 0.7
Mode: 0
LetterboxInBreaks: 1
EditorBookmarks: 22838,53973,54095,77539,137001,153118,207330

[Metadata]
Title:Horny 98
Artist:Mousse T
Creator:Metroid
Version:Hard
Source:
Tags:

[Difficulty]
HPDrainRate:5
CircleSize:5
OverallDifficulty:5
SliderMultiplier:1.6
SliderTickRate:2

[Events]
//Background and Video events
0,0,"horny98ca.jpg"
1,-600,"horny98MV.avi"
//Break Periods
2,137236,151952
//Storyboard Layer 0 (Background)
//Storyboard Layer 1 (Failing)
//Storyboard Layer 2 (Passing)
//Storyboard Layer 3 (Foreground)
//Storyboard Sound Samples
//Background Colour Transformations
3,100,163,162,255

[TimingPoints]
4190,488.400488400488,4,1,0,100,1
82301,488.400488400488,4,2,0,100,0
95487,488.400488400488,4,1,0,100,0
137489,488.400488400488,4,2,0,100,0
162885,488.400488400488,4,1,0,100,0

[Colours]
Combo1 : 255,0,0
Combo2 : 0,128,255
Combo3 : 255,255,255
Combo4 : 255,128,255

[HitObjects]
112,64,20065,5,0
208,64,20309,1,0
304,64,20553,1,0
400,64,20797,2,0,B|448:112|400:144,3,80
416,224,21774,1,0
416,320,22018,1,0
320,320,22262,1,0
224,320,22507,1,0
128,320,22751,1,0
128,224,22995,1,0
256,96,23483,1,4
64,96,23972,5,0
64,192,24216,1,0
64,288,24460,1,0
160,288,24704,2,0,B|192:320|240:272,3,80
320,272,25681,1,0
416,272,25925,1,0
400,176,26170,1,0
416,80,26414,1,0
320,80,26658,1,0
224,80,26902,1,0
320,240,27391,1,4
416,80,27879,5,0
400,176,28123,1,0
416,272,28367,1,0
320,272,28612,1,0
224,272,28854,1,0
224,272,29098,2,0,B|176:288|128:272,4,80
224,272,30321,1,0
224,176,30565,1,0
128,176,30809,1,0
224,176,31054,2,0,B|256:216|304:160,1,80
464,64,31786,5,0
464,160,32030,1,0
368,160,32275,2,0,B|336:128|368:80,4,80
288,208,33496,1,0
192,208,33740,1,0
192,112,33984,1,0
288,112,34228,1,0
192,112,34472,2,0,B|161:82|112:112,1,80
112,288,35205,1,4
304,288,35693,6,0,B|332:335|368:288,5,80,0|0|0|0|0|4
128,144,37647,2,0,B|95:96|128:64,5,80,0|0|0|0|0|4
400,128,39601,5,0
400,224,39845,1,0
400,320,40087,1,2
304,320,40333,2,2,B|256:368|208:304|176:304|128:336,1,160
144,224,41066,1,2
144,128,41310,2,2,B|192:96|272:176|320:112,1,160
400,128,42043,1,2
400,224,42287,2,2,B|368:176|293:279|224:176,1,160,2|6
256,112,43019,1,6
256,304,43508,5,0
304,224,43752,1,0
224,176,43996,1,0
288,96,44240,1,0
208,32,44485,2,0,B|241:62|288:32,1,80,0|4
256,320,45461,1,0
224,224,45706,1,0
288,160,45950,1,0
224,80,46194,1,0
320,80,46438,2,0,B|320:128|320:176,1,80,0|4
80,320,47415,6,0,B|128:352|176:304,4,80
144,256,48636,6,0,B|118:226|70:258,4,80
336,256,50101,1,8
256,80,50590,1,8
192,256,51078,1,8
80,112,51566,5,0
272,112,52055,2,0,B|320:112|384:112,1,80
80,112,53032,1,0
80,112,53276,1,0
80,208,53520,1,0
80,208,53764,1,0
176,208,54008,1,0
176,208,54253,1,0
416,80,55474,5,0
416,272,55962,2,0,B|378:308|336:272,1,80
160,272,56693,1,0
64,272,56939,1,0
64,272,57183,1,0
64,176,57427,1,0
64,176,57671,1,0
160,176,57916,1,0
160,176,58160,1,0
416,80,59381,5,0
224,80,59869,2,0,B|185:117|224:160,1,80
448,304,60846,1,0
448,304,61090,1,0
448,208,61334,1,0
448,208,61578,1,0
352,208,61823,1,0
352,208,62067,1,0
112,80,63288,5,0
112,272,63776,2,0,B|152:307|192:272,1,80
304,128,64507,1,0
368,64,64753,1,0
368,64,64997,1,0
368,160,65242,1,0
368,160,65486,1,0
272,160,65730,1,0
272,160,65974,1,0
272,256,66218,2,4,B|160:256,1,80
96,96,66951,5,0
96,192,67195,1,0
96,288,67439,1,0
192,288,67684,1,0
192,192,67928,1,0
192,96,68172,1,0
288,96,68416,1,0
288,192,68660,1,0
288,288,68905,1,0
384,288,69149,1,0
384,192,69393,1,0
384,96,69637,1,0
288,96,69881,1,0
96,96,70370,1,0
288,96,70858,5,0
384,96,71102,1,0
384,192,71347,1,0
384,288,71591,1,0
288,288,71835,1,0
288,192,72079,1,0
288,96,72323,1,0
192,96,72568,1,0
192,192,72812,1,0
192,288,73056,1,0
96,288,73300,1,0
96,192,73544,1,0
96,96,73789,1,0
288,96,74277,1,0
256,272,74765,5,0
208,192,75010,1,0
304,192,75254,1,0
256,112,75498,2,0,B|256:224,4,80
256,192,76719,2,0,B|256:288,4,80,0|0|0|0|0
208,112,77940,1,0
304,112,78184,1,0
384,288,78673,6,0,B|432:288,2,40
256,288,79161,1,0
160,288,79405,1,0
64,288,79649,1,0
64,192,79894,1,0
64,96,80138,1,0
160,96,80382,2,0,B|160:272,1,160
256,256,81115,1,0
256,160,81359,1,0
336,112,81603,1,0
400,288,82091,1,0
480,320,82336,6,0,B|480:240,1,80,0|0
432,320,82824,2,0,B|432:240,1,80,0|0
384,320,83312,2,0,B|384:240,1,80,0|0
336,320,83801,2,0,B|336:240,1,80
288,320,84289,2,0,B|288:240,1,80,0|0
240,320,84778,2,0,B|240:240,1,80,0|0
192,320,85266,2,0,B|192:240,1,80
144,320,85754,2,0,B|144:240,1,80,0|0
96,320,86243,2,0,B|96:240,1,80,0|0
48,320,86731,2,0,B|48:208,1,80
48,144,87220,6,0,B|48:224,1,80,0|0
96,144,87708,2,0,B|96:224,1,80,0|0
144,144,88196,2,0,B|144:224,1,80,0|0
192,144,88685,2,0,B|192:224,1,80
240,144,89173,2,0,B|240:224,1,80,0|0
288,144,89662,2,0,B|288:224,1,80,0|0
336,144,90150,2,0,B|336:224,1,80
384,144,90638,2,0,B|384:224,1,80,0|0
432,144,91127,2,0,B|432:224,1,80,0|0
480,144,91615,2,0,B|480:256,1,80
256,192,92104,12,8,96011
160,96,96498,5,8
352,96,96986,1,8
352,288,97475,1,8
160,288,97964,1,8
256,128,98452,5,0
258,235,98941,2,0,B|216:266|256:304,1,80
464,112,99918,1,0
464,112,100162,1,0
416,192,100406,1,0
416,192,100650,1,0
368,112,100894,1,0
368,112,101139,1,0
80,64,102360,5,0
80,256,102848,2,0,B|115:286|153:250,1,80
336,240,103579,1,0
432,240,103825,1,0
432,240,104069,1,0
432,144,104313,1,0
432,144,104557,1,0
352,192,104802,1,0
352,192,105046,1,0
96,304,106267,5,0
288,304,106755,2,0,B|320:270|281:233,1,80
64,64,107732,1,0
64,64,107976,1,0
160,64,108220,1,0
160,64,108464,1,0
112,128,108709,1,0
112,128,108953,1,0
400,320,110174,5,0
208,320,110662,2,0,B|176:350|136:315,1,80
224,144,111393,1,0
224,48,111639,1,0
224,48,111883,1,0
224,144,112128,1,0
224,144,112372,1,0
304,96,112616,1,0
304,96,112860,1,0
304,96,113104,2,4,B|304:208,1,80
64,320,114081,5,0
64,128,114570,2,0,B|22:98|62:60,1,80
336,112,115547,1,0
336,112,115791,1,0
240,112,116035,1,0
240,112,116279,1,0
336,112,116523,1,0
336,112,116768,1,0
416,320,117989,5,0
416,128,118477,2,0,B|384:80|343:134,1,80
192,224,119208,1,0
112,288,119454,1,0
112,288,119698,1,0
208,288,119942,1,0
208,288,120186,1,0
112,288,120431,1,0
112,288,120675,1,0
448,48,121896,5,0
256,48,122384,2,0,B|224:82|263:119,1,80
208,320,123361,1,0
128,272,123605,1,0
224,256,123849,1,0
144,208,124093,1,0
240,192,124338,1,0
160,144,124582,1,0
112,304,125803,5,0
112,112,126291,2,0,B|144:82|184:117,1,80
368,64,127022,1,0
464,64,127268,1,0
384,112,127512,1,0
304,160,127757,1,0
304,64,128001,1,0
384,112,128245,1,0
464,160,128489,1,0
384,208,128733,2,4,B|384:96,1,80
256,192,129221,12,0,134594
80,320,135082,5,8
416,320,135570,1,8
416,64,136059,1,8
80,64,136547,1,8
256,208,137036,1,4
32,64,153152,6,0,B|32:144,1,80,0|0
80,64,153640,2,0,B|80:144,1,80,0|0
128,64,154128,2,0,B|128:144,1,80,0|0
176,64,154617,2,0,B|176:144,1,80
224,64,155105,2,0,B|224:144,1,80,0|0
272,64,155594,2,0,B|272:144,1,80,0|0
320,64,156082,2,0,B|320:144,1,80
368,64,156570,2,0,B|368:144,1,80,0|0
416,64,157059,2,0,B|416:144,1,80,0|0
464,64,157547,2,0,B|464:176,1,80
464,240,158036,6,0,B|464:160,1,80,0|0
416,240,158524,2,0,B|416:160,1,80,0|0
368,240,159012,2,0,B|368:160,1,80,0|0
320,240,159501,2,0,B|320:160,1,80
272,240,159989,2,0,B|272:160,1,80,0|0
224,240,160478,2,0,B|224:160,1,80,0|0
176,240,160966,2,0,B|176:160,1,80
128,240,161454,2,0,B|128:160,1,80,0|0
80,240,161943,2,0,B|80:160,1,80,0|0
32,240,162431,2,0,B|32:128,1,80
256,192,162920,12,0,165850
352,304,166338,5,8
352,112,166827,1,8
160,112,167316,1,8
160,304,167804,1,8
256,144,168293,5,4
80,192,168780,5,0
272,192,169269,2,0,B|312:154|256:112,1,80
256,272,170246,1,0
256,176,170490,1,0
288,272,170734,1,0
288,176,170978,1,0
320,272,171222,1,0
320,176,171467,1,0
400,80,172688,5,0
400,272,173176,2,0,B|364:307|329:277,1,80
144,240,173909,1,0
48,240,174153,1,0
144,208,174397,1,0
48,208,174641,1,0
144,176,174885,1,0
48,176,175130,1,0
144,144,175374,1,0
96,64,176595,5,0
288,64,177083,2,0,B|326:100|294:134,1,80
80,304,178060,1,0
144,240,178304,1,0
208,176,178548,1,0
288,240,178792,1,0
368,304,179037,1,0
432,224,179281,1,0
80,64,180502,5,0
80,256,180990,2,0,B|115:285|155:252,1,80
304,128,181723,1,0
400,128,181967,1,0
400,224,182211,1,0
304,224,182456,1,0
304,128,182700,1,0
400,128,182944,1,0
400,224,183188,1,0
304,224,183432,2,4,B|208:224,1,80
448,32,184409,5,0
256,32,184898,2,0,B|218:69|260:99,1,80
256,272,185875,1,0
160,272,186119,1,0
256,272,186363,1,0
352,272,186607,1,0
448,272,186851,1,0
448,176,187096,1,0
64,224,188317,5,0
256,224,188805,2,0,B|292:253|256:160,1,80,0|0
144,32,189537,1,0
48,32,189782,1,0
48,128,190026,1,0
48,224,190270,1,0
144,224,190514,1,0
144,128,190759,1,0
144,32,191003,1,0
448,320,192224,5,0
256,320,192712,2,0,B|227:284|262:248,1,80
80,64,193689,1,0
176,64,193933,1,0
272,64,194177,1,0
368,64,194421,1,0
320,144,194666,1,0
320,240,194910,1,0
96,304,196131,5,0
96,112,196619,2,0,B|128:82|168:117,1,80
304,224,197352,1,0
384,272,197596,1,0
384,176,197840,1,0
304,224,198085,1,0
304,128,198329,1,0
224,176,198573,1,0
224,80,198817,1,0
144,128,199061,2,4,B|144:16,1,80
256,208,201259,5,0
336,160,201503,1,0
336,256,201747,1,0
256,304,201992,1,0
176,256,202236,1,0
176,160,202480,1,0
256,96,202724,1,0
256,96,202968,2,4,B|256:176,1,80
256,96,205410,5,8
112,208,205899,1,8
256,320,206387,1,8
400,208,206876,1,8
256,96,207364,1,4
