osu file format v5

[General]
AudioFilename: Tales Marathon.mp3
AudioLeadIn: 1996
PreviewTime: 0
Countdown: 0
SampleSet: Normal
StackLeniency: 0.7
Mode: 0
LetterboxInBreaks: 1

[Editor]
DistanceSpacing: 1.20000004768372
BeatDivisor: 1
GridSize: 16

[Metadata]
Title:Tales of Series Marathon
Artist:Motoi Sakuraba
Creator:supergarlic
Version:Battle of Time [happy30]
Source:
Tags:

[Difficulty]
HPDrainRate:0
CircleSize:4
OverallDifficulty:6
SliderMultiplier:1.4
SliderTickRate:0.5

[Events]
//Background and Video events
0,0,"tales of.jpeg"
//Break Periods
//Storyboard Layer 0 (Background)
Sprite,Background,Centre,"backgrounds\ToR.jpg",300,240 F,0,39,111705,1 S,0,39,111705,0.75 F,0,111705,111706,0
Sprite,Background,Centre,"backgrounds\ToE.png",300,240 F,0,111705,187843,1 S,0,111705,187843,0.75
Sprite,Background,Centre,"backgrounds\Tos.png",300,240 F,0,187843,284904,1 S,0,187843,284904,0.7
Sprite,Background,Centre,"backgrounds\ToWRM.jpg",300,325 F,0,284904,390054,1 S,0,284904,390054,0.7
Sprite,Background,Centre,"backgrounds\ToT.png",325,240 F,0,390054,491828,1 S,0,390054,491828,0.8
Sprite,Background,Centre,"backgrounds\ToA.png",325,240 F,0,491828,596888,1 S,0,491828,596888,0.8
Sprite,Background,Centre,"backgrounds\ToS2.jpg",300,240 F,0,596888,730084,1 S,0,596888,730084,0.75
Sprite,Background,Centre,"backgrounds\ToV.png",300,240 F,0,730084,798750,1 S,0,730084,798750,0.75
//Storyboard Layer 1 (Fail)
//Storyboard Layer 2 (Pass)
//Storyboard Layer 3 (Foreground)
Sprite,Foreground,Centre,"names\lesjuh.png",420,360 F,0,39,100000,0.25 M,0,39,105990,420,360,0,360 F,0,100000,105990,0.25,0
Sprite,Foreground,Centre,"names\lesjuh.png",420,360 F,0,39,105990,1 F,0,105990,108000,1,0
Sprite,Foreground,Centre,"names\happy30.png",420,360 F,0,111705,182580,0.25 M,0,111705,183500,420,360,0,360 F,0,182580,183500,0.25,0
Sprite,Foreground,Centre,"names\happy30.png",420,360 F,0,111705,182580,1 F,0,182580,183500,1,0
Sprite,Foreground,Centre,"names\dangaard.png",420,360 F,0,187843,278354,0.25 M,0,187843,280570,420,360,0,360 F,0,278354,280570,0.25,0
Sprite,Foreground,Centre,"names\dangaard.png",420,360 F,0,187843,278354,1 F,0,278354,284000,1,0
Sprite,Foreground,Centre,"names\wojjan.png",400,360 F,0,284904,376536,0.25 M,0,284904,379801,400,360,0,360 F,0,376536,379801,0.25,0
Sprite,Foreground,Centre,"names\wojjan.png",400,360 F,0,284904,278354,1 F,0,386128,390000,1,0
Sprite,Foreground,Centre,"names\supergarlic-2.png",400,360 F,0,390054,485536,0.25 M,0,390054,488116,400,360,0,360 F,0,485536,488116,0.25,0
Sprite,Foreground,Centre,"names\supergarlic-2.png",400,360 F,0,390054,,0,1 F,0,485536,488116,1,0
Sprite,Foreground,Centre,"names\starrodkirby86.png",330,360 F,0,491828,591110,0.25 F,0,591110,595000,0.25,0 M,0,491828,596888,330,360,0,360
Sprite,Foreground,Centre,"names\starrodkirby86.png",330,360 F,0,491828,591110,1 F,0,591110,595000,1,0
Sprite,Foreground,Centre,"names\gabi.png",420,360 F,0,596888,720000,1 F,0,720000,725730,1,0
Sprite,Foreground,Centre,"names\gabi.png",420,360 F,0,596888,720000,0.25 F,0,720000,725730,0.25,0 M,0,596888,730084,330,360,0,360
Sprite,Foreground,Centre,"names\ignorethis.png",420,360 F,0,730084,795750,1 F,0,795750,798750,1,0
Sprite,Foreground,Centre,"names\ignorethis.png",420,360 F,0,730084,795750,0.25 M,0,730084,798750,330,360,0,360 F,0,795750,798750,0.25,0
Sprite,Foreground,Centre,"white.png",320,240 L,39,1 F,1,0,380,1,0 L,111705,1 F,1,0,500,1,0 L,187843,1 F,1,0,341,1,0 L,284904,1 F,1,0,408,1,0 L,390054,1 F,1,0,323,1,0 L,491828,1 F,1,0,331,1,0 L,596888,1 F,1,0,316,1,0 L,730084,1 F,1,0,333,1,0 L,798750,1 F,1,0,333,1,0
//Storyboard Sound Samples
//Background Colour Transformations
3,100,163,162,255

[TimingPoints]
416,379.746835443038,4,1,0,70,1,0
6112,-100,4,1,0,49,0,0
11333,-100,4,1,0,69,0,0
21017,-100,4,1,0,50,0,0
26808,-100,4,1,0,80,0,0
27330,-100,4,1,0,70,0,0
97251,-100,4,1,0,60,0,0
98770,-100,4,1,0,50,0,0
111705,500,4,1,0,70,1,0
135955,-100,4,2,0,70,0,0
151955,-100,4,1,0,70,0,0
180955,-100,4,1,0,44,0,0
181955,-100,4,1,0,25,0,0
187843,340.909090909091,4,1,0,70,1,0
187843,340.909090909091,4,1,0,70,1,0
253297,-100,4,1,0,70,0,1
264036,-100,4,1,0,70,0,0
264206,-200,4,1,0,70,0,0
272388,-100,4,1,0,70,0,0
272644,-100,4,1,0,40,0,0
273325,-100,4,1,0,50,0,0
273666,-100,4,1,0,60,0,0
274348,-100,4,1,0,70,0,0
275115,-100,4,1,0,70,0,1
277075,-100,4,1,0,60,0,1
277416,-100,4,1,0,50,0,1
277757,-100,4,1,0,40,0,1
277843,-100,4,1,0,40,0,0
278269,-100,4,1,0,15,0,0
280570,-100,4,1,0,15,0,1
280655,-100,4,1,0,70,0,0
284904,408.163265306122,4,1,0,70,1,0
287352,-200,4,1,0,68,0,0
287761,-100,4,1,0,69,0,0
296128,-100,4,2,0,68,0,0
297148,-100,4,1,0,69,0,0
297352,-100,4,2,0,69,0,0
297761,-100,4,1,0,69,0,0
300006,-100,4,2,0,69,0,0
301230,-100,4,1,0,71,0,0
303271,-100,4,2,0,69,0,0
304495,-100,4,1,0,68,0,0
313475,-200,4,1,0,72,0,0
313883,-100,4,1,0,69,0,0
316026,-100,4,2,0,71,0,0
317352,-100,4,1,0,69,0,0
320006,-200,4,1,0,69,0,0
320822,-100,4,1,0,71,0,0
336740,-100,4,1,0,100,0,1
380210,-100,4,1,0,100,0,0
390054,322.58064516129,4,1,0,70,1,0
428441,-100,4,1,0,0,0,0
428763,-100,4,1,0,73,0,0
452956,1290.32258064516,4,1,0,71,1,0
454246,322.58064516129,4,1,0,71,1,0
487955,-100,4,1,0,0,0,0
491828,330.943188086045,4,1,0,70,1,0
586808,-100,4,1,0,50,0,0
588463,-100,4,1,0,30,0,0
590035,-100,4,1,0,34,0,0
596888,315.789473684211,4,1,0,71,1,0
633835,-100,4,1,0,60,0,0
634151,-100,4,1,0,50,0,0
634466,-100,4,1,0,70,0,0
724782,-100,4,1,0,54,0,0
725414,-100,4,1,0,38,0,0
730084,333.333333333333,4,1,0,70,1,0
730750,-100,4,1,0,70,0,0
751750,-200,4,1,0,70,0,0
752750,-100,4,1,0,70,0,0
805417,-100,4,1,0,50,0,0
808083,-100,4,1,0,30,0,0

[Colours]
Combo1 : 240,187,45
Combo2 : 202,191,221
Combo3 : 47,44,65
Combo4 : 37,69,190

[HitObjects]
352,72,111705,5,2
384,104,111830,1,2
384,152,111955,2,0,B|392:208|312:256,1,105,8|0
256,168,112580,2,0,B|216:128,1,35,2|2
136,192,112955,2,0,B|128:248|208:296,1,105,8|0
264,344,113580,6,0,B|304:304,1,35,2|2
392,312,113955,2,0,B|400:256|320:208,1,105,8|8
344,224,114580,1,2
344,224,114705,2,0,B|256:224,1,70,2|8
274,224,115080,1,0
184,216,115330,1,0
88,264,115580,6,0,B|64:216,1,35,2|2
56,184,115830,2,0,B|112:184,2,35,0|8|0
128,104,116330,2,0,B|216:104,1,70,0|2
198,104,116705,1,2
208,208,116955,2,0,B|280:208,1,70,8|2
288,192,117330,1,10
376,232,117580,6,0,B|400:192,1,35,2|2
416,152,117830,2,0,B|360:152,2,35,0|8|0
440,104,118205,2,0,B|440:64,1,35,2|2
336,64,118580,1,2
336,64,118705,2,0,B|256:64,1,70,2|8
266,64,119080,1,0
160,64,119330,5,10
160,64,119455,2,0,B|96:136|160:224,1,140,2|8
200,280,120205,2,0,B|248:280,1,35
336,312,120580,2,0,B|288:312,1,35,2|2
360,184,120955,2,0,B|384:104,1,70,8|2
328,112,121330,2,0,B|304:192,1,70,10|2
272,144,121705,1,2
208,248,121955,6,0,B|192:280,1,35,10|2
184,224,122205,2,0,B|152:240,1,35,2|0
168,192,122455,2,0,B|120:192,1,35,10|2
168,160,122705,2,0,B|136:136,1,35,2|0
304,136,122955,6,0,B|320:104,1,35,10|0
328,160,123205,2,0,B|360:144,1,35,2|10
344,192,123455,2,0,B|392:192,1,35,2|8
344,224,123705,2,0,B|376:248,1,35,10|10
368,296,123955,6,0,B|320:336|256:304,1,105,8|0
184,248,124580,2,0,B|144:248,2,35,2|2|0
216,200,124955,2,0,B|288:248|328:200,1,105,8|0
400,160,125580,5,2
400,160,125705,1,2
352,64,125955,2,0,B|280:112|240:64,1,105,8|8
80,128,126705,2,0,B|120:224,1,70,0|10
106,192,127080,1,2
152,280,127330,1,8
208,368,127580,5,2
208,368,127705,1,2
208,368,127830,1,0
208,368,127955,2,0,B|288:368|296:296,1,105,8|0
280,208,128580,1,2
280,208,128705,1,2
248,104,128955,2,0,B|208:64|104:96,1,140,8|2
114,92,129580,1,2
96,192,129830,5,2
96,192,129955,2,0,B|120:248,1,35,10|0
160,320,130330,1,8
256,216,130705,1,0
320,296,130955,1,10
320,296,131080,1,2
400,232,131330,1,0
400,232,131455,2,0,B|424:184|416:144,2,70,0|0|10
328,152,132205,5,2
328,152,132330,1,10
232,112,132580,1,2
232,112,132705,1,2
136,144,132955,1,8
80,288,133330,1,8
232,248,133705,1,0
192,344,133955,6,0,B|304:352|352:320|392:264|400:224|384:176,1,280,4|2
112,48,135705,5,0
112,48,135830,1,0
160,64,135955,5,2
192,64,136080,1,0
224,64,136205,1,0
256,64,136330,1,0
288,64,136455,2,0,B|320:128|288:128|320:176,1,105,2|0
312,200,136955,5,2
280,200,137080,1,0
248,200,137205,1,0
216,200,137330,1,0
184,200,137455,2,0,B|152:264|184:264|152:312,1,105,2|0
160,336,137955,5,2
192,336,138080,1,0
224,336,138205,1,0
256,336,138330,1,0
288,336,138455,2,0,B|336:336,3,35,2|0|2|0
360,336,138955,5,2
392,336,139080,1,0
424,336,139205,1,2
456,336,139330,1,0
488,336,139455,2,0,B|488:288,3,35,2|0|2|0
488,264,139955,5,2
472,232,140080,1,0
448,208,140205,1,0
416,192,140330,1,0
392,216,140455,1,2
360,232,140580,1,0
328,232,140705,1,0
296,216,140830,1,0
288,184,140955,5,2
264,160,141080,1,0
232,144,141205,1,0
200,144,141330,1,0
184,176,141455,1,2
152,184,141580,1,0
120,176,141705,1,0
96,152,141830,1,0
80,120,141955,6,0,B|72:72,3,35,2|0|2|0
136,96,142455,2,0,B|144:48,3,35,2|0|2|0
192,88,142955,2,0,B|224:56,3,35,2|0|2|0
248,120,143455,2,0,B|288:112,3,35,2|0|2|0
312,104,143955,5,2
328,128,144080,1,0
352,152,144205,1,2
368,176,144330,1,0
392,200,144455,2,0,B|280:200,1,105,2|0
248,208,144955,5,2
264,232,145080,1,0
288,256,145205,1,2
304,280,145330,1,0
328,304,145455,2,0,B|216:304,1,105,2|0
184,304,145955,5,2
200,280,146080,1,0
224,256,146205,1,2
240,232,146330,1,0
264,208,146455,2,0,B|152:208,1,105,2|0
120,200,146955,5,2
136,176,147080,1,0
160,152,147205,1,2
176,128,147330,1,0
200,96,147455,2,0,B|64:96,1,105,2|0
56,96,147955,5,2
24,192,148205,1,2
80,280,148455,1,2
184,288,148705,1,2
452,240,148955,5,2
488,144,149205,1,2
432,56,149455,1,2
328,48,149705,1,2
224,80,149955,5,2
256,120,150080,1,2
288,160,150205,1,2
320,200,150330,1,2
272,224,150455,1,2
304,264,150580,1,2
336,304,150705,1,2
368,344,150830,1,2
320,368,150955,6,2,B|280:368,7,35
232,368,151955,5,4
40,160,152455,1,2
256,336,152955,1,0
192,64,153455,1,2
304,320,153955,5,0
336,184,154205,1,0
432,280,154455,1,2
480,152,154705,1,0
480,152,154830,1,2
432,280,155080,1,0
432,280,155205,1,2
336,160,155455,1,2
184,248,155705,1,2
280,368,155955,5,4
472,160,156455,1,2
256,336,156955,1,0
320,64,157455,1,2
208,320,157955,5,0
176,184,158205,1,0
80,280,158455,1,2
32,152,158705,1,0
32,152,158830,1,2
80,280,159080,1,0
80,280,159205,1,2
176,160,159455,1,2
312,120,159705,1,2
432,192,159955,5,6
432,192,160080,1,2
344,304,160330,1,0
344,304,160455,1,2
344,304,160580,1,2
208,272,160830,1,2
208,272,160955,1,0
208,272,161080,1,0
208,272,161205,5,2
208,272,161330,1,2
72,320,161580,1,0
72,320,161705,1,2
72,320,161830,1,2
136,192,162080,1,2
136,192,162205,1,0
136,192,162330,1,0
136,192,162455,5,2
136,192,162580,1,2
72,64,162830,1,0
72,64,162955,1,2
72,64,163080,1,2
208,112,163330,1,2
208,112,163455,1,0
208,112,163580,1,0
208,112,163705,5,2
208,112,163830,1,2
344,80,164080,1,0
344,80,164205,1,2
344,80,164330,1,2
264,264,164580,5,2
240,288,164705,1,0
216,312,164830,1,0
192,336,164955,5,2
168,360,165080,1,2
152,216,165330,1,0
128,240,165455,1,2
104,264,165580,1,2
176,80,165830,5,2
200,104,165955,1,0
224,128,166080,1,0
248,152,166205,5,2
272,176,166330,1,2
288,32,166580,1,0
312,56,166705,1,2
336,80,166830,1,2
240,248,167080,5,2
264,272,167205,1,0
288,296,167330,1,0
312,320,167455,5,2
336,344,167580,1,2
352,200,167830,1,0
376,224,167955,1,2
400,248,168080,1,2
256,168,168330,5,2
232,144,168455,1,0
208,120,168580,1,0
184,96,168705,5,2
160,72,168830,1,2
144,216,169080,1,0
120,192,169205,1,2
96,168,169330,1,2
56,304,169580,5,2
56,304,169705,1,0
56,304,169830,1,2
56,304,169955,2,0,B|120:344|168:312,1,105,2|0
296,320,170580,1,2
408,240,170830,5,2
408,240,170955,1,0
408,240,171080,1,2
408,240,171205,2,0,B|352:256|296:232,1,105,2|0
160,240,171830,1,2
72,128,172080,5,2
72,128,172205,1,0
72,128,172330,1,2
72,128,172455,2,0,B|128:144|184:120,1,105,2|0
320,128,173080,1,2
360,24,173330,5,2
360,24,173455,1,0
360,24,173580,1,2
360,24,173705,2,0,B|304:40|248:16,1,105,2|0
112,24,174330,1,2
208,136,174580,5,2
192,168,174705,1,0
176,200,174830,1,2
160,232,174955,2,0,B|232:296|272:280|312:256|344:240,1,175,2|2
456,264,175830,5,2
456,232,175955,1,0
456,200,176080,1,2
456,168,176205,2,0,B|384:104|344:120|304:144|272:160,1,175,0|2
192,48,177080,5,2
208,80,177205,1,0
184,112,177330,1,2
200,144,177455,2,0,B|128:208|88:192|48:168|16:152,1,175,2|2
88,296,178330,5,2
120,312,178455,1,0
152,312,178580,1,2
184,320,178705,2,0,B|256:256|296:272|336:296|368:312,1,175,2|2
288,80,179580,5,2
288,80,179705,1,0
288,80,179830,1,2
288,80,179955,2,0,B|200:80,1,70,2|0
168,72,180330,2,0,B|208:144,1,70
224,176,180705,2,0,B|176:176,1,35,2|2
136,176,180955,2,0,B|176:248,1,70
200,280,181330,2,0,B|280:280,1,70
312,312,181705,6,0,B|352:312,1,35,2|2
384,272,181955,2,0,B|440:200,1,70
400,168,182330,2,0,B|400:88,1,70
352,72,182705,2,0,B|304:32,2,35,2|2|0
