osu file format v5

[General]
AudioFilename: 010. Sparks Scattering.mp3
AudioLeadIn: 0
PreviewTime: -1
Countdown: 1
SampleSet: Normal
StackLeniency: 0.7
Mode: 0
LetterboxInBreaks: 1

[Metadata]
Title:Sparks Scattering
Artist:Motoi Sakuraba
Creator:Potasaur
Version:Normal
Source:
Tags:

[Difficulty]
HPDrainRate:8
CircleSize:7
OverallDifficulty:5
SliderMultiplier:1.4
SliderTickRate:1

[Events]
//Background and Video events
0,0,"Tales of Vesperia 2.jpg"
//Break Periods
//Storyboard Layer 0 (Background)
//Storyboard Layer 1 (Failing)
//Storyboard Layer 2 (Passing)
//Storyboard Layer 3 (Foreground)
//Storyboard Sound Samples
//Background Colour Transformations
3,100,0,0,0

[TimingPoints]
3640,386.922035209905,4,1,0,100

[HitObjects]
96,64,3640,2,0,B|256:64,3,140
288,64,5187,2,0,B|448:64,3,140
224,128,6735,5,0
288,128,7122,1,0
224,192,7509,1,0
288,192,7896,1,0
224,128,8283,1,0
288,128,8670,1,0
224,192,9057,1,0
288,192,9444,1,0
224,256,9831,2,0,B|384:256,3,140
384,320,11378,2,0,B|224:320,3,140
256,256,12926,1,0
256,192,13700,1,0
256,128,14474,1,0
256,64,15247,1,0
320,64,16021,5,0
352,64,16215,1,0
384,64,16408,1,0
416,64,16602,1,0
448,128,16989,2,0,B|448:160|448:192|416:256|384:256,1,140
352,256,17762,1,0
320,256,17956,1,0
288,256,18149,1,0
224,256,19116,2,0,B|192:256|160:224,3,70
128,192,20084,1,0
128,128,20471,1,0
128,64,20858,2,0,B|160:32|192:32,1,70
256,32,22212,5,0
320,32,22599,2,0,B|352:32|384:64,1,70
384,128,23373,1,0
384,192,23759,2,0,B|384:232|320:256,1,70
288,224,24534,1,0
256,256,24727,1,0
224,224,24920,1,0
192,256,25114,1,0
160,224,25307,1,0
128,256,25694,2,0,B|96:256|64:224,1,70
64,160,28403,5,0
64,128,28596,1,0
96,96,28789,1,0
128,96,28983,1,0
192,96,29370,1,0
256,96,29757,1,0
320,96,30144,2,0,B|352:96|384:128,2,70
384,160,31401,2,0,B|384:192|352:256,3,70
320,256,32465,1,0
256,256,32852,1,0
192,256,33239,2,0,B|96:256,1,70
64,224,34593,1,0
64,160,34980,2,0,B|64:128|96:96,1,70
128,64,35561,1,0
192,64,35947,1,0
256,64,36915,2,0,B|256:96|288:128,1,70
320,64,37495,2,0,B|320:96|352:128,1,70
416,128,38076,1,0
416,192,39623,6,0,B|416:224|384:288|320:288,3,140
288,320,40977,2,0,B|256:352|224:320,3,70
160,320,42138,1,0
96,288,42525,2,0,B|64:256|64:224,3,70
64,160,43686,1,0
96,96,44266,1,0
160,64,44653,1,0
224,64,45040,2,0,B|256:128,1,70
288,64,45621,2,0,B|320:128,1,70
352,160,46781,2,0,B|384:192|352:256,1,70
320,288,47362,2,0,B|288:320|256:288,1,70
192,288,48329,2,0,B|160:288|128:256,1,70
128,192,48909,2,0,B|128:160|160:96,1,70
192,96,49490,1,0
256,96,50070,1,0
256,160,50651,1,0
256,224,51231,1,0
224,160,52392,2,0,B|256:128|288:160,1,70
352,192,53166,5,0
320,256,53746,1,0
288,320,54326,1,0
256,320,54713,1,0
192,320,55294,1,0
128,320,55874,2,0,B|96:320|64:288,2,70
160,256,56648,2,0,B|160:224|128:192,1,70
96,160,57228,1,0
96,96,57615,1,0
128,64,59163,2,0,B|160:32|224:32,1,70
256,32,59937,1,0
320,64,60711,2,0,B|384:64,2,35
320,96,61097,1,0
320,160,61484,1,0
384,192,62452,2,0,B|384:224|352:256|256:256,3,140
192,256,63999,2,0,B|160:256|128:224,2,70
128,160,64773,5,0
128,128,64967,1,0
160,64,65354,2,0,B|192:32|256:0|320:32|352:64|384:96|384:160,1,280
384,192,66708,1,0
384,256,67095,1,0
352,320,67675,1,0
288,352,68255,2,0,B|256:384|224:352,2,70
288,288,69029,1,0
256,256,69416,2,0,B|224:224|192:224,1,70
128,224,69997,1,0
128,160,71738,2,0,B|128:128|160:64|192:64,2,105
192,160,72512,2,0,B|192:192|224:256|256:256,2,105
256,160,73285,2,0,B|256:128|288:64|320:64,2,105
320,160,74059,2,0,B|320:192|352:256|384:256,2,105
384,160,74833,1,0
192,96,76187,6,0,B|192:192,1,70
256,96,76768,1,0
320,96,77155,2,0,B|320:128|320:192,1,70
256,160,77735,1,0
