osu file format v5

[General]
AudioFilename: Motoi Sakuraba - Sparks Scattering.mp3
AudioLeadIn: 0
PreviewTime: -1
Countdown: 1
SampleSet: Normal
StackLeniency: 0.7
Mode: 0
LetterboxInBreaks: 1

[Metadata]
Title:Sparks Scattering
Artist:Motoi Sakuraba
Creator:Hara
Version:Normal
Source:
Tags:

[Difficulty]
HPDrainRate:8
CircleSize:6
OverallDifficulty:5
SliderMultiplier:1.4
SliderTickRate:1

[Events]
//Background and Video events
0,0,"Tales of Vesperia.jpg"
//Break Periods
//Storyboard Layer 0 (Background)
//Storyboard Layer 1 (Failing)
//Storyboard Layer 2 (Passing)
//Storyboard Layer 3 (Foreground)
//Storyboard Sound Samples
//Background Colour Transformations
3,100,163,162,255

[TimingPoints]
3598,387.096774193548,4,1,0,100,1

[HitObjects]
80,64,3597,2,0,B|240:64,3,140,0|0|0|0
288,64,5146,2,0,B|448:64,3,140,0|0|0|0
424,136,6694,5,0
352,136,7081,1,0
352,208,7468,1,0
424,208,7856,1,0
424,136,8243,1,0
352,136,8630,1,0
352,208,9017,1,0
280,208,9404,1,0
224,248,9791,6,0,B|384:248,3,140
360,320,11339,2,0,B|200:320,3,140
256,256,12888,1,2
256,112,13662,1,2
112,112,14436,1,2
232,184,15210,1,2
312,64,15985,5,0
344,64,16178,1,0
376,64,16372,1,0
408,64,16565,1,0
456,112,16952,2,0,B|456:144|456:176|424:240|392:240,1,140,0|0
336,256,17727,1,0
304,256,17920,1,0
272,256,18114,1,0
88,256,19081,2,8,B|56:256|24:224,3,70,0|0|0|0
24,152,20049,1,8
72,104,20436,1,8
120,56,20823,2,8,B|152:24|184:24,1,70,0|0
392,8,22178,5,0
392,80,22565,2,0,B|424:80|456:112,1,70,0|0
456,216,23339,1,0
456,288,23727,2,0,B|456:328|392:352,1,70,0|0
320,296,24501,1,0
296,328,24694,1,0
280,296,24888,1,0
256,328,25081,1,0
240,296,25275,1,0
168,296,25662,2,0,B|136:296|104:264,1,70,0|0
64,128,28372,5,8
64,96,28565,1,8
88,72,28759,1,8
120,72,28952,1,8
192,72,29339,1,2
264,72,29727,1,2
336,72,30114,2,0,B|368:72|400:104,2,70,0|0|0
400,232,31468,2,0,B|400:264|368:328,3,70,0|0|0|0
312,296,32436,1,8
240,296,32823,1,8
168,296,33210,2,4,B|72:296,1,70,0|0
72,112,34565,5,0
144,112,34952,2,0,B|144:80|176:48,1,70
240,48,35533,1,0
312,48,35920,1,0
136,48,36888,2,0,B|136:80|168:112,1,70,0|0
208,48,37468,2,0,B|208:80|240:112,1,70,0|0
240,176,38049,2,4,B|240:272,1,70,0|0
472,176,39597,6,0,B|472:208|440:272|376:272,3,140,0|0|0|0
368,280,40952,2,0,B|336:312|304:280,3,70
184,280,42114,1,0
112,280,42501,2,0,B|80:248|80:216,3,70,0|0|0|0
80,112,43662,1,0
168,56,44243,1,0
240,56,44630,1,0
312,56,45017,2,0,B|344:120,1,70,0|0
384,56,45597,2,0,B|416:120,1,70,0|0
432,288,46759,6,0,B|408:320|336:312,1,70,0|0
296,312,47339,2,0,B|264:344|232:312,1,70
96,312,48307,2,0,B|53:311|32:280,1,70
16,216,48888,2,0,B|16:184|48:120,1,70
80,96,49468,1,4
184,96,50049,1,4
256,168,50630,1,4
256,272,51210,1,4
224,64,52372,6,0,B|256:39|296:72,1,70,0|0
384,96,53146,1,8
384,200,53727,1,8
384,304,54307,1,8
312,304,54694,1,8
208,304,55275,1,8
104,304,55856,2,0,B|72:304|40:272,2,70
104,232,56630,2,0,B|103:188|104:136,1,70,0|0
32,160,57210,1,0
32,88,57597,1,0
312,88,59146,6,0,B|352:88|400:112,1,70,0|0
472,144,59920,1,0
424,272,60694,2,0,B|488:272,2,35,0|0|0
384,272,61081,1,0
312,272,61468,1,0
136,264,62436,2,0,B|72:239|52:206|56:152,3,140
56,88,63985,2,0,B|86:82|136:72,2,70,0|0|0
56,160,64759,5,2
88,160,64952,1,2
152,128,65339,2,0,B|184:96|248:64|312:96|344:128|376:160|376:224,1,280,0|0
376,304,66694,1,0
304,304,67081,1,0
200,304,67662,1,0
96,304,68243,2,0,B|64:336|32:304,2,70,0|0|0
96,232,69017,1,0
96,160,69404,2,0,B|64:128|32:128,1,70
32,56,69985,1,0
184,144,71727,6,0,B|184:112|216:48|248:48,2,105
224,144,72501,2,0,B|224:176|256:240|288:240,2,105,0|0|0
264,144,73275,2,0,B|264:112|296:48|328:48,2,105
304,144,74049,2,0,B|304:176|336:240|368:240,2,105,0|0|0
344,144,74823,1,0
176,88,76178,6,0,B|176:184,1,70,0|0
248,152,76759,1,0
320,152,77146,2,0,B|320:184|320:248,1,70,0|0
248,224,77727,1,0
