osu file format v5

[General]
AudioFilename: Eternal Sonata - Leap the Precipice.mp3
AudioLeadIn: 0
PreviewTime: -1
Countdown: 0
SampleSet: Normal
EditorBookmarks: 74050

[Metadata]
Title:Leap the precipice
Artist:Motoi Sakuraba
Creator:LadySuburu
Version:Reality

[Difficulty]
HPDrainRate:5
CircleSize:6
OverallDifficulty:8
SliderMultiplier:2.6
SliderTickRate:0.5

[Events]
//Background and Video events
0,0,"eternalsonata23.jpg"
//Break Periods
2,62088,73231
//Storyboard Layer 0 (Background)
//Storyboard Layer 1 (Failing)
//Storyboard Layer 2 (Passing)
//Storyboard Layer 3 (Foreground)
//Storyboard Sound Samples
//Background Colour Transformations
3,100,163,162,255

[TimingPoints]
6117,705.882352941176,4,1,0,100
74050,352.941176470588,4,1,0,100

[HitObjects]
256,192,5411,1,0
192,128,6117,5,0
192,128,6293,1,0
192,128,6469,1,0
192,128,6646,1,0
160,128,6822,1,0
160,128,6999,1,0
160,128,7175,1,0
160,128,7352,1,0
160,128,7528,1,0
160,192,8234,1,0
160,224,8469,1,0
160,256,8705,1,0
160,288,8940,1,0
256,288,9646,1,0
288,288,9881,1,0
320,288,10116,1,0
352,288,10352,1,0
352,192,10881,1,0
256,192,11411,1,0
192,192,11764,5,0
160,192,11940,1,0
128,192,12116,1,0
96,192,12293,1,0
96,224,12469,1,0
96,160,12646,1,0
96,128,12822,1,0
128,96,12999,1,0
96,96,13175,1,0
192,96,13646,1,0
256,96,14116,1,0
256,160,14587,1,0
256,224,15293,1,0
256,256,15469,1,0
256,288,15646,1,0
256,320,15822,1,0
256,352,15999,2,0,B|408:377|512:288,1,260
416,256,17411,5,0
416,192,18116,1,0
416,160,18293,1,0
416,128,18469,1,0
416,96,18646,1,0
416,64,18822,1,0
320,64,19528,2,0,B|165:64|165:64,1,130
192,96,20116,2,0,B|96:96,1,65
64,96,20764,1,0
320,160,21293,2,0,B|128:160,1,130
64,160,22175,1,0
192,224,23058,5,0
192,256,23234,1,0
224,256,23411,1,0
224,288,23587,1,0
224,352,23940,1,0
320,352,24469,1,0
320,320,24646,1,0
352,320,24822,1,0
352,288,24999,1,0
384,224,25352,1,0
384,128,25705,1,0
352,128,25881,1,0
256,128,26411,1,0
160,128,27293,1,0
64,128,27822,1,0
64,64,28705,5,0
128,64,28881,1,0
192,64,29058,1,0
256,64,29234,1,0
320,96,29411,1,0
384,96,29587,1,0
448,96,29764,1,0
384,160,29940,1,0
320,224,30116,1,0
192,256,30822,1,0
192,320,31058,1,0
256,320,31293,1,0
320,320,31528,1,0
320,224,32234,1,0
320,160,32469,1,0
320,96,32705,1,0
384,96,32940,1,0
448,96,33528,1,0
448,192,33999,1,0
448,288,34352,5,0
416,288,34528,1,0
384,288,34705,1,0
352,288,34881,1,0
352,320,35058,1,0
320,288,35234,1,0
352,256,35411,1,0
320,256,35587,1,0
320,320,35764,1,0
224,288,36293,1,0
224,224,36822,1,0
160,160,37175,1,0
160,224,37883,1,0
96,224,38060,1,0
96,160,38236,1,0
96,96,38413,1,0
160,96,38589,2,0,B|312:200|416:0,1,260
320,32,40001,5,0
192,32,40707,1,0
160,32,40883,1,0
128,32,41060,1,0
96,32,41236,1,0
64,160,41413,1,0
192,224,42116,2,0,B|23:225|23:225,1,130
128,288,42648,2,0,B|32:288,1,65
64,352,43354,1,0
288,288,43883,2,0,B|128:288,1,130
288,352,44766,1,0
352,288,45648,5,0
352,256,45824,1,0
320,224,46001,1,0
288,192,46177,1,0
224,128,46530,1,0
128,160,47060,1,0
128,192,47236,1,0
160,224,47413,1,0
192,256,47589,1,0
256,320,47942,1,0
384,320,48236,1,0
448,320,48469,2,4,B|448:32,1,260
416,64,49881,2,4,B|96:64,1,260
160,128,51295,5,0
160,128,51471,1,0
160,128,51648,1,0
160,128,51824,1,0
256,160,52177,1,0
256,160,52354,1,0
256,160,52530,1,0
352,128,52883,1,0
352,128,53060,1,0
352,128,53236,1,0
352,128,53413,1,0
352,128,53589,1,0
352,128,53766,1,0
352,128,53942,1,0
320,96,54118,1,0
288,64,54295,1,0
256,64,54471,1,0
224,64,54648,1,0
160,64,55001,1,0
96,64,55354,1,0
32,64,55707,1,0
32,128,56060,1,0
32,128,56236,1,0
32,128,56413,1,0
32,128,56589,1,0
32,128,56766,1,0
96,128,56942,5,0
96,128,57118,1,0
160,128,57295,1,0
160,128,57471,1,0
96,128,57648,1,0
96,128,57824,1,0
160,128,58001,1,0
160,128,58177,1,0
96,128,58354,1,0
96,128,58530,1,0
160,128,58707,1,0
160,128,58883,1,0
96,128,59060,1,0
96,128,59236,1,0
160,128,59413,1,0
160,128,59589,1,0
224,128,59766,2,0,B|282:0|382:5|497:18|448:352,1,520
256,192,61883,1,0
256,192,74050,5,0
224,160,74402,1,0
192,128,74755,1,0
160,96,75108,1,0
96,96,75461,1,0
64,128,75814,1,0
32,160,76167,1,0
0,192,76520,1,0
0,256,76873,1,0
32,288,77226,1,0
64,320,77579,1,4
96,352,77932,1,0
160,352,78285,1,0
192,320,78638,1,0
224,288,78991,1,0
256,256,79344,1,0
256,192,79687,5,0
288,160,80050,1,0
320,128,80402,1,0
352,96,80755,1,0
416,96,81108,1,0
448,128,81461,1,0
480,160,81814,1,0
512,192,82167,1,0
512,256,82520,1,0
480,288,82873,1,0
448,320,83226,1,0
416,352,83579,1,0
352,352,83932,1,0
320,320,84285,1,0
288,288,84638,1,0
256,256,84991,1,0
192,160,85344,5,0
192,128,85520,1,0
160,96,85697,1,0
128,96,85873,1,0
96,96,86049,1,0
64,96,86226,1,0
64,128,86402,1,0
64,160,86579,1,0
96,160,86755,1,0
192,160,87285,1,0
192,160,88167,5,4
192,128,88344,1,4
224,96,88520,1,4
256,96,88697,1,4
288,96,88873,1,4
320,96,89049,1,4
320,128,89226,1,4
320,160,89402,1,4
288,160,89579,1,4
192,160,90108,1,4
160,192,90991,1,4
192,224,91167,1,4
224,256,91344,1,4
160,288,91520,1,4
192,320,91697,1,4
224,352,91873,1,4
256,384,92049,1,4
352,384,92520,5,4
384,352,92755,1,4
416,320,92991,1,4
320,288,93226,1,4
352,256,93461,1,4
384,224,93697,1,4
352,160,93902,5,0
352,128,94079,1,0
352,96,94255,1,0
352,64,94432,1,0
288,64,94755,1,0
352,160,95314,5,0
352,128,95491,1,0
352,64,95667,1,0
352,96,95844,1,0
288,64,96197,1,0
288,128,96549,1,0
352,160,96725,5,0
352,64,96902,1,0
352,96,97078,1,0
352,128,97255,1,0
288,64,97608,1,0
224,64,97961,1,0
192,64,98138,1,0
160,64,98314,1,0
160,128,98668,1,0
224,128,98844,1,0
192,128,99021,1,0
352,224,99373,1,0
352,64,99549,5,0
352,96,99726,1,0
352,160,99902,1,0
352,128,100079,1,0
288,64,100343,1,0
352,160,100961,5,0
352,128,101138,1,0
352,96,101314,1,0
288,64,101491,1,0
352,64,101814,1,0
224,64,102197,1,0
160,64,102373,1,0
96,64,102991,1,0
96,128,103608,2,0,B|575:2|543:372|-53:336|-44:69|352:192,1,845
