osu file format v5

[General]
AudioFilename: 1.14 - Battle with God Syndrome.mp3
AudioLeadIn: 1522
PreviewTime: -1
Countdown: 0
SampleSet: Soft
StackLeniency: 0.4
Mode: 0
LetterboxInBreaks: 1
EditorBookmarks: 13612,14367,14735,15489,16244,59272,60593,99305,119650,122291,122669,125310
EditorDistanceSpacing: 0.800000011920929

[Metadata]
Title:Battle with God Syndrome
Artist:Motoi Sakuraba
Creator:alvisto
Version:Normal
Source:Valkyrie Profile
Tags:Valkyrie Profile Battle with god syndrome motoi sakuraba

[Difficulty]
HPDrainRate:5
CircleSize:4
OverallDifficulty:5
SliderMultiplier:1.4
SliderTickRate:1

[Events]
//Background and Video events
Video,0,"VP video small size.avi"
0,0,"angel.jpg"
//Break Periods
2,29283,45997
2,68109,78777
2,128152,134298
//Storyboard Layer 0 (Background)
Sprite,Background,Centre,"arly.jpg",320,240 M,0,78518,79272,320,240,316,237 F,0,78518,79272,0,1 S,0,79272,104555,0.9795201,0.7951999
//Storyboard Layer 1 (Fail)
//Storyboard Layer 2 (Pass)
//Storyboard Layer 3 (Foreground)
//Storyboard Sound Samples
//Background Colour Transformations
3,100,0,0,0

[TimingPoints]
405,377.358490566038,4,2,0,80,1,0
513,-100,4,2,0,61,0,0
913,-100,4,1,1,31,0,0
1348,-100,4,1,1,72,0,0
4868.80552461651,-100,4,2,1,76,0,0
9838,-100,4,2,1,57,0,0
11278,-100,4,2,1,74,0,0
16254,-100,4,2,0,61,0,1
16737,-100,4,1,1,66,0,1
22197,-100,4,1,0,100,0,0
22291,-100,4,1,1,100,0,1
22820,-100,4,1,1,60,0,1
27557,-200,4,1,1,60,0,0
27965,-100,4,1,1,58,0,0
29084,-100,4,1,0,51,0,0
47184,-100,4,1,1,70,0,0
61498,-100,4,1,1,100,0,1
62158,-100,4,1,1,70,0,1
63989,-100,4,1,1,70,0,0
68140,-100,4,1,0,70,0,0
80027,-100,4,1,0,52,0,0
80121,-100,4,1,0,62,0,0
80216,-100,4,1,0,69,0,0
80593,-100,4,1,1,70,0,0
92126,-100,4,1,1,70,0,0
104371,-100,4,2,1,80,0,0
115012,-100,4,1,1,52,0,0
115310,-100,4,1,1,71,0,0
115499,-100,4,1,1,51,0,0
115688,-100,4,1,1,69,0,0
115996,-100,4,1,1,84,0,0
116254,-100,4,1,1,68,0,0
116391,-100,4,1,1,93,0,0
116558,-200,4,2,0,67,0,0
135225,-200,4,1,1,71,0,0

[Colours]
Combo1 : 145,145,255
Combo2 : 255,174,255
Combo3 : 255,155,155
Combo4 : 132,255,132

[HitObjects]
80,96,405,1,0
80,208,782,1,0
80,320,1159,1,0
192,320,1537,1,0
280,248,1914,5,0
312,200,2103,1,0
408,200,2480,1,0
408,104,2857,1,0
296,80,3235,6,0,B|248:56|200:48|168:72|152:88,1,140,0|0
112,176,3989,2,0,B|72:224|80:256|96:280|112:304,1,140,0|2
168,304,4555,1,2
272,304,4933,5,0
384,304,5310,1,0
384,192,5688,1,2
384,80,6065,1,2
272,77,6442,2,0,B|224:53|184:37|144:37|104:53|80:77|48:117|48:149|56:157,1,280,2|2
240,276,7952,6,0,B|280:324|304:348|336:356|376:356|408:348|432:332|456:308|464:292|472:268,1,280,2|0
331,181,9272,1,0
368,139,9461,1,2
156,66,10216,5,0
157,149,10499,1,4
158,232,10782,1,4
424,312,11725,5,2
424,88,12480,1,0
200,88,13235,1,2
121,167,13612,6,0,B|193:171|246:198|287:241|308:294|309:345,1,280,0|2
361,240,14744,1,0
406,137,15121,1,2
453,40,15499,2,8,B|413:40|389:40|357:48|341:56|325:80|309:96|301:120|293:152|293:176|293:192|293:208|293:224|285:248|293:224,1,280,0|6
256,262,16442,5,4
210,294,16631,1,4
178,186,17008,6,0,B|178:90|202:74|234:66|274:66|322:82,1,210,0|8
356,99,17763,1,0
336,151,17952,2,0,B|416:188,2,70,0|0|8
311,201,18518,1,0
130,333,19272,1,8
96,111,20027,5,0
263,111,20593,2,0,B|319:111|343:111,1,70,8|0
389,111,20971,2,0,B|389:175|389:207,1,70,8|0
332,182,21348,2,0,B|292:182|244:182,1,70,8|0
72,336,22291,5,0
88,256,22574,1,0
104,176,22857,1,4
192,32,23423,5,12
296,72,23801,2,0,B|375:99,2,70,0|0|8
141,234,24933,5,8
252,230,25310,2,0,B|192:160,2,70,0|0|8
334,153,26065,1,0
389,90,26348,2,0,B|433:139|464:171,1,105,8|0
420,206,26820,1,0
356,260,27103,2,0,B|323:228|294:197|273:172,1,105,8|0
248,140,27574,2,0,B|203:101|179:85|147:85|88:88|64:104|40:144|32:216,1,280,0|4
40,136,47197,6,0,B|120:72|216:88|280:112|320:152|344:216,1,350,0|0
344,328,48518,5,0
424,248,48895,1,12
440,136,49272,1,12
368,48,49650,1,8
269,100,50027,6,0,B|218:101,4,70,0|8|0|8|0
289,210,51159,1,8
197,274,51537,5,0
292,332,51914,2,0,B|348:332|380:324|396:300|420:260,1,140,8|0
428,164,52669,1,8
408,111,52857,1,8
331,36,53235,5,0
275,28,53423,1,8
166,55,53801,1,0
75,120,54178,1,8
48,248,54555,2,8,B|64:280|96:296|136:328|184:328|216:336|264:336|304:320|328:304,1,280,0|8
432,88,56254,6,0,B|408:56|368:32|336:32|312:56|288:80|280:112|288:152|304:176|360:200|384:200|424:216|440:240|440:272|424:296|416:312|400:336,1,420,0|0
418,304,57763,2,0,B|401:335|361:343|321:343|289:335|257:319|217:295|193:263|193:239|193:215|201:199|217:183|241:159,1,350,0|0
272,128,58895,5,8
272,128,59084,1,8
272,128,59272,2,0,B|328:144|392:112|384:56|352:24|304:16|248:16|192:40|152:104|136:144|136:248,1,490,0|0
104,288,60782,1,0
80,176,61159,1,8
96,120,61348,1,8
120,64,61537,6,0,B|160:40|200:40|232:40|256:48,1,140,0|0
312,56,62103,1,12
352,88,62291,6,0,B|400:120|416:152|424:184|424:224,1,140,0|0
424,256,62857,1,12
400,304,63046,2,0,B|368:336|328:352|280:360|240:360,1,140,0|4
216,344,63612,1,12
168,312,63801,1,0
128,208,64178,5,8
288,96,64933,1,10
64,64,65688,1,8
176,64,66065,6,0,B|216:136|256:208,1,140,0|8
301,282,66819,2,0,B|421:210|440:197,1,140,0|8
368,56,67574,2,8,B|294:26,2,70
377,60,80027,6,0,B|316:60,3,35
200,64,80782,6,8,B|144:64|96:88|88:144|88:200|144:224|192:224|208:224,1,280,0|8
384,224,82291,1,8
384,224,82480,2,8,B|384:264|376:296|336:328|288:328|248:320|224:296,1,210,8|8
152,72,83800,5,8
152,72,84555,1,8
376,72,85310,1,8
376,72,85499,2,8,B|416:88|440:112|456:152|456:184|448:216|416:248|400:272,1,210,8|8
312,256,86442,5,0
228,256,86725,2,0,B|187:256|114:256,1,105,8|0
123,199,87197,1,0
206,202,87480,2,0,B|262:202|321:202,1,105,8|0
316,147,87951,1,0
232,147,88234,2,0,B|185:147|118:147,1,105,8|0
127,90,88706,1,0
210,92,88989,2,0,B|267:92|326:92,1,105,8|0
371,93,89461,6,0,B|419:93|443:109|459:149|475:189|459:237|451:285|395:301|371:301|363:301,1,280,0|8
280,328,90593,1,8
280,328,90970,2,0,B|224:328|168:320|112:280|88:248|80:216|64:184|56:160,1,280,0|8
88,56,92857,5,0
336,56,93612,2,0,B|336:200,1,140,0|0
154,196,94555,1,8
155,197,94744,1,8
453,77,95876,5,8
346,112,96253,1,0
386,150,96442,1,8
342,253,96819,1,0
385,288,97008,2,0,B|384:325|374:344|347:359|311:363|277:361|241:352|216:331|200:309|200:289|199:275|201:249|202:223,1,280,8|8
416,104,98517,5,0
320,104,98800,1,8
320,104,99083,2,0,B|272:104|240:104,1,70,8|0
152,104,99555,1,8
152,104,99838,2,0,B|152:160|152:200,1,70,8|4
152,272,100310,1,8
152,272,100593,2,0,B|200:272|248:272,1,70,8|0
320,272,101065,1,8
320,272,101348,1,0
320,200,101536,5,0
320,88,101914,1,8
352,40,102102,1,8
376,88,102291,1,0
432,184,102668,1,8
464,232,102857,1,8
408,232,103046,1,0
320,304,103423,1,8
264,304,103612,1,8
288,256,103800,1,10
133,74,104555,6,0,B|186:79|231:92|253:124|255:162|238:200|197:224|164:232|125:240|68:256|72:289|77:314,1,350,0|10
183,325,105876,1,10
256,192,106253,12,0,108329
120,128,109272,6,0,B|205:130,3,70,0|2|2|0
297,161,110215,1,0
297,160,110593,1,6
83,236,111536,1,0
83,236,111914,1,6
424,56,113234,5,2
368,56,113423,1,4
256,56,113800,5,0
200,56,113989,1,0
200,112,114178,2,0,B|200:136|200:160|200:176|200:192,4,70,0|4|0|4|0
144,112,115121,2,8,B|72:110,3,70,8|8|8|8
72,168,115876,2,0,B|112:200|136:224,1,70,8|0
184,216,116253,2,0,B|184:256|184:288,1,70,0|0
256,192,116725,12,0,119272
48,88,119650,6,0,B|104:48|168:32|240:32|304:40|344:64|392:80|416:128|440:176|448:224,1,490,0|2
388,240,122669,2,0,B|372:304|324:352|244:360|164:352|108:328|60:280|36:216|36:168|44:136,1,490,0|2
39,96,125687,2,0,B|87:112|119:120|167:120|191:120|231:120|287:112|275:112,1,210,0|2
261,182,127198,2,0,B|293:166|389:119,1,140,0|2
88,192,135498,5,0
88,192,135877,1,2
256,192,137009,1,0
256,192,137385,1,2
424,192,138517,1,0
424,192,138896,1,2
256,192,139273,12,4,140783
