osu file format v5

[General]
AudioFilename: 1.14 - Battle with God Syndrome.mp3
AudioLeadIn: 1489
PreviewTime: -1
Countdown: 0
SampleSet: Soft
StackLeniency: 0.4
Mode: 0
LetterboxInBreaks: 1
EditorBookmarks: 2103,29461,47763,48140,51537,151348,152480,159272,176820
EditorDistanceSpacing: 0.800000011920929

[Metadata]
Title:Battle with God Syndrome
Artist:Motoi Sakuraba
Creator:alvisto
Version:Insane
Source:Valkyrie Profile
Tags:Valkyrie Profile Battle with god syndrome motoi sakuraba

[Difficulty]
HPDrainRate:6
CircleSize:5
OverallDifficulty:7
SliderMultiplier:1.9
SliderTickRate:2

[Events]
//Background and Video events
Video,0,"VP video small size.avi"
0,0,"angel.jpg"
//Break Periods
2,41359,46297
2,54755,55354
2,68435,78145
2,95510,97618
2,128717,133994
//Storyboard Layer 0 (Background)
Sprite,Background,Centre,"silmeria.jpg",318,257 M,0,78235,79461,318,257 F,0,78235,79461,0,1 S,0,79178,104555,0.9488,0.8566399
//Storyboard Layer 1 (Fail)
//Storyboard Layer 2 (Pass)
//Storyboard Layer 3 (Foreground)
Sprite,Foreground,Centre,"White.jpg",320,240 F,0,145971,146065,0,0.31232 F,0,146065,146159,0.31232,0 F,0,146159,146254,0 F,0,146254,146348,0,0.29696 F,0,146348,146442,0.29696,0 F,0,146442,146537,0 F,0,146537,146631,0,0.25088 F,0,146631,146725,0.25088,0
//Storyboard Sound Samples
//Background Colour Transformations
3,100,0,0,0

[TimingPoints]
405,377.358490566038,4,2,0,100,1,0
593,-100,4,2,0,82,0,0
782,-100,4,2,0,61,0,0
876,-100,4,2,0,45,0,0
971,-100,4,2,0,34,0,0
1065,-100,4,2,0,24,0,0
1442,-100,4,1,0,27,0,0
1537,-100,4,1,0,47,0,0
1631,-100,4,1,0,60,0,0
1725,-100,4,1,0,68,0,0
4933,-100,4,2,0,72,0,0
6631,-100,4,2,0,39,0,0
7008,-100,4,2,0,71,0,0
7386,-100,4,2,0,54,0,0
7574,-100,4,2,0,63,0,0
9650,-100,4,2,0,46,0,0
10216,-100,4,2,0,78,0,0
10876,-100,4,2,0,71,0,0
13989,-100,4,2,0,33,0,0
14178,-100,4,2,0,70,0,0
14555,-100,4,2,0,47,0,0
14744,-100,4,2,0,70,0,0
15121,-100,4,2,0,62,0,0
15499,-100,4,1,0,15,0,0
16254,-100,4,1,0,42,0,1
16348,-100,4,1,0,50,0,1
16442,-100,4,1,0,60,0,1
16537,-100,4,1,0,61,0,1
17008,-100,4,1,1,52,0,1
21725,-100,4,1,1,40,0,0
21914,-100,4,1,1,58,0,0
22103,-100,4,1,1,69,0,0
22197,-100,4,1,0,70,0,0
22291,-100,4,1,0,60,0,1
23423,-100,4,1,1,52,0,1
23518,-100,4,1,1,61,0,1
23612,-100,4,1,1,70,0,1
27215,-100,4,1,0,70,0,1
27574,-100,4,1,0,70,0,1
27763,-100,4,1,0,56,0,0
27952,-100,4,1,0,50,0,0
28140,-100,4,1,1,46,0,0
28706,-100,4,1,1,63,0,1
29084,-100,4,1,1,63,0,0
29461,-100,4,1,1,51,0,0
47008,-100,4,1,1,65,0,0
52008,-100,4,2,1,54,0,0
52103,-100,4,1,1,51,0,0
52103,-100,4,1,1,51,0,0
52669,-100,4,1,1,67,0,0
52763,-100,4,2,1,55,0,0
52857,-100,4,1,1,68,0,0
53046,-100,4,1,1,31,0,0
53423,-100,4,1,1,42,0,0
53801,-100,4,1,1,52,0,0
54178,-100,4,1,1,60,0,0
54367,-100,4,1,1,67,0,0
56254,-100,4,1,1,52,0,0
56537,-100,4,1,1,56,0,0
57008,-100,4,1,1,64,0,0
57291,-100,4,1,1,72,0,0
61442,-100,4,1,0,63,0,0
61529,-100,4,1,0,75,0,1
62008,-100,4,1,1,63,0,1
64084,-100,4,1,1,63,0,0
67857,-100,4,1,0,63,0,0
67952,-100,4,1,0,63,0,0
68423,-100,4,1,0,63,0,0
78895,-100,4,2,1,59,0,0
79084,-100,4,1,1,28,0,0
79272,-100,4,2,1,81,0,0
79461,-100,4,1,1,51,0,0
79650,-100,4,2,1,100,0,0
79838,-100,4,1,1,71,0,0
80027,-100,4,1,1,61,0,0
80121,-100,4,1,1,71,0,0
80216,-100,4,1,1,79,0,0
80310,-100,4,1,1,66,0,0
85876,-100,4,1,1,66,0,1
86254,-100,4,1,1,66,0,1
87008,-100,4,2,1,66,0,1
87197,-100,4,1,1,66,0,1
87763,-100,4,2,1,66,0,1
87952,-100,4,1,1,66,0,1
88518,-100,4,2,1,66,0,1
88706,-100,4,1,1,66,0,1
89461,-100,4,1,1,57,0,0
89650,-100,4,1,1,49,0,0
89838,-100,4,1,1,39,0,0
90216,-100,4,1,1,45,0,0
90971,-100,4,1,1,57,0,0
91065,-100,4,1,1,72,0,0
91159,-100,4,1,1,80,0,0
91348,-100,4,1,1,59,0,0
91725,-100,4,1,1,52,0,0
91820,-100,4,1,1,66,0,0
91914,-100,4,1,1,74,0,0
92103,-100,4,1,1,82,0,0
92763,-100,4,1,1,69,0,0
104367,-100,4,1,1,47,0,0
109272,-100,4,1,1,41,0,0
109461,-100,4,1,1,31,0,0
109838,-100,4,1,1,49,0,0
110216,-100,4,1,1,56,0,0
112386,-100,4,1,1,59,0,0
112480,-100,4,1,1,49,0,0
112574,-100,4,1,1,43,0,0
112669,-100,4,1,0,37,0,0
112763,-100,4,1,0,43,0,0
113046,-100,4,1,0,48,0,0
113235,-100,4,1,0,28,0,0
113423,-100,4,1,1,64,0,0
114367,-100,4,1,1,59,0,0
114555,-100,4,1,1,46,0,0
114744,-100,4,1,1,36,0,0
114933,-100,4,1,1,48,0,0
115121,-100,4,1,1,58,0,0
115310,-100,4,1,1,64,0,0
116065,-100,4,1,1,73,0,0
116631,-100,4,2,0,81,0,0
119650,-100,4,2,0,51,0,0
119838,-100,4,2,0,69,0,0
120593,-100,4,2,0,57,0,0
120971,-100,4,2,0,69,0,0
122574,-100,4,2,0,64,0,0
122857,-100,4,2,1,81,0,0
123989,-100,4,2,1,56,0,0
127386,-100,4,2,0,61,0,0
127574,-100,4,2,0,41,0,0
127952,-100,4,2,0,59,0,0
128140,-100,4,2,0,82,0,0
128329,-100,4,2,0,69,0,0
128518,-100,4,2,0,90,0,0
135216,-100,4,1,1,53,0,0
135876,-100,4,1,1,61,0,0
136065,-100,4,1,1,41,0,0
136631,-100,4,1,1,63,0,0
136820,-100,4,1,1,45,0,0
137386,-100,4,2,0,42,0,0
138235,-100,4,2,0,57,0,0
138518,-100,4,2,0,71,0,0
138706,-100,4,2,0,82,0,0
138895,-100,4,2,0,100,0,0
139272,-100,4,1,1,64,0,0
139461,-100,4,1,1,55,0,0
139650,-100,4,1,1,50,0,0
139838,-100,4,1,1,45,0,0
140027,-100,4,1,1,51,0,0
140216,-100,4,1,1,58,0,0
140405,-100,4,1,1,66,0,0
140593,-100,4,1,1,75,0,0
141537,-100,4,1,1,52,0,0
141725,-100,4,1,1,74,0,0
141914,-100,4,1,1,45,0,0
142103,-100,4,1,1,57,0,0
142291,-100,4,1,1,71,0,0
142480,-100,4,1,0,51,0,0
142574,-100,4,1,0,39,0,0
142669,-100,4,1,0,31,0,0
142857,-100,4,1,1,71,0,0
143235,-100,4,1,0,50,0,0
143329,-100,4,1,0,41,0,0
143423,-100,4,1,0,31,0,0
143612,-100,4,1,1,69,0,0
144744,-100,4,1,1,61,0,0
144933,-100,4,1,1,52,0,0
145121,-100,4,1,1,39,0,0
145310,-100,4,1,1,38,0,0
145310,-100,4,1,1,33,0,0
145405,-100,4,1,1,25,0,0
145499,-100,4,1,1,36,0,0
145593,-100,4,1,1,47,0,0
145688,-100,4,1,1,57,0,0
146065,-100,4,1,1,72,0,0
146725,-100,4,1,1,62,0,0
148329,-100,4,1,1,47,0,0
148423,-100,4,1,1,57,0,0
148518,-100,4,1,1,67,0,0
148612,-100,4,1,1,76,0,0
148706,-100,4,1,1,82,0,0
149084,-100,4,1,1,71,0,0
149838,-100,4,1,1,55,0,0
150593,-100,4,1,1,39,0,0
152480,-100,4,2,0,100,0,0
152763,-100,4,1,1,31,0,0
158140,-100,4,2,0,52,0,0
158895,-100,4,1,1,31,0,0
164933,-100,4,1,1,58,0,0
170216,-100,4,1,0,88,0,0
170971,-100,4,1,1,71,0,0

[Colours]
Combo1 : 145,145,255
Combo2 : 255,174,255
Combo3 : 255,155,155
Combo4 : 132,255,132

[HitObjects]
256,152,405,1,0
256,152,499,1,0
256,152,593,1,0
256,152,688,1,0
256,152,782,1,0
256,152,876,1,0
256,152,971,1,0
256,152,1065,1,0
256,152,1159,1,0
256,152,1254,1,0
256,152,1348,1,0
256,152,1442,1,0
256,152,1537,1,0
256,152,1631,1,0
256,152,1725,1,0
256,224,1914,5,0
256,300,2103,1,0
408,296,2480,1,0
408,144,2857,1,0
256,144,3235,2,8,L|256:216|328:216|328:112|248:112|208:112|208:160,1,380
208,272,4367,5,0
208,312,4461,1,0
208,352,4555,1,0
336,272,4933,5,0
411,270,5121,1,0
371,205,5310,1,2
216,184,5688,1,0
164,128,5876,1,2
238,112,6065,1,2
384,73,6442,1,2
385,149,6631,1,6
319,285,7008,6,2,B|360:285|379:269|384:229,1,95
317,193,7386,1,6
316,117,7574,1,6
179,50,7952,5,0
144,117,8140,1,2
192,263,8518,1,2
141,209,8706,1,0
193,150,8895,1,2
141,210,9084,1,0
192,265,9272,1,2
268,266,9461,1,0
344,266,9650,1,2
345,341,9838,1,2
268,338,10027,1,2
311,192,10216,5,4
109,298,10499,1,4
127,70,10782,1,4
179,124,10971,5,2
254,124,11159,2,2,B|296:180|332:116,1,95,0|2
463,192,11725,1,0
395,156,11914,1,0
327,124,12103,1,2
322,275,12480,1,0
255,312,12669,1,2
110,357,13046,2,0,B|58:357|59:290,1,95
109,233,13424,1,2
163,180,13612,1,2
269,71,13989,5,4
345,73,14178,2,0,B|406:67|391:158,1,95
468,139,14555,1,6
468,215,14744,2,0,C|468:268|468:315,1,95
391,310,15121,1,4
314,310,15310,2,0,C|264:310|208:309,1,95,0|2
220,194,15782,5,2
119,248,16065,1,2
146,176,16254,1,0
164,209,16348,1,0
183,241,16442,1,0
201,274,16537,1,0
221,305,16631,1,4
330,202,17008,5,0
364,134,17197,2,0,B|318:134|245:134,1,95,0|8
267,57,17574,1,2
343,58,17763,2,0,B|383:58|441:58,1,95,0|0
436,58,18140,2,0,B|436:116|437:156,1,95,8|2
437,154,18518,2,0,B|437:202|439:257,1,95
439,250,18895,2,0,B|400:265|331:292,1,95,8|2
350,285,19272,2,0,B|281:267|278:198,1,95,0|0
282,225,19650,6,0,B|287:158|356:139,1,95,8|2
329,149,20027,2,0,B|268:142|271:75,1,95,0|0
271,88,20405,2,0,B|264:161|192:150,1,95,8|2
213,151,20782,2,0,B|274:163|275:233,1,95
274,215,21159,2,0,B|274:269|207:287,1,95,8|2
219,283,21537,2,0,B|165:273|154:211,1,95,0|10
156,219,21914,2,10,B|154:159|79:150,1,95
240,99,22291,5,4
467,96,22574,1,4
355,294,22857,1,4
127,294,23423,5,0
127,255,23518,1,0
127,217,23612,1,2
203,217,23801,1,8
316,217,24084,1,8
429,219,24366,2,0,B|478:212|469:144|409:172,1,95,8|0
274,164,24933,5,0
236,164,25027,1,0
198,164,25121,1,2
121,165,25310,1,8
122,51,25593,1,8
235,51,25876,2,0,B|249:98|295:91|301:58|300:36,1,95,8|0
410,155,26442,5,0
410,193,26537,1,0
410,230,26631,1,2
411,306,26820,2,8,C|359:306|233:307,1,142.5,8|8
154,305,27386,5,8
98,253,27574,1,8
70,181,27763,1,0
99,110,27952,1,0
155,59,28140,1,2
227,34,28329,1,2
302,44,28518,1,2
372,71,28706,5,4
402,94,28801,1,4
427,121,28895,1,4
443,155,28989,1,0
448,192,29084,1,4
256,194,29461,6,0,B|210:193|200:286|202:346|118:341,1,190,0|0
145,262,30027,1,8
174,191,30216,1,8
244,325,30593,1,0
396,325,30971,2,0,C|396:272|396:220,1,95,8|0
243,227,31537,2,0,C|243:283|243:329,1,95,0|8
90,322,32103,6,0,B|40:299|20:246|36:200|93:176,1,190,0|8
240,176,32857,1,2
312,176,33046,1,0
384,176,33235,1,8
384,24,33612,5,0
256,112,33989,1,8
176,112,34178,1,0
176,184,34367,1,8
176,256,34555,1,8
176,328,34744,1,8
328,328,35121,5,0
328,216,35405,1,8
328,216,35688,1,8
328,136,35876,1,0
440,136,36159,1,12
440,136,36442,1,8
360,136,36631,6,0,C|314:173|272:118|206:174,1,190,0|8
152,285,37386,1,0
227,284,37574,1,0
227,207,37763,1,8
224,55,38140,5,0
376,56,38518,1,8
337,121,38706,1,0
316,153,38801,1,0
298,186,38895,2,0,C|336:216|383:188,1,95
403,122,39272,1,8
400,272,39650,5,0
320,272,39838,1,0
240,272,40027,1,8
160,272,40216,1,0
125,256,40310,1,0
102,225,40404,1,0
99,148,40593,1,8
101,71,40782,1,0
177,71,40971,1,0
252,72,41159,1,0
48,43,47197,5,8
105,92,47386,1,0
165,138,47574,1,8
164,138,47763,2,0,B|177:275|300:209,1,190,0|12
498,118,48518,5,4
292,215,48895,1,4
101,90,49272,1,4
202,203,49650,5,4
223,234,49744,1,0
244,265,49839,1,0
305,309,50027,5,8
357,254,50216,1,0
304,198,50405,1,0
358,145,50593,1,8
303,91,50782,1,0
454,93,51159,6,0,B|511:184|410:261,1,190,8|0
277,325,51914,1,8
241,338,52008,1,0
204,346,52102,1,8
129,330,52291,1,2
55,197,52668,1,8
46,159,52763,1,0
46,121,52857,1,8
46,44,53046,6,0,B|105:102|143:142,1,95,2|8
164,167,53423,2,0,B|222:132|266:104,1,95,0|8
312,80,53801,2,0,B|312:164|312:218,1,95,0|8
312,251,54178,1,0
312,327,54367,1,8
312,251,54555,1,4
259,271,56254,5,0
231,297,56348,1,0
197,314,56442,1,0
160,324,56537,1,0
122,320,56631,1,0
88,302,56725,1,0
66,270,56820,1,0
55,233,56914,1,0
55,195,57008,1,0
57,156,57103,1,0
58,118,57197,1,0
60,80,57291,1,0
60,41,57386,1,0
153,160,57763,6,0,B|185:224|248:224|313:192|309:133,1,190,0|8
456,162,58518,1,0
380,162,58706,1,8
380,85,58895,1,8
249,162,59272,6,0,B|149:162|38:162,1,190,0|8
60,314,60027,1,0
62,276,60121,1,0
62,237,60216,1,0
60,199,60310,1,0
60,160,60405,1,0
61,122,60499,1,0
61,84,60593,1,8
137,85,60782,6,0,B|182:121|248:114|301:72|312:-2,1,190,0|8
384,334,61537,5,4
156,332,61820,1,4
256,127,62103,1,0
255,164,62197,1,0
255,201,62291,1,8
176,200,62480,5,0
136,200,62574,1,0
96,200,62669,1,4
96,120,62857,1,0
96,80,62952,1,0
96,40,63046,1,8
172,40,63235,1,0
209,40,63329,1,0
246,40,63423,1,4
322,42,63612,1,0
359,42,63706,1,0
397,42,63801,1,8
401,193,64178,5,8
404,345,64556,1,0
353,288,64744,1,0
305,347,64933,1,8
153,344,65310,5,0
153,191,65688,1,8
304,189,66065,1,0
362,237,66254,1,0
420,188,66442,1,8
421,35,66820,5,0
361,82,67008,1,8
302,33,67197,1,8
150,33,67574,1,8
151,109,67763,1,8
153,185,67952,1,0
153,222,68046,1,0
154,259,68140,1,0
154,297,68235,1,0
88,136,78895,5,0
88,136,79084,1,0
106,209,79272,1,0
106,208,79461,1,0
176,180,79649,1,0
177,181,79838,1,0
239,138,80027,1,0
268,113,80121,1,0
297,88,80215,1,0
325,62,80310,1,0
136,64,80782,5,0
102,212,81159,2,0,B|85:268,2,95,0|0|8
213,315,81914,1,0
363,330,82291,2,0,B|472:350,2,95,0|0|0
376,254,82857,2,8,B|403:213|374:163,1,95,8|8
256,68,83423,5,0
113,122,83801,1,8
61,264,84178,2,0,B|70:327|141:339|120:321,2,95,0|0|8
198,329,84933,5,0
273,329,85121,1,0
349,330,85310,1,8
425,331,85499,1,8
423,179,85876,1,8
423,140,85971,1,8
423,102,86065,1,8
283,27,86442,5,0
252,49,86537,1,0
217,77,86631,2,0,B|166:115|125:146,1,95,0|8
64,134,87008,5,0
101,200,87197,1,0
123,230,87291,1,0
142,262,87386,2,0,B|185:317|227:368,1,95,0|8
277,337,87763,5,0
277,260,87952,1,0
282,222,88046,1,0
287,184,88140,2,0,B|286:123|334:76,1,95,0|8
357,30,88518,5,0
412,81,88706,1,0
431,113,88801,1,0
446,147,88895,2,0,B|473:210|468:261,1,95,0|8
471,314,89272,5,0
394,312,89461,1,0
317,310,89650,1,0
241,309,89838,1,8
164,307,90027,1,8
87,305,90216,1,0
86,228,90405,1,0
86,152,90593,1,8
86,75,90782,1,8
162,74,90971,5,0
199,74,91065,1,0
236,74,91159,1,0
312,74,91348,1,8
314,150,91537,1,8
314,225,91725,1,0
276,225,91819,1,0
237,224,91914,1,0
160,220,92103,1,12
160,144,92291,1,12
236,145,92480,1,0
369,71,92857,5,8
436,207,93235,2,0,B|480:254|468:305|410:324|352:298,1,190,0|8
226,221,93989,1,0
137,96,94367,1,8
137,96,94555,1,8
289,97,94933,2,8,B|390:97,2,95,8|8|8
154,291,98518,5,0
40,291,98800,1,4
41,177,99083,1,8
117,178,99272,1,0
117,64,99555,1,0
230,63,99838,1,8
306,63,100027,1,0
308,176,100310,1,4
421,176,100593,1,8
421,252,100782,5,0
404,285,100876,1,0
381,316,100971,1,0
350,338,101065,1,0
313,349,101159,1,0
236,348,101348,1,8
162,328,101537,5,0
95,289,101725,1,0
72,216,101914,1,8
65,140,102103,1,8
140,139,102291,1,0
216,140,102480,1,0
291,140,102668,1,8
367,140,102857,1,8
418,196,103046,6,0,B|350:197|315:196,1,95,0|8
190,271,103612,1,0
113,271,103801,1,8
113,195,103989,1,8
112,156,104084,1,0
112,118,104178,1,8
255,52,104555,5,0
139,333,105310,1,8
207,298,105499,1,0
338,221,105876,1,0
331,89,106254,5,0
271,40,106442,1,0
213,89,106631,1,2
155,38,106820,1,8
102,92,107008,1,0
157,143,107197,1,0
213,194,107386,1,0
271,139,107574,1,0
331,90,107763,1,0
271,42,107952,1,0
214,92,108140,1,2
156,38,108329,1,8
101,91,108518,1,0
213,193,108895,5,0
104,299,109272,1,2
160,247,109461,1,2
214,193,109650,1,2
266,138,109838,2,0,B|315:177|361:216|399:247|431:275|429:272,1,190,10|0
412,106,110593,6,0,B|340:149|301:204|297:255,1,190,8|0
157,310,111348,1,8
226,278,111537,1,0
223,126,111914,1,0
369,166,112291,5,0
369,166,112386,1,0
369,166,112480,1,0
369,166,112574,1,0
369,166,112669,1,0
369,166,112763,1,0
369,166,112857,1,0
305,126,113046,1,0
242,82,113235,1,2
182,35,113423,1,8
64,130,113800,5,0
81,202,113989,1,0
93,238,114084,1,0
109,271,114178,1,0
167,315,114367,1,8
239,335,114555,1,0
315,335,114744,1,8
389,317,114933,1,0
436,258,115121,1,8
451,183,115310,1,0
448,106,115499,1,8
422,78,115593,1,0
386,64,115688,1,0
312,81,115876,1,8
255,132,116065,1,8
234,163,116159,1,0
211,193,116254,1,0
184,224,116348,1,0
160,256,116442,1,8
458,141,117574,6,4,B|424:75|378:41|315:42|275:40,1,190,0|2
188,136,118329,1,0
233,196,118518,1,0
233,196,118706,1,2
342,301,119084,5,0
383,237,119272,1,0
340,173,119461,1,0
391,116,119650,1,4
337,62,119838,1,0
263,41,120027,1,2
194,73,120216,1,6
98,191,120593,5,4
243,236,120971,1,4
128,335,121348,1,0
156,264,121537,1,0
184,193,121725,1,0
211,117,121914,1,2
157,263,122291,1,2
212,118,122669,1,4
351,90,123612,5,0
199,91,123989,1,4
194,243,124367,2,0,B|262:247|295:199,1,95,0|2
310,144,124744,2,0,B|360:188|327:256,1,95,0|2
310,300,125121,2,0,B|389:296|402:220,1,95,0|2
393,180,125499,1,6
249,128,125876,6,0,B|208:61|151:63,1,95,0|2
103,56,126254,2,0,B|40:72|20:131,1,95,0|2
33,186,126631,2,0,B|57:250|113:257,1,95,0|2
170,267,127008,2,0,B|239:245|274:316,1,95,0|2
320,330,127386,2,0,B|377:356|432:300,1,95,4|4
444,251,127763,2,0,B|475:201|446:121,1,95,4|4
411,97,128140,2,4,B|372:64,2,95
113,110,134744,5,0
341,107,135311,1,0
232,306,135876,1,0
230,229,136065,1,0
457,232,136631,1,0
381,232,136819,1,0
200,88,137385,5,0
200,88,137480,1,0
200,88,137574,1,0
200,88,137669,1,0
200,88,137763,1,0
200,88,137857,1,0
200,88,137952,1,0
200,88,138046,1,0
200,88,138140,1,0
200,88,138234,1,0
200,88,138329,1,0
200,88,138423,1,0
200,88,138518,1,0
200,88,138612,1,0
200,88,138706,1,0
200,88,138801,1,0
200,88,138895,1,0
152,144,139084,1,0
208,192,139272,5,0
264,240,139461,1,0
336,224,139650,1,0
392,168,139838,1,0
368,96,140027,1,0
296,64,140216,1,0
240,112,140405,1,0
232,184,140593,1,4
232,256,140782,1,4
104,72,141348,5,0
176,96,141537,1,0
176,96,141725,1,0
248,120,141914,1,0
248,120,142103,1,0
248,120,142291,1,0
320,152,142480,5,0
320,152,142574,1,0
320,152,142669,1,0
440,240,143046,1,0
384,288,143234,5,0
384,288,143329,1,0
384,288,143423,1,0
240,328,143801,2,0,B|168:352|104:344|80:296|64:224|72:144,1,285,0|0
144,104,144555,1,0
152,192,144744,1,0
248,176,144933,1,0
232,88,145121,1,0
192,144,145310,1,0
192,144,145405,1,0
192,144,145499,1,0
192,144,145593,1,0
192,144,145688,1,0
406,359,146065,5,4
342,139,146348,5,4
285,359,146631,5,4
132,95,147386,5,0
132,170,147574,2,0,B|185:211|211:220|211:302,1,142.5,0|8
324,282,148141,1,8
399,282,148329,1,0
361,282,148423,1,0
322,279,148518,1,0
284,281,148612,1,0
246,281,148706,1,8
247,128,149084,5,0
182,33,149367,1,0
120,128,149650,1,8
119,203,149838,1,0
183,295,150121,1,0
247,204,150405,1,8
247,128,150593,1,0
182,35,150876,1,0
120,128,151159,1,8
256,192,151348,12,2,152480
108,103,152858,5,0
249,47,153235,1,8
107,102,153612,1,0
109,178,153801,1,0
109,215,153895,1,0
110,252,153989,1,0
109,175,154178,1,8
260,176,154555,5,0
336,175,154744,1,8
295,321,155121,1,0
371,321,155310,1,0
408,322,155404,1,0
446,322,155499,1,0
369,321,155688,1,8
421,178,156065,5,0
419,115,156254,1,8
267,115,156631,1,0
267,115,156820,1,0
267,115,156914,1,0
267,115,157008,1,0
267,115,157197,1,8
115,123,157574,5,0
64,180,157763,1,8
135,192,157952,1,0
242,297,158140,5,4
446,196,158423,1,4
263,59,158706,1,4
305,197,158895,6,0,B|265:169|222:149|154:154|120:177,1,190,0|8
126,325,159650,1,0
126,249,159838,1,0
125,211,159933,1,0
124,173,160027,1,0
126,249,160216,1,8
280,248,160593,5,0
353,248,160782,1,8
351,96,161159,1,0
351,172,161348,1,0
353,209,161442,1,0
354,247,161537,1,0
351,171,161725,1,8
199,167,162102,5,0
199,90,162291,1,0
123,90,162480,1,8
124,241,162857,1,0
122,164,163046,1,8
45,164,163235,1,0
42,88,163423,2,0,B|85:40|127:3|217:16|261:40,2,285,0|0|0
158,193,164933,6,0,B|224:233|277:243|303:208|300:147|268:115|213:91|158:85,1,285
261,56,165688,1,0
315,108,165877,2,0,B|411:164,2,95,0|8|0
261,161,166443,1,0
109,162,166819,1,8
108,161,167008,1,8
108,237,167197,1,0
211,348,167574,1,8
211,347,167763,1,8
211,271,167951,5,0
368,105,168517,2,0,B|452:112|420:195,1,95,8|0
428,162,168895,2,0,B|428:226|341:226,1,95,0|8
369,225,169273,2,0,B|329:225|252:225,1,95
236,226,169555,1,0
197,227,169650,1,0
159,227,169744,1,0
121,227,169838,1,8
383,72,170216,5,4
155,71,170499,1,4
301,246,170782,1,4
233,211,170971,5,0
232,324,171253,1,8
333,271,171537,1,8
233,210,171725,5,0
333,156,172008,1,8
235,97,172291,1,8
232,211,172480,2,8,B|164:211|112:211|34:211,1,190,0|8
144,91,173235,5,0
145,128,173329,1,0
145,165,173423,1,0
145,203,173518,1,0
145,240,173612,1,0
221,238,173801,5,8
282,192,173990,1,0
377,131,174272,2,0,B|409:196|456:292,1,142.5,0|8
370,290,174745,1,0
323,186,175028,2,0,B|304:144|289:110|256:39,1,142.5,0|8
256,192,175499,12,4,177008
