osu file format v5

[General]
AudioFilename: 1.14 - Battle with God Syndrome.mp3
AudioLeadIn: 1478
PreviewTime: -1
Countdown: 0
SampleSet: Soft
StackLeniency: 0.7
Mode: 0
LetterboxInBreaks: 1
EditorBookmarks: 77857,86348,98423,104650,148329,148895,152669
EditorDistanceSpacing: 0.800000011920929

[Metadata]
Title:Battle with God Syndrome
Artist:Motoi Sakuraba
Creator:alvisto
Version:Hard
Source:Valkyrie Profile
Tags:Valkyrie Profile Battle With God Syndrome Motoi Sakuraba

[Difficulty]
HPDrainRate:6
CircleSize:5
OverallDifficulty:6
SliderMultiplier:1.4
SliderTickRate:1

[Events]
//Background and Video events
Video,0,"VP video small size.avi"
0,0,"angel.jpg"
//Break Periods
2,29284,45997
2,68529,78977
2,128151,135204
//Storyboard Layer 0 (Background)
Sprite,Background,Centre,"lenneth.jpg",315,232 M,0,77857,78518,320,240,315,232 F,0,77857,78518,0,0.81056 F,0,78518,79063,0.81056,1 F,0,79063,,1 F,0,79063,,1 S,0,78518,104650,0.9283198,0.8156798
//Storyboard Layer 1 (Fail)
//Storyboard Layer 2 (Pass)
//Storyboard Layer 3 (Foreground)
Sprite,Foreground,Centre,"White.jpg",320,240 F,0,145971,146065,0,0.31232 F,0,146065,146159,0.31232,0 F,0,146159,146254,0 F,0,146254,146348,0,0.29696 F,0,146348,146442,0.29696,0 F,0,146442,146537,0 F,0,146537,146631,0,0.25088 F,0,146631,146725,0.25088,0
//Storyboard Sound Samples
//Background Colour Transformations
3,100,0,0,0

[TimingPoints]
405,377.358490566038,4,2,0,100,1,0
868,-100,4,2,0,88,0,0
946,-100,4,2,0,77,0,0
1065,-100,4,2,0,67,0,0
1144,-100,4,1,0,5,0,0
1144,-100,4,2,0,59,0,0
1302,-100,4,1,0,22,0,0
1380,-100,4,1,0,48,0,0
1419,-100,4,1,0,69,0,0
1497,-100,4,1,0,100,0,0
4272,-100,4,1,0,55,0,0
4734,-100,4,2,1,49,0,0
9572,-100,4,1,0,39,0,0
9945,-100,4,2,1,52,0,0
15629,-100,4,1,1,40,0,0
16254,-100,4,2,0,80,0,1
16695,-100,4,1,1,59,0,1
22763,-100,4,1,1,79,0,0
22857,-100,4,1,0,71,0,1
23126,-100,4,1,1,63,0,1
27574,-100,4,2,0,69,0,0
27763,-100,4,2,0,58,0,0
27952,-100,4,2,0,47,0,0
28140,-100,4,2,0,44,0,0
28329,-100,4,2,0,80,0,0
28689,-100,4,1,0,71,0,1
29367,-100,4,1,0,71,0,0
48046,-100,4,1,1,71,0,0
52386,-100,4,1,1,58,0,0
53087,-100,4,1,0,71,0,0
55688,-100,4,1,0,71,0,1
56135,-100,4,1,1,71,0,0
61442,-100,4,1,0,71,0,0
61498,-100,4,1,0,100,0,1
61498,-100,4,1,0,71,0,0
62158,-100,4,1,1,72,0,1
66820,-200,4,1,0,68,0,0
67197,-100,4,1,0,0,0,0
67197,-100,4,1,0,0,0,0
80027,-100,4,1,0,46,0,0
80121,-100,4,1,0,58,0,0
80216,-100,4,1,0,68,0,0
80731,-200,4,1,1,71,0,0
86254,-100,4,1,1,70,0,0
98235,-100,4,2,1,81,0,0
102669,-100,4,2,0,81,0,0
102836,-100,4,2,0,81,0,0
103423,-100,4,2,0,57,0,0
103801,-100,4,2,0,71,0,0
104272,-100,4,2,0,75,0,0
104367,-100,4,2,0,80,0,0
104555,-100,4,2,1,80,0,0
114555,-100,4,2,1,66,0,0
114744,-100,4,2,1,55,0,0
114933,-100,4,2,1,46,0,0
115327,-100,4,1,1,51,0,0
115499,-100,4,1,1,61,0,0
115688,-100,4,1,1,66,0,0
115876,-100,4,1,1,74,0,0
116631,-200,4,2,0,41,0,0
140695,-100,4,1,1,72,0,0
144375,-100,4,1,0,64,0,0
144563,-100,4,1,1,57,0,0
144750,-100,4,1,1,51,0,0
144938,-100,4,1,1,43,0,0
145125,-100,4,1,1,37,0,0
146065,-100,4,1,1,59,0,0
146725,-100,4,1,1,65,0,0
149838,-100,4,1,1,49,0,0
150593,-100,4,1,1,31,0,0
152669,-100,4,2,0,68,0,0

[Colours]
Combo1 : 145,145,255
Combo2 : 255,174,255
Combo3 : 255,155,155
Combo4 : 132,255,132

[HitObjects]
60,39,405,2,0,B|119:39|171:40|213:40,1,140
200,56,876,1,0
200,72,971,1,0
200,88,1065,1,0
200,104,1159,1,0
200,120,1254,1,0
200,136,1348,1,0
200,152,1442,1,0
200,168,1537,1,0
200,184,1631,1,0
200,200,1725,1,0
198,256,1914,5,0
253,255,2102,2,0,B|293:287|325:303|365:295|397:271|413:255|392:258,1,140
416,152,2857,1,0
368,48,3235,6,0,B|328:32|280:24|232:32|168:72|128:112|128:144,1,280
144,222,4367,5,0
171,233,4461,1,4
197,243,4555,1,0
304,200,4933,6,0,B|360:184|400:152|400:104|376:64|296:40|296:40,1,210,0|0
272,40,5688,1,0
216,56,5876,1,2
168,88,6065,6,0,B|144:97|135:110|147:122|164:133|185:136,2,70,0|2|0
304,176,7008,1,0
328,184,7103,1,0
352,192,7197,2,0,B|381:224|420:230|457:211|472:175|465:139|452:112|426:99|399:88|367:103|353:148,1,280,2|0
360,303,8518,5,2
310,238,8706,1,0
254,307,8895,1,2
203,238,9084,1,0
150,305,9272,1,2
96,237,9461,1,0
58,168,9650,5,4
59,141,9744,1,4
58,118,9838,1,4
170,115,10216,5,2
253,115,10499,2,0,B|293:91|333:67|357:51|366:42,1,105,0|2
482,96,11536,6,0,B|482:136|482:200,1,70
400,168,12008,1,2
320,168,12291,2,0,B|272:168|232:168,1,70,0|2
56,56,13235,5,0
136,78,13518,1,2
217,99,13801,1,2
201,152,13989,1,0
280,180,14273,1,2
358,209,14555,1,2
335,260,14744,1,0
412,291,15027,1,2
490,321,15310,1,2
438,342,15499,1,0
354,342,15782,5,0
270,342,16065,1,0
214,340,16253,1,0
185,339,16348,1,0
157,339,16442,1,0
129,339,16536,1,0
100,340,16631,1,4
238,268,17008,6,0,B|194:269|147:251|143:218|144:181,1,140,0|8
184,84,17763,1,0
208,32,17952,1,0
240,80,18140,1,8
347,111,18518,5,0
240,144,18895,2,0,B|184:144|184:208,1,70,8|0
256,272,19461,2,0,B|296:272|305:218,1,70,0|8
412,213,20027,5,0
450,107,20405,1,8
357,44,20782,1,0
359,102,20971,1,0
304,78,21159,1,8
304,134,21348,1,0
280,240,21725,1,0
240,280,21914,1,8
176,320,22291,1,0
176,320,22386,1,0
176,320,22480,1,0
99,258,22857,5,0
88,232,22951,1,0
86,204,23046,1,4
178,118,23423,6,0,B|193:85|231:66|275:69|300:85|305:92,1,140,8|0
350,110,23989,1,0
389,149,24178,1,8
397,260,24555,5,0
369,308,24744,1,0
326,344,24933,1,8
271,358,25121,1,8
176,288,25499,1,0
176,288,25688,1,8
190,162,26065,5,8
192,104,26254,1,0
248,104,26442,5,0
248,48,26631,1,10
192,48,26820,5,0
136,48,27008,1,2
136,104,27197,5,10
192,104,27386,1,10
248,104,27574,5,4
248,160,27763,1,4
272,208,27952,5,4
312,240,28140,1,4
368,240,28329,5,2
416,208,28518,1,2
440,160,28706,5,0
448,136,28801,1,0
448,108,28895,1,0
446,80,28989,1,0
439,52,29084,1,4
119,84,47197,5,0
155,41,47386,1,0
190,84,47574,1,0
153,126,47763,1,0
274,132,48140,5,0
472,32,48518,1,0
472,264,48895,1,0
272,352,49272,1,0
127,221,49650,5,0
192,148,50027,5,0
211,128,50121,1,0
230,108,50216,1,0
272,136,50404,6,0,B|320:160|344:128,1,70,8|0
336,80,50782,1,0
232,32,51159,1,8
120,32,51537,2,0,B|72:48|48:128|56:168|80:208|88:240|104:272|128:272,1,280,0|8
224,320,52669,5,2
280,320,52857,1,2
308,203,53235,5,0
307,203,53423,1,0
268,81,53801,5,0
177,191,54178,1,8
120,96,54555,2,0,B|88:120|64:176|80:224|120:224|152:248|168:296|168:344,1,280,0|8
264,280,55688,5,0
272,256,55782,1,0
280,232,55876,1,4
249,124,56254,5,0
360,112,56631,2,0,B|456:112|456:208,1,140,8|0
435,302,57386,1,8
323,299,57763,2,0,B|291:300|259:297|230:280|233:206|230:158|234:120|176:120|135:120,1,280,0|0
128,72,58706,1,8
184,72,58895,1,8
326,119,59272,5,0
394,207,59650,1,8
456,296,60027,2,0,B|376:296|312:296,1,140,0|8
317,296,60782,5,0
312,240,60971,1,8
320,296,61159,1,8
136,320,61537,5,4
206,86,61820,1,4
403,227,62103,1,4
88,40,62669,5,0
424,328,63423,1,0
96,328,64178,1,2
181,255,64555,1,10
266,182,64933,1,10
223,78,65310,6,0,B|102:138,1,105,0|0
71,63,65876,1,8
71,115,66065,2,0,B|70:184|70:216|70:248|70:228,1,105,0|0
71,303,66631,1,8
70,303,66820,6,0,B|216:214|174:399|333:297,1,280
224,192,80027,5,0
224,192,80121,1,0
224,192,80216,1,0
224,192,80310,1,0
64,88,80782,6,0,B|136:88|176:88,1,105,0|0
168,160,81537,1,8
168,280,81914,1,0
296,280,82291,2,0,B|344:280|400:280|432:280,1,105,0|0
400,208,83046,1,8
400,80,83423,1,0
288,152,83801,5,8
184,232,84178,1,0
242,199,84367,1,0
183,170,84555,1,8
108,62,84933,1,0
271,63,85310,2,0,B|159:63,1,105,8|0
110,63,86065,1,8
167,63,86254,1,0
137,117,86442,5,0
55,136,86725,1,8
227,96,87008,1,8
228,153,87197,5,4
315,122,87480,1,8
140,187,87763,1,8
141,246,87952,5,0
60,198,88235,1,8
227,305,88518,1,8
228,247,88706,5,4
314,204,88989,1,8
142,307,89272,1,8
88,328,89461,6,0,B|72:256|56:184,1,140,0|8
144,80,90216,1,0
404,59,90593,1,8
396,290,90971,1,2
174,343,91348,1,10
87,154,91725,1,2
320,91,92103,1,8
120,64,92857,5,0
216,64,93235,1,0
312,64,93612,1,8
400,64,93989,2,0,B|296:64|224:64|160:64|104:64,1,280,0|8
192,192,95310,1,0
192,192,95404,1,0
192,192,95499,1,0
432,64,95876,5,0
372,221,96254,1,0
306,168,96442,1,8
245,110,96631,1,8
88,49,97008,1,0
88,133,97197,1,0
88,217,97386,1,8
89,300,97574,1,8
288,256,97952,1,10
368,296,98140,1,10
312,48,98518,6,0,B|344:48|368:48|392:110,2,105,0|0|4
312,104,99272,2,0,B|312:144|328:168|344:168|360:168|384:168,2,105,0|0|4
256,104,100027,2,0,B|256:144|240:168|184:168,2,105,0|0|4
256,48,100782,2,0,B|224:48|192:56|156:102,2,105,0|0|4
260,49,101537,2,0,B|237:5|189:-11|149:5|125:37|125:93|141:133|157:165|189:181,1,280,0|4
135,276,102669,1,4
239,103,103046,1,4
331,279,103423,1,4
238,103,103801,1,4
232,208,104178,5,4
231,208,104272,1,12
231,208,104367,1,4
276,175,104556,5,0
488,144,105310,5,8
456,192,105499,5,0
456,192,105876,1,4
352,208,106254,1,0
296,208,106442,1,0
296,208,106631,1,4
243,188,106820,5,8
189,170,107008,5,2
232,134,107197,1,2
179,113,107386,1,2
224,79,107574,1,0
172,57,107763,1,0
219,26,107952,1,0
272,44,108140,1,0
281,98,108329,5,8
290,153,108518,5,0
396,189,108895,2,0,B|397:354,1,140,4|0
344,332,109461,1,0
316,282,109650,1,0
289,331,109838,5,8
192,328,110216,5,0
192,328,110593,1,4
192,216,110970,5,2
192,216,111065,1,2
192,216,111159,1,2
160,169,111348,5,8
192,123,111537,5,0
87,82,111914,1,4
191,122,112291,1,0
144,90,112480,1,2
88,83,112669,1,2
79,138,112857,5,8
67,193,113046,5,0
56,248,113235,1,0
42,302,113423,1,4
147,340,113801,1,0
208,352,113989,1,0
256,320,114178,1,0
208,296,114367,5,8
256,264,114555,5,0
296,224,114744,1,0
304,168,114933,1,0
288,112,115121,1,8
256,64,115310,5,12
208,40,115499,5,0
152,48,115688,5,0
152,104,115876,5,0
104,80,116065,5,0
104,136,116254,5,4
48,152,116442,5,0
48,208,116631,2,0,B|128:376|136:72|160:64|176:360|120:336|264:232|216:224|344:40,1,490
333,54,119650,2,0,B|317:166|285:22|293:118|229:30|261:270|269:126|261:158|197:238|237:246|213:174|213:86|189:46|165:62|125:110|93:190,1,420
103,89,122669,6,0,B|79:167|135:157|150:98|164:89|164:54|183:20|217:75|215:113|185:149|163:169|151:185|168:205|206:198|243:158|254:108|255:65|284:84|299:122|299:173|279:199|302:226|310:249|343:300,1,490
389,285,125688,2,0,B|443:289|491:258|437:211|398:196|399:127,1,210
344,128,127197,2,0,B|288:128|224:128|176:128,1,140
256,192,136254,12,0,140027
80,64,140782,5,0
376,64,141348,5,0
435,137,141536,1,8
322,137,141725,1,8
378,200,141914,1,0
438,272,142102,1,0
320,268,142291,6,0,B|232:268|184:268|112:228|128:124,1,280,0|0
304,72,143800,5,8
112,112,144366,1,0
64,152,144555,1,8
88,208,144744,1,0
144,224,144932,1,8
184,176,145121,1,0
168,120,145310,1,0
399,89,146065,5,4
170,57,146348,1,4
251,248,146631,1,4
266,24,147386,5,0
266,80,147575,1,0
266,163,147858,1,8
211,98,148141,1,0
209,157,148329,2,0,C|212:183|224:212|264:228|312:213|324:183|322:133,1,210,0|8
379,160,149084,5,0
377,76,149367,1,0
454,108,149650,1,8
435,160,149838,1,0
381,224,150121,1,0
296,224,150405,1,8
339,189,150593,1,0
339,105,150876,1,0
282,167,151159,1,8
282,110,151348,1,0
256,192,151537,12,2,152857
