osu file format v5

[General]
AudioFilename: 1.14 - Battle with God Syndrome.mp3
AudioLeadIn: 0
PreviewTime: -1
Countdown: 0
SampleSet: Soft
StackLeniency: 0.4
Mode: 0
LetterboxInBreaks: 1
EditorBookmarks: 16065,16631,47952,55876,67952
EditorDistanceSpacing: 0.800000011920929

[Metadata]
Title:Battle with God Syndrome
Artist:Motoi Sakuraba
Creator:alvisto
Version:Easy
Source:Valkyrie Profile
Tags:Valkyrie Profile Motoi Sakuraba Battle with god syndrome

[Difficulty]
HPDrainRate:3
CircleSize:3
OverallDifficulty:3
SliderMultiplier:1.2
SliderTickRate:2

[Events]
//Background and Video events
Video,0,"VP video small size.avi"
0,0,"angel.jpg"
//Break Periods
2,28905,45877
2,68151,79462
2,128151,134556
//Storyboard Layer 0 (Background)
Sprite,Background,Centre,"leone.jpg",320,240 F,0,78423,79178,0,1 F,0,104555,,0.001599998 S,0,78423,104744,0.9692798,0.8156799 F,0,104555,104744,0.001599998,0
//Storyboard Layer 1 (Fail)
//Storyboard Layer 2 (Pass)
//Storyboard Layer 3 (Foreground)
//Storyboard Sound Samples
//Background Colour Transformations
3,100,0,0,0

[TimingPoints]
405,377.358490566038,4,2,1,81,1,0
16070,-100,4,1,0,72,0,1
16840,-100,4,1,1,64,0,1
28706,-100,4,1,1,70,0,0
56254,-100,4,1,1,70,0,1
67905,-100,4,1,1,0,0,0
78440,-100,4,1,1,70,0,0
98518,-100,4,1,1,70,0,1
98895,-100,4,1,1,70,0,0
104228,-100,4,1,1,70,0,0
110440,-100,4,2,0,81,0,0
111231,-100,4,2,1,81,0,0
115310,-100,4,2,1,65,0,0
115499,-100,4,2,1,53,0,0
115688,-100,4,2,1,47,0,0
115876,-100,4,1,1,55,0,0
116065,-100,4,1,1,68,0,0
116254,-100,4,1,1,74,0,0
116631,-200,4,2,0,41,0,0

[Colours]
Combo1 : 145,145,255
Combo2 : 255,174,255
Combo3 : 255,155,155
Combo4 : 132,255,132

[HitObjects]
40,40,4932,2,0,B|96:40|144:48|184:80|208:120|224:160|224:208|218:190,1,240,0|2
312,336,6442,2,0,B|360:336|416:328|448:304|464:272|480:232|480:200|480:176|480:189,1,240,0|2
376,40,7951,2,0,B|344:40|280:40|232:88|208:160|208:192|206:203,1,240,0|2
320,336,9461,1,2
408,168,10216,2,0,B|360:144|320:120|312:112,2,90,4|2|2
200,56,11725,5,0
200,248,12480,1,2
392,248,13234,1,0
392,56,13989,1,2
392,248,14744,2,0,B|328:216|264:216|216:240|208:280|194:337,1,240,0|2
256,128,16254,1,4
256,32,16631,1,4
160,32,17008,5,0
160,128,17386,1,8
160,224,17763,1,0
160,320,18140,1,8
352,320,18895,1,8
352,224,19272,1,0
352,128,19650,1,8
160,128,20405,5,8
160,224,20782,1,0
160,320,21159,1,8
352,320,21914,1,8
352,224,22291,1,8
352,128,22669,1,8
160,96,23423,5,2
160,288,24178,1,8
352,288,24932,1,2
352,96,25687,1,8
160,96,26443,1,2
160,288,27197,1,8
352,288,27951,2,0,B|352:232|328:192|280:136|240:112|184:112|212:119,1,240,2|8
256,192,47197,12,0,49839
352,192,50782,5,0
256,192,51159,1,8
160,192,51537,2,0,B|160:144|168:64|232:88|264:88|288:88|352:88,1,240,0|8
352,328,53235,5,0
352,328,53423,1,0
256,328,53801,1,8
160,328,54178,1,0
160,232,54555,2,0,B|160:152|184:104|224:72|272:56|312:64,1,240,8|8
136,248,56253,5,0
136,248,56631,2,0,B|264:248|390:248,1,240,8|8
352,56,58140,1,8
256,56,58517,1,0
160,56,58895,1,8
136,248,59650,6,0,B|304:248|393:248,1,240,8|8
352,56,61159,1,8
256,56,61536,1,0
160,56,61914,1,8
24,192,62669,6,0,B|136:192|216:192|272:192,1,240,8|8
456,192,64178,1,8
456,192,64367,2,8,B|368:192|248:192,1,180,8|8
80,192,65687,5,0
80,144,65876,1,0
80,96,66065,1,8
176,96,66442,1,8
224,96,66631,1,8
272,96,66819,2,0,B|272:56|288:24|312:24|336:24|360:24|424:16|384:96|384:112|384:144|384:184|384:216|384:240|384:304|384:282,1,360,0|0
152,72,80782,5,0
344,72,81537,1,0
256,240,82291,1,8
256,240,82480,1,8
256,96,83046,1,8
192,168,83423,6,0,B|256:168|312:168|339:167,1,120,0|8
248,96,84178,2,0,B|296:96|352:96|378:96,1,120,0|8
464,96,84933,2,0,B|464:144|464:192|464:224|464:231,1,120,0|8
360,152,85688,2,0,B|360:216|360:272|359:291,1,120,0|8
264,272,86442,5,0
168,272,86820,2,0,B|169:210,2,60,8|8|0
232,200,87574,2,0,B|270:201|291:201|311:201|313:201,2,60,8|8|0
288,120,88329,2,8,B|247:121|204:119|204:118,2,60,8|8|0
229,35,89084,2,0,B|261:35|293:35|301:32,2,60,8|8|0
88,160,90216,1,0
88,256,90593,1,8
184,256,90971,6,0,B|256:256|312:256|384:224|424:168,1,240,0|8
144,72,92857,6,0,B|400:72,2,240
144,264,95121,1,8
256,96,95876,2,0,B|184:96|136:112|96:144|64:184|48:216,2,240,0|8|0
256,288,98140,1,8
256,192,98517,5,4
256,192,98895,1,8
160,192,99272,1,0
160,192,99650,1,8
200,104,100027,1,4
200,104,100404,1,8
296,104,100782,1,0
296,104,101159,1,8
200,104,101537,6,0,B|200:184|200:264|200:320|199:368,1,240,0|8
296,344,102668,1,8
392,344,103046,2,0,B|392:200|391:90,1,240,0|8
256,192,104555,12,0,106820
256,192,107574,5,8
448,200,108329,2,0,B|328:152|288:136|240:120|272:133,1,180,0|0
48,192,109838,5,8
96,272,110216,1,0
152,352,110594,1,12
392,352,111536,5,2
448,272,111914,1,0
448,32,112857,5,0
400,112,113234,1,2
360,200,113612,2,8,B|320:224|248:240|200:224|160:192|128:144|135:135,1,240,0|2
336,128,115121,2,4,B|377:113|405:105,6,60,4|4|4|4|0|0|0
256,120,116631,6,2,B|208:104|136:88|64:120|40:176|40:208|56:256|72:288|96:328|159:334,1,420,2|2
152,232,119649,2,2,B|208:256|288:264|360:256|424:224|456:192|480:152|489:140,1,360
384,320,122668,6,2,B|376:232|352:208|288:176|240:168|160:176|103:197,1,360
184,24,125688,2,2,B|136:48|112:88|104:128|102:137,1,120
296,112,127197,2,2,B|312:160|336:200|368:200|396:199,1,120
256,192,135876,12,0,140782
