osu file format v9

[General]
AudioFilename: SWEET ANGEL.mp3
AudioLeadIn: 2000
PreviewTime: 38561
Countdown: 0
SampleSet: Soft
StackLeniency: 0.7
Mode: 0
LetterboxInBreaks: 0

[Editor]
Bookmarks: 49783
DistanceSpacing: 1
BeatDivisor: 4
GridSize: 4

[Metadata]
Title:SWEET ANGEL
Artist:Motoaki Furukawa
Creator:bossandy
Version:Extreme
Source:jubeat ripples
Tags:spboxer3 ZHSteven No_Gu

[Difficulty]
HPDrainRate:6
CircleSize:4
OverallDifficulty:7
ApproachRate:8
SliderMultiplier:1.8
SliderTickRate:2

[Events]
//Background and Video events
0,0,"bg.png"
//Break Periods
//Storyboard Layer 0 (Background)
//Storyboard Layer 1 (Fail)
//Storyboard Layer 2 (Pass)
//Storyboard Layer 3 (Foreground)
//Storyboard Sound Samples
//Background Colour Transformations
3,100,163,162,255

[TimingPoints]
361,400,4,2,1,50,1,0
13161,-100,4,1,1,50,0,0
13361,-100,4,2,1,70,0,0
13761,-100,4,1,1,50,0,0
13961,-100,4,2,1,70,0,0
14761,-100,4,1,1,50,0,0
14961,-100,4,2,1,70,0,0
15361,-100,4,1,1,50,0,0
15561,-100,4,2,1,70,0,0
16361,-100,4,1,1,50,0,0
16561,-100,4,2,1,70,0,0
16961,-100,4,1,1,50,0,0
17161,-100,4,2,1,70,0,0
17961,-100,4,1,1,50,0,0
18161,-100,4,2,1,70,0,0
18561,-100,4,1,1,50,0,0
18761,-100,4,2,1,70,0,0
19561,-100,4,1,1,50,0,0
19761,-100,4,2,1,70,0,0
20161,-100,4,1,1,50,0,0
20361,-100,4,2,1,70,0,0
21161,-100,4,1,1,50,0,0
21361,-100,4,2,1,70,0,0
21761,-100,4,1,1,50,0,0
21961,-100,4,2,1,70,0,0
22761,-100,4,1,1,50,0,0
22961,-100,4,2,1,70,0,0
23361,-100,4,1,1,50,0,0
23561,-100,4,2,1,70,0,0
24361,-100,4,1,1,50,0,0
24561,-100,4,2,1,70,0,0
24961,-100,4,1,1,50,0,0
25061,-100,4,2,1,70,0,0
25561,-100,4,1,1,50,0,0
25661,-100,4,2,1,70,0,0
25761,-100,4,1,1,50,0,0
25861,-100,4,2,1,70,0,0
25961,-100,4,1,2,60,0,0
26161,-100,4,2,2,40,0,0
26361,-100,4,2,1,40,0,0
26761,-100,4,2,2,50,0,0
27161,-100,4,2,1,50,0,0
27561,-100,4,2,2,60,0,0
27961,-100,4,2,1,60,0,0
28361,-100,4,2,2,70,0,0
28761,-100,4,2,1,70,0,0
29161,-100,4,2,1,60,0,0
38761,-100,4,1,1,50,0,1
38961,-100,4,2,1,70,0,1
39361,-100,4,1,1,50,0,1
39461,-100,4,2,1,70,0,1
40361,-100,4,1,1,50,0,1
40561,-100,4,2,1,70,0,1
40961,-100,4,1,1,50,0,1
41161,-100,4,2,1,70,0,1
41961,-100,4,1,1,50,0,1
42161,-100,4,2,1,70,0,1
42561,-100,4,1,1,50,0,1
42761,-100,4,2,1,70,0,1
43561,-100,4,1,1,50,0,1
43761,-100,4,2,1,70,0,1
44161,-100,4,1,1,50,0,1
44361,-100,4,2,1,70,0,1
45161,-100,4,1,1,50,0,1
45361,-100,4,2,1,70,0,1
45761,-100,4,1,1,50,0,1
45961,-100,4,2,1,70,0,1
46761,-100,4,1,1,50,0,1
46961,-100,4,2,1,70,0,1
47361,-100,4,1,1,50,0,1
47561,-100,4,2,1,70,0,1
48361,-100,4,1,1,50,0,1
48561,-100,4,2,1,70,0,1
48961,-100,4,1,1,50,0,1
49161,-100,4,2,1,70,0,1
49961,-100,4,1,1,50,0,1
50161,-100,4,2,1,70,0,1
50561,-100,4,1,1,50,0,1
50661,-100,4,2,1,70,0,1
51461,-100,4,2,1,70,0,0
51560,-100,4,1,1,50,0,0
51561,-100,4,1,1,50,0,1
51761,-100,4,2,1,70,0,1
52161,-100,4,1,1,50,0,1
52361,-100,4,2,1,70,0,1
53161,-100,4,1,1,50,0,1
53361,-100,4,2,1,70,0,1
53761,-100,4,1,1,50,0,1
53861,-100,4,2,1,70,0,1
54761,-100,4,1,1,50,0,1
54961,-100,4,2,1,70,0,1
55361,-100,4,1,1,50,0,1
55561,-100,4,2,1,70,0,1
56361,-100,4,1,1,50,0,1
56561,-100,4,2,1,70,0,1
56961,-100,4,1,1,50,0,1
57161,-100,4,2,1,70,0,1
57961,-100,4,1,1,50,0,1
58161,-100,4,2,1,70,0,1
58561,-100,4,1,1,50,0,1
58761,-100,4,2,1,70,0,1
59561,-100,4,1,1,50,0,1
59761,-100,4,2,1,70,0,1
60161,-100,4,1,1,50,0,1
60361,-100,4,2,1,70,0,1
61161,-100,4,1,1,50,0,1
61361,-100,4,2,1,70,0,1
61761,-100,4,1,1,50,0,1
61961,-100,4,2,1,70,0,1
62761,-100,4,1,1,50,0,1
62961,-100,4,2,1,70,0,1
63361,-100,4,1,1,50,0,1
63561,-100,4,2,1,70,0,1
63961,-100,4,2,1,60,0,1
64361,-200,4,2,1,50,0,0
65161,-100,4,2,1,60,0,0
77161,-100,4,2,2,60,0,0
90361,-100,4,1,1,45,0,0
90561,-100,4,2,2,60,0,0
91961,-100,4,1,1,45,0,0
92161,-100,4,2,2,60,0,0
93161,-100,4,2,1,60,0,0
94761,-100,4,1,0,20,0,0
99361,-100,4,2,0,5,0,0

[Colours]
Combo1 : 202,255,255
Combo2 : 255,102,255
Combo3 : 255,255,155

[HitObjects]
456,256,361,1,0
296,344,761,2,0,B|424:344,1,90,2|0
256,256,1161,2,0,B|384:256,1,90
192,328,1561,2,0,B|120:376|40:296|112:208,1,180,2|0
144,176,2161,5,0
232,152,2361,2,0,B|288:152|320:80,1,90,2|0
432,64,2761,1,0
384,144,2961,1,0
368,232,3161,1,2
240,360,3561,6,0,B|176:392|96:320|152:224,1,180,4|2
224,280,4161,1,0
224,280,4261,1,0
224,280,4361,1,0
208,192,4561,2,0,B|188:96,1,90,0|2
368,80,5161,6,0,B|408:160|408:160|408:256,1,180,0|2
464,320,5761,1,0
464,320,5861,1,0
464,320,5961,1,0
384,352,6161,1,0
304,320,6361,1,2
216,320,6561,2,0,B|120:320,1,90,0|4
104,144,7161,5,2
200,48,7361,1,0
184,184,7561,1,0
120,64,7761,1,0
240,120,7961,2,0,B|276:144|328:136,1,90,2|0
184,184,8361,6,0,B|264:240|376:208,1,180,0|2
440,176,8961,2,0,B|416:120|336:128,1,90
424,264,9361,2,0,B|448:320|528:312,2,90,0|2|0
384,88,9961,6,0,B|336:64|256:112|256:112|184:64|128:88,2,270,4|2|0
392,176,11361,2,0,B|336:168|288:208,1,90,0|2
120,176,11761,2,0,B|176:168|224:208,1,90
256,368,12161,2,0,B|256:264,2,90,0|2|0
344,368,12761,2,0,B|384:352|384:352|424:304,1,90,2|2
416,136,13161,5,4
416,136,13261,1,0
344,80,13461,1,0
344,80,13561,1,10
272,136,13761,2,0,B|176:136,1,90,0|2
120,200,14161,2,0,B|72:240,2,45,0|0|10
88,112,14561,1,0
208,248,14761,6,0,B|240:280,1,45,0|0
320,248,15061,1,0
344,248,15161,1,10
408,312,15361,1,0
448,232,15561,1,2
448,144,15761,1,0
448,120,15861,1,0
448,96,15961,2,0,B|400:96|360:40,1,90,10|0
288,16,16361,6,0,B|256:64|304:112,1,90,0|0
304,184,16761,2,0,B|361:187|379:122,1,90,10|0
440,88,17161,2,0,B|414:36|348:53,2,90,2|0|10
456,176,17761,1,0
352,256,17961,5,0
384,224,18061,1,0
460,276,18261,2,0,B|488:328,1,45,0|8
392,336,18561,2,0,B|336:368|272:312,1,90,0|2
216,336,18961,1,0
200,328,19061,1,0
184,320,19161,1,10
168,312,19261,1,0
152,304,19361,1,0
72,352,19561,6,0,B|48:256,1,90,0|0
32,176,19961,1,10
200,240,20161,2,0,B|296:200,1,90,0|2
368,168,20561,5,0
472,248,20761,1,8
352,304,20961,1,0
400,80,21161,6,0,B|280:108,1,90,0|0
224,120,21561,1,10
256,296,21761,2,0,B|176:240,1,90,0|2
104,192,22161,5,0
128,328,22361,1,10
256,296,22561,1,0
456,192,22761,6,0,B|400:272,1,90,0|0
352,344,23161,1,10
232,208,23361,2,0,B|148:124,1,90,0|2
104,80,23761,5,0
56,256,23961,1,10
232,208,24161,1,0
304,40,24361,6,0,B|344:24,1,45,0|0
376,108,24661,1,0
376,136,24761,1,10
440,256,24961,2,0,B|488:288,2,45,0|0|2
328,336,25361,5,0
304,336,25461,1,0
280,336,25561,1,0
256,336,25661,1,0
232,336,25761,1,0
208,336,25861,1,0
184,336,25961,5,4
152,248,26161,1,0
88,184,26361,1,8
176,160,26561,1,0
328,248,26761,5,2
416,248,26961,2,0,B|424:192|352:160,2,90,0|8|0
256,160,27561,6,0,B|192:88,1,90,2|0
128,152,27961,2,0,B|192:224,1,90,8|0
336,312,28361,6,0,B|440:272,1,90,2|0
176,312,28761,2,0,B|72:272,1,90,8|0
272,248,29161,6,0,B|336:256,3,45,6|0|0|0
312,208,29561,2,0,B|371:182,3,45,10|0|0|0
320,160,29961,2,0,B|358:108,1,45,2|0
304,112,30161,2,0,B|311:48,1,45
264,80,30361,2,0,B|238:20,1,45,10|0
216,72,30561,2,0,B|164:33,1,45,0|0
168,88,30761,5,2
136,120,30861,1,0
128,168,30961,1,0
136,208,31061,1,0
168,240,31161,1,10
208,256,31261,1,0
252,244,31361,1,0
264,200,31461,1,0
296,168,31561,5,2
340,160,31661,1,0
384,176,31761,1,0
416,208,31861,1,0
424,248,31961,1,10
424,296,32061,1,0
408,336,32161,1,8
368,360,32261,1,0
320,360,32361,6,0,B|256:360,3,45,6|0|0|0
232,360,32761,1,10
192,352,32861,1,0
152,328,32961,1,0
128,288,33061,1,0
128,240,33161,2,0,B|128:176,3,45,2|0|0|0
128,152,33561,2,0,B|128:80,3,45,10|0|0|0
152,72,33961,6,0,B|216:72,1,45,2|0
232,144,34161,2,0,B|312:144,1,45
304,72,34361,2,0,B|368:72,1,45,10|0
384,144,34561,2,0,B|440:144,1,45
472,216,34761,5,2
448,256,34861,1,0
408,272,34961,1,0
368,256,35061,1,0
320,256,35161,1,10
280,280,35261,1,0
264,320,35361,1,8
280,360,35461,1,0
320,376,35561,6,0,B|376:376,1,45,2|0
352,336,35761,2,0,B|394:300,1,45
352,280,35961,2,0,B|361:224,1,45,10|0
312,248,36161,2,0,B|283:199,1,45
264,248,36361,2,0,B|264:304,1,45,2|0
224,280,36561,2,0,B|188:322,1,45
168,280,36761,2,0,B|112:289,1,45,10|0
136,240,36961,2,0,B|87:211,1,45
128,184,37161,6,0,B|216:136|224:64,1,135,2|2
260,108,37561,1,2
284,148,37661,1,2
272,192,37761,1,0
272,236,37861,1,0
304,268,37961,2,0,B|328:200|400:180,1,135,2|2
432,212,38361,1,2
444,256,38461,1,2
432,300,38561,1,0
408,336,38661,1,2
368,344,38761,6,0,B|264:344,1,90,4|0
144,344,39161,1,10
84,272,39361,1,0
84,272,39461,1,0
84,272,39561,1,2
216,244,39761,2,0,B|236:264|256:260|276:264|296:244,2,90,0|10|0
84,188,40361,6,0,B|131:206|170:182|170:182|208:156|256:174,1,180,0|10
328,116,40961,2,0,B|380:104|392:60,2,90,0|2|0
256,64,41561,1,10
212,76,41661,1,0
168,80,41761,1,0
124,72,41861,1,0
80,60,41961,6,0,B|32:140|80:232,1,180,0|10
248,288,42561,2,0,B|152:328,1,90,0|2
168,232,42961,2,0,B|264:192,2,90,0|10|0
48,296,43561,5,0
56,160,43761,1,0
168,232,43961,1,10
280,304,44161,1,0
392,224,44361,2,0,B|440:256|424:320,1,90,2|0
368,136,44761,2,0,B|423:119|462:173,1,90,10|0
304,200,45161,6,0,B|240:248|152:184|176:96,1,180,0|10
84,144,45761,2,0,B|28:128|4:64,1,90,0|2
120,224,46161,2,0,B|72:240|16:200,2,90,0|10|0
200,272,46761,6,0,B|304:256|384:360,1,180,0|10
424,272,47361,1,0
408,184,47561,2,0,B|464:168|504:224,1,90,2|0
328,144,47961,2,0,B|351:90|420:96,1,90,10|0
328,232,48361,6,0,B|270:301|270:301|184:344,1,180,0|10
120,288,48961,1,0
32,288,49161,1,2
32,288,49261,1,0
32,288,49361,1,0
104,176,49561,2,0,B|152:144|136:88,1,90,10|0
24,168,49961,6,0,B|16:240|112:296|168:224,1,180,0|10
256,328,50561,2,0,B|256:384,2,45,0|0|2
376,256,50961,1,0
416,264,51061,1,0
456,256,51161,1,10
488,224,51261,1,0
496,184,51361,1,0
480,144,51461,1,0
440,120,51561,5,4
320,184,51761,1,0
352,100,51961,1,10
280,44,52161,1,0
244,128,52361,2,0,B|232:172|244:216,1,90,2|0
160,56,52761,2,0,B|96:0|8:96|72:160,1,180,10|0
64,272,53361,6,0,B|64:320,2,45,0|0|10
176,344,53761,1,0
176,320,53861,1,0
176,296,53961,1,2
256,192,54161,1,0
336,296,54361,1,10
416,192,54561,1,0
333,77,54761,6,0,B|256:122|256:122|176:80,1,180,0|10
120,152,55361,2,0,B|208:200,1,90,0|2
392,152,55761,2,0,B|304:200,2,90,0|10|0
416,288,56361,6,0,B|367:312|367:312|335:296|335:296|303:312|303:312|255:288,1,180,0|10
256,192,56961,1,0
96,96,57161,2,0,B|144:71|144:71|176:87|176:87|208:71|208:71|256:95,1,180,2|10
256,192,57761,1,0
336,152,57961,6,0,B|376:192|332:240,1,90,0|0
424,352,58361,2,0,B|369:366|349:304,1,90,10|0
208,328,58761,2,0,B|222:273|286:287,2,90,2|0|10
353,313,59361,1,0
208,216,59561,6,0,B|128:272|24:264,1,180,0|10
88,344,60161,1,0
8,184,60361,2,0,B|0:240|64:288,1,90,2|0
208,216,60761,2,0,B|156:232|124:199,1,90,10|0
224,296,61161,6,0,B|304:296|320:168|256:152,1,180,0|10
344,104,61761,1,0
376,192,61961,2,0,B|416:224|480:216,1,90,2|0
428,132,62361,2,0,B|388:100|324:104,1,90,10|0
256,264,62761,6,0,B|304:360|416:344,1,180,0|10
408,256,63361,2,0,B|360:264|320:224|328:176,1,90,0|2
408,168,63761,1,0
416,144,63861,1,0
424,120,63961,1,10
432,96,64061,1,0
440,72,64161,1,0
256,72,64361,6,0,B|184:88|184:88|104:88,1,135,4|2
64,160,65161,6,0,B|56:208|104:248,1,90,2|0
240,192,65561,2,0,B|202:161|143:182,1,90,10|0
128,328,65961,2,0,B|173:310|184:249,2,90,2|0|10
95,240,66561,1,0
256,328,66761,2,0,B|456:328,1,180,2|10
440,192,67361,5,0
408,160,67461,1,0
376,128,67561,2,0,B|400:72|480:96,2,90,2|0|10
352,216,68161,1,0
416,280,68361,2,0,B|472:296|520:240,2,90,2|0|10
280,272,68961,1,0
168,352,69161,6,0,B|96:376|32:288|88:208,1,180,2|10
160,264,69761,1,2
160,264,69861,1,2
160,264,69961,1,0
248,232,70161,1,2
344,320,70361,2,0,B|384:352|456:312,1,90,8|2
248,232,70761,6,0,B|232:152|120:144|88:216,1,180,0|10
160,264,71361,2,0,B|176:320|248:320,1,90,0|2
106,190,71761,2,0,B|80:144|38:137,2,90,0|10|0
56,312,72361,6,0,B|152:296|232:368,1,180,2|10
272,280,72961,1,0
312,360,73161,2,0,B|376:336|368:264,1,90,2|0
336,208,73561,1,10
256,192,73961,12,2,76761
256,320,77161,5,4
400,208,77561,2,0,B|280:208,1,90,8|0
112,176,77961,2,0,B|232:176,1,90,0|0
176,312,78361,2,0,B|112:352|24:304|48:200,1,180,8|0
184,168,78961,6,0,B|176:224|128:240,1,90,0|8
248,104,79361,2,0,B|285:146|267:193,1,90,0|0
240,16,79761,2,0,B|296:14|320:58,1,90,0|8
304,144,80161,1,0
256,224,80361,5,4
112,328,80761,1,8
160,248,80961,1,0
128,160,81161,2,0,B|104:120|48:112,2,90,0|0|8
160,248,81761,1,0
216,128,81961,6,0,B|208:56|320:16|368:88,1,180,0|8
384,144,82561,2,0,B|336:168|280:120,1,90
464,168,82961,2,0,B|451:220|378:232,1,90,0|8
384,144,83361,2,0,B|396:91|469:79,1,90,0|4
296,192,83961,5,8
256,112,84161,2,0,B|224:72|256:16,1,90
384,200,84561,2,0,B|391:250|336:283,2,90,0|8|0
256,112,85161,6,0,B|160:88|80:152,1,180,0|8
64,232,85761,1,0
152,208,85961,1,0
120,304,86161,1,0
208,248,86361,1,8
192,368,86561,1,0
272,272,86761,6,0,B|320:224|416:264|400:360,1,180,4|8
472,272,87361,2,0,B|464:224|424:200,1,90
360,136,87761,2,0,B|320:96|328:40,2,90,0|8|0
224,152,88361,6,0,B|168:112|80:160|96:240,1,180,0|8
120,352,88961,1,0
240,280,89161,2,0,B|224:224|160:220,1,90
240,280,89561,1,8
400,152,89961,6,0,B|432:104|408:4|292:-13|256:72|256:72|220:-12|104:4|80:104|112:152,1,540,0|8
400,232,91561,2,0,B|432:280|408:380|292:396|256:312|256:312|220:397|104:380|80:280|112:232,1,540,0|8
160,40,93161,6,0,B|184:56|192:88|192:88|232:88|256:124|256:124|280:88|320:88|320:88|328:56|352:40,2,270,2|2|2
256,192,94761,1,4
256,192,94861,12,0,99361
