osu file format v9

[General]
AudioFilename: SWEET ANGEL.mp3
AudioLeadIn: 2000
PreviewTime: 38561
Countdown: 0
SampleSet: Soft
StackLeniency: 0.7
Mode: 0
LetterboxInBreaks: 0

[Editor]
Bookmarks: 49783
DistanceSpacing: 1
BeatDivisor: 4
GridSize: 4

[Metadata]
Title:SWEET ANGEL
Artist:Motoaki Furukawa
Creator:bossandy
Version:Basic
Source:jubeat ripples
Tags:spboxer3 ZHSteven No_Gu

[Difficulty]
HPDrainRate:2
CircleSize:3
OverallDifficulty:1
ApproachRate:2
SliderMultiplier:1
SliderTickRate:1

[Events]
//Background and Video events
0,0,"BG.png"
//Break Periods
//Storyboard Layer 0 (Background)
//Storyboard Layer 1 (Fail)
//Storyboard Layer 2 (Pass)
//Storyboard Layer 3 (Foreground)
//Storyboard Sound Samples
//Background Colour Transformations
3,100,163,162,255

[TimingPoints]
361,400,4,2,1,60,1,0
1561,-100,4,1,1,60,0,0
1961,-100,4,2,1,60,0,0
3161,-100,4,1,1,60,0,0
3561,-100,4,2,1,60,0,0
4761,-100,4,1,1,60,0,0
5161,-100,4,2,1,60,0,0
6361,-100,4,1,1,60,0,0
6761,-100,4,2,1,60,0,0
7961,-100,4,1,1,60,0,0
8361,-100,4,2,1,60,0,0
9561,-100,4,1,1,60,0,0
9961,-100,4,2,1,60,0,0
38761,-100,4,2,1,60,0,1
51461,-100,4,2,1,60,0,0
51561,-100,4,2,1,60,0,1
64361,-100,4,2,1,60,0,0
78361,-100,4,1,1,60,0,0
78761,-100,4,2,1,60,0,0
79961,-100,4,1,1,60,0,0
80361,-100,4,2,1,60,0,0
81561,-100,4,1,1,60,0,0
81961,-100,4,2,1,60,0,0
83161,-100,4,1,1,60,0,0
83561,-100,4,2,1,60,0,0
86761,-100,4,2,1,80,0,0
87361,-100,4,1,1,60,0,0
87961,-100,4,2,1,80,0,0
88961,-100,4,1,1,60,0,0
89561,-100,4,2,1,80,0,0
91161,-100,4,1,1,80,0,0
91561,-100,4,2,1,80,0,0
92761,-100,4,1,1,60,0,0
93161,-100,4,2,1,40,0,0
93761,-100,4,2,1,50,0,0
94361,-100,4,2,1,60,0,0
99361,-100,4,2,1,5,0,0

[Colours]
Combo1 : 202,255,255
Combo2 : 255,102,255
Combo3 : 255,255,155

[HitObjects]
140,68,361,1,4
88,208,961,1,2
236,184,1561,1,0
320,128,1961,2,0,B|376:152|372:236|304:252,2,150,4|2|0
236,184,3561,5,4
128,288,4161,1,2
268,340,4761,1,0
356,292,5161,2,0,B|420:252|504:272,2,150,4|2|0
268,244,6761,5,4
168,132,7361,2,0,B|164:224|64:240,1,150,2|0
72,136,8361,1,4
172,24,8961,2,0,B|264:28|280:128,1,150,2|0
356,176,9961,6,0,B|356:224|336:248|336:248|356:272|356:320,2,150,2|2|2
256,192,11561,2,0,B|208:192|184:172|184:172|160:192|112:192,1,150,4|2
352,120,13161,5,4
452,132,13561,2,0,B|456:196|396:208,1,100,8|0
300,200,14361,2,0,B|248:180|196:204|196:204|176:164|112:156,2,200,8|8|8
252,288,16361,6,0,B|208:320|144:312,1,100,4|8
64,280,17161,2,0,B|32:236|40:172,1,100,0|8
96,104,17961,1,0
136,196,18361,2,0,B|236:192|336:196,1,200,8|8
408,264,19561,5,4
432,168,19961,2,0,B|452:100|360:40|292:92,2,200,8|8|8
332,176,21961,2,0,B|288:216|224:196,1,100,0|8
148,156,22761,5,4
88,76,23161,2,0,B|24:120|32:212|100:252,1,200,8|8
192,248,24361,1,0
204,348,24761,2,0,B|272:328|288:256|288:256|324:268|368:260,1,200,8|8
448,308,25961,6,0,B|464:256|444:208,1,100,4|8
372,140,26761,2,0,B|320:124|272:144,1,100,0|8
192,200,27561,1,0
112,140,27961,2,0,B|72:200|112:268|112:268|84:292|84:336,1,200,8|8
184,332,29161,5,4
280,360,29561,2,0,B|328:348|388:360,2,100,8|0|8
252,264,30761,1,0
340,220,31161,2,0,B|343:151|228:116|191:179,1,200,8|8
152,272,32361,5,4
84,196,32761,2,0,B|52:152|0:148|0:148|36:104|24:44,1,200,8|8
124,72,33961,1,0
220,52,34361,2,0,B|320:56|420:52,1,200,8|8
504,108,35561,5,4
452,192,35961,1,8
368,140,36361,1,0
360,240,36761,1,8
320,332,37161,2,0,B|262:332|242:280,1,100,0|8
152,240,37961,2,0,B|132:188|72:188,1,100,0|8
32,96,38761,5,4
116,44,39161,2,0,B|216:40|316:44,1,200,10|10
402,99,40361,2,0,B|388:152|412:200,1,100,0|10
312,188,41161,2,0,B|326:241|302:289,1,100,0|10
204,272,41961,6,0,B|172:316|120:332,2,100,4|10|0
128,208,43161,2,0,B|114:155|156:116,1,100,10|0
224,188,43961,2,0,B|264:168|284:108|284:108|332:112|384:80,1,200,10|10
472,116,45161,5,4
396,180,45561,2,0,B|400:240|360:276,1,100,10|0
276,320,46361,2,0,B|224:320|180:296|180:296|136:320|80:320,1,200,10|10
104,224,47561,2,0,B|112:176|104:124,1,100,0|10
172,48,48361,5,4
200,144,48761,2,0,B|280:128|356:144|356:144|384:208,1,200,10|10
464,232,49961,1,0
372,268,50361,2,0,B|354:308|354:308|278:324|198:308,1,200,10|10
248,220,51561,6,0,B|200:204|148:220,1,100,4|10
180,124,52361,2,0,B|228:140|280:124,2,100,0|10|0
80,140,53561,2,0,B|64:196|20:220|20:220|52:256|44:332,1,200,10|10
144,300,54761,5,4
228,352,55161,2,0,B|243:296|287:272|287:272|255:236|262:180,1,200,10|10
164,160,56361,1,0
146,61,56761,1,10
239,24,57161,1,0
310,94,57561,1,10
262,181,57961,6,0,B|299:216|358:215,1,100,4|10
448,176,58761,2,0,B|464:224|440:272,1,100,0|10
348,312,59561,1,0
264,256,59961,2,0,B|216:248|164:256|164:256|144:208|88:176,1,200,10|10
60,276,61161,6,0,B|8:252|0:196,1,100,4|10
28,104,61961,2,0,B|76:80|92:24,1,100,0|10
192,32,62761,2,0,B|244:56|252:108,1,100,0|10
224,204,63561,2,0,B|176:228|160:284,1,100,0|8
260,292,64361,6,0,B|360:292,1,100,4|8
420,212,65161,2,0,B|320:212,1,100,0|8
256,132,65961,1,0
192,212,66361,2,0,B|92:212,1,100,8|0
8,268,67161,1,8
96,312,67561,5,4
196,300,67961,2,0,B|296:292|396:300,1,200,8|8
468,232,69161,1,0
392,164,69561,2,0,B|292:171|192:163,1,200,8|8
104,116,70761,5,0
108,216,71161,2,0,B|84:312,1,100,8|0
164,372,71961,2,0,B|188:276,1,100,8|0
272,220,72761,2,0,B|324:212|372:224|372:224|424:212|476:220,1,200,8|8
420,304,73961,5,0
320,304,74361,2,0,B|272:311|220:299|220:299|172:311|120:303,1,200,8|8
24,272,75561,1,0
16,172,75961,1,8
108,136,76361,1,0
172,212,76761,1,8
208,120,77161,6,0,B|284:156|264:248,2,150,4|2|0
172,212,78761,2,0,B|136:288|44:268,2,150,4|2|0
80,172,80361,6,0,B|4:136|24:44,2,150,4|2|0
124,80,81961,2,0,B|160:4|252:24,2,150,4|2|0
220,112,83561,6,0,B|276:116|312:176,1,100,4|2
212,208,84361,2,0,B|208:264|148:300,1,100,0|2
108,204,85161,2,0,B|52:200|16:140,1,100,4|2
116,108,85961,2,0,B|120:52|180:16,1,100,0|2
220,108,86761,5,4
368,84,87361,1,0
324,228,87961,2,0,B|304:288|232:280,1,100,2|2
108,224,88961,1,0
220,124,89561,1,2
124,100,89961,6,0,B|160:12|260:36|260:36,2,150,4|2|0
104,196,91561,2,0,B|106:182|82:282|170:318,2,150,4|2|0
200,168,93161,5,4
316,260,93761,1,4
344,112,94361,1,4
256,192,94761,12,0,99361
