osu file format v9

[General]
AudioFilename: SWEET ANGEL.mp3
AudioLeadIn: 2000
PreviewTime: 38561
Countdown: 0
SampleSet: Soft
StackLeniency: 0.7
Mode: 0
LetterboxInBreaks: 0

[Editor]
Bookmarks: 49783
DistanceSpacing: 0.8
BeatDivisor: 2
GridSize: 4

[Metadata]
Title:SWEET ANGEL
Artist:Motoaki Furukawa
Creator:bossandy
Version:Advanced
Source:jubeat ripples
Tags:spboxer3 ZHSteven No_Gu

[Difficulty]
HPDrainRate:4
CircleSize:3
OverallDifficulty:5
ApproachRate:5
SliderMultiplier:1.4
SliderTickRate:2

[Events]
//Background and Video events
0,0,"bg.png"
//Break Periods
//Storyboard Layer 0 (Background)
//Storyboard Layer 1 (Fail)
//Storyboard Layer 2 (Pass)
//Storyboard Layer 3 (Foreground)
//Storyboard Sound Samples
//Background Colour Transformations
3,100,163,162,255

[TimingPoints]
361,400,4,2,1,60,1,0
1561,-100,4,1,1,60,0,0
1961,-100,4,2,1,60,0,0
3161,-100,4,1,1,60,0,0
3561,-100,4,2,1,60,0,0
4761,-100,4,1,1,60,0,0
5161,-100,4,2,1,60,0,0
6361,-100,4,1,1,60,0,0
6761,-100,4,2,1,60,0,0
7961,-100,4,1,1,60,0,0
8161,-100,4,2,1,60,0,0
9561,-100,4,1,1,60,0,0
9961,-100,4,2,1,60,0,0
38761,-100,4,2,1,60,0,1
51461,-100,4,2,1,60,0,0
51561,-100,4,2,1,60,0,1
64361,-100,4,2,1,60,0,0
77961,-100,4,2,2,60,0,0
80761,-100,4,1,1,60,0,0
80961,-100,4,2,2,60,0,0
82361,-100,4,1,1,60,0,0
82561,-100,4,2,2,60,0,0
86761,-100,4,2,2,80,0,0
87161,-100,4,1,1,80,0,0
87361,-100,4,2,2,80,0,0
88761,-100,4,1,1,80,0,0
88961,-100,4,2,2,80,0,0
90361,-100,4,1,1,80,0,0
90561,-100,4,2,2,80,0,0
91561,-100,4,2,1,80,0,0
91961,-100,4,1,1,80,0,0
92161,-100,4,2,2,80,0,0
93161,-100,4,2,1,80,0,0
94761,-100,4,2,1,30,0,0
99361,-100,4,2,1,5,0,0

[Colours]
Combo1 : 202,255,255
Combo2 : 255,102,255
Combo3 : 255,255,155

[HitObjects]
400,288,361,2,0,B|336:344|232:264|288:176,1,210,2|0
356,112,1361,1,0
356,112,1561,1,0
256,60,1961,2,0,B|40:60,1,210,2|0
120,144,2961,2,0,B|188:144,1,70,0|0
256,236,3561,5,4
416,180,4161,1,0
424,292,4561,2,0,B|352:292,1,70,0|0
256,236,5161,2,0,B|216:296|112:296|76:236,2,210,2|0|0
256,124,6761,6,0,B|157:95|157:95|49:122,2,210,4|0|0
316,216,8361,2,0,B|396:168|376:48|292:36,2,210
208,192,9961,6,0,B|132:212|132:332|208:352,1,210,4|2
284,272,10961,1,2
228,272,11161,2,0,B|76:272,1,140,0|2
116,108,12161,2,0,B|164:64|248:112|256:160|256:160|264:112|348:64|396:108,1,350,2|4
472,192,13561,6,0,B|472:344,2,140,8|0|8
460,80,14761,2,0,B|468:136|412:180|360:180,1,140,0|8
336,140,15361,1,0
292,244,15761,2,0,B|208:244,1,70,0|8
256,136,16361,6,0,B|187:136|187:136|124:80,1,140,0|8
88,56,16961,2,0,B|48:60|28:108|68:140|68:140|144:208,1,210,0|8
28,216,17961,2,0,B|88:276|100:280|100:280|112:288|160:316|228:268,2,210,0|0|8
56,108,19561,5,0
160,72,19961,1,8
264,112,20361,1,0
176,184,20761,1,8
192,296,21161,6,0,B|256:248|320:296,1,140,0|8
320,296,21761,1,0
404,224,22161,2,0,B|476:224,1,70,0|8
440,116,22761,6,0,B|400:84|352:84|312:116,1,140,0|8
200,116,23561,2,0,B|159:148|111:148|71:116,1,140,0|8
256,192,24361,12,4,25961
256,192,26761,6,0,B|180:192|152:272,1,140,2|8
256,316,27561,2,0,B|400:316,1,140,2|8
456,220,28361,2,0,B|456:80,1,140,2|8
344,92,29161,6,0,B|280:144|216:92,1,140,6|8
104,80,29961,1,2
140,184,30361,1,8
52,256,30761,2,0,B|96:320|176:292,1,140,2|8
256,212,31561,1,2
332,296,31961,2,0,B|401:296,2,70,8|8|4
368,192,32761,6,0,B|356:116|276:96,2,140,8|2|8
256,192,33961,2,0,B|216:120|144:124,1,140,2|8
120,232,34761,2,0,B|52:264|52:368,2,140,2|8|6
204,312,35961,1,8
304,264,36361,1,2
400,320,36761,1,8
464,228,37161,6,0,B|424:172|440:92|440:92|356:96|276:28,2,280,2|2|4
400,320,39161,6,0,B|340:268|264:288,1,140,10|0
156,280,39961,1,10
56,232,40361,2,0,B|80:168|56:116|56:116|116:96|132:48,2,210,0|2|8
112,328,41961,5,4
56,232,42361,1,10
168,244,42761,2,0,B|236:204|228:120,1,140,0|10
328,76,43561,2,0,B|400:76,2,70,0|0|10
396,164,44361,2,0,B|324:164,2,70,0|0|10
496,216,45161,5,4
400,272,45561,1,10
292,240,45961,2,0,B|216:244|180:316,1,140,0|10
72,344,46761,2,0,B|37:276|81:209,1,140,0|10
108,164,47361,2,0,B|224:192|280:80,1,210,2|10
392,68,48361,5,4
472,148,48761,1,10
364,172,49161,1,0
440,252,49561,1,10
332,276,49961,2,0,B|192:276,1,140,0|10
88,312,50761,1,0
112,204,51161,2,0,B|56:160,2,70,10|8|4
220,176,51961,6,0,B|188:104|252:44,1,140,10|0
296,76,52561,2,0,B|336:80|368:56,1,70,0|10
412,160,53161,1,0
408,272,53561,1,10
400,328,53761,2,0,B|360:360|308:360|272:328,1,140
268,272,54361,1,10
172,328,54761,5,4
72,276,55161,2,0,B|43:247|43:219|43:219|43:187|3:159,2,140,10|0|10
172,328,56361,2,0,B|238:276|198:204,1,140,0|10
156,168,56961,2,0,B|136:136|100:128,1,70
192,64,57561,2,0,B|348:64,1,140,10|4
444,64,58361,5,10
372,152,58761,1,0
484,172,59161,1,10
408,256,59561,2,0,B|340:300|340:300|276:300,1,140,0|10
282,300,60161,1,0
168,300,60561,1,0
168,300,60761,1,10
68,248,61161,6,0,B|68:104,1,140,4|10
168,156,61961,2,0,B|269:54,1,140,0|10
320,156,62761,2,0,B|460:156,3,140,0|10|0|10
388,240,64361,1,4
256,344,64961,5,2
256,344,65161,2,0,B|116:344,1,140,0|8
56,252,65961,2,0,B|196:252,1,140,0|8
124,164,66761,2,0,B|264:164,1,140,0|8
256,52,67561,5,0
360,96,67961,2,0,B|424:132|492:88,2,140,8|0|8
256,52,69161,1,0
152,96,69561,2,0,B|88:132|20:88,2,140,8|0|8
256,140,70761,6,0,B|224:204|136:216,1,140,0|8
200,312,71561,1,0
312,312,71961,1,8
367,214,72361,2,0,B|288:204|256:140,1,140,0|8
324,52,73161,2,0,B|256:24|188:52,1,140,0|8
256,192,73961,12,4,77161
200,68,77961,6,0,B|60:68,2,140,0|8|0
312,68,79161,2,0,B|452:68,2,140,8|0|8
256,164,80361,6,0,B|232:240|132:256|84:208,2,210,4|0|8
368,168,81961,2,0,B|447:171|488:263|455:322,2,210,4|0|8
348,280,83561,5,4
236,280,83961,2,0,B|176:316,1,70,8|0
72,276,84561,2,0,B|132:239,1,70,0|8
72,144,85161,2,0,B|140:116|208:144,1,140,4|8
252,176,85761,2,0,B|320:204|388:176,1,140,0|0
432,140,86361,1,8
348,64,86761,6,0,B|292:76|256:28|256:28|220:76|164:64,2,210,4|0|8
348,176,88361,2,0,B|291:163|255:211|255:211|219:163|163:175,2,210,0|0|8
416,268,89961,6,0,B|380:356|300:356|268:328|256:296|256:296|244:328|212:356|132:356|96:268,1,420,4|8
96,156,91561,2,0,B|132:68|212:68|244:96|256:128|256:128|268:96|300:68|380:68|416:156,1,420,4|8
328,224,93161,6,0,B|312:292|256:308|200:292|184:224,2,210,2|2|2
256,192,94761,12,0,99361
