osu file format v9

[General]
AudioFilename: Motel - Dime Ven.mp3
AudioLeadIn: 0
PreviewTime: 52754
Countdown: 0
SampleSet: Soft
StackLeniency: 0.7
Mode: 0
LetterboxInBreaks: 0

[Editor]
Bookmarks: 13456,26697,39939,53180,66421,79663,92904,106146,119387,132628,145870,159111,172352,182283,198835
DistanceSpacing: 1
BeatDivisor: 4
GridSize: 8

[Metadata]
Title:Dime Ven
Artist:Motel
Creator:ErufenRito
Version:Hard
Source:
Tags:Kenezz Vicho-Kun Gonzvlo Astom

[Difficulty]
HPDrainRate:6
CircleSize:5
OverallDifficulty:6
ApproachRate:7
SliderMultiplier:1.4
SliderTickRate:2

[Events]
//Background and Video events
0,0,"BG.jpg"
//Break Periods
2,79862,91992
2,172552,181371
//Storyboard Layer 0 (Background)
//Storyboard Layer 1 (Fail)
//Storyboard Layer 2 (Pass)
//Storyboard Layer 3 (Foreground)
//Storyboard Sound Samples
//Background Colour Transformations
3,100,0,0,0

[TimingPoints]
203,413.793103448276,4,2,1,100,1,0
26634,-100,4,2,1,100,0,0
29892,-100,4,2,1,71,0,0
30099,-100,4,2,1,100,0,0
35065,-100,4,1,1,51,0,0
35271,-100,4,2,1,100,0,0
38996,-100,4,1,1,51,0,0
39203,-100,4,2,1,100,0,0
39409,-100,4,1,1,70,0,0
39616,-100,4,2,1,100,0,0
53168,-100,4,2,1,100,0,1
66306,-100,4,1,1,100,0,0
66409,-100,4,2,1,100,0,1
79651,-100,4,2,1,100,0,0
105927,-100,4,2,1,100,0,0
109340,-100,4,2,1,70,0,0
109547,-100,4,2,1,100,0,0
112651,-100,4,2,1,70,0,0
112858,-100,4,2,1,100,0,0
116013,-100,4,2,1,69,0,0
116116,-100,4,2,1,100,0,0
118703,-100,4,1,1,70,0,0
118806,-100,4,2,1,100,0,0
119271,-100,4,1,1,70,0,0
119478,-100,4,2,1,100,0,0
132616,-74.0740740740741,4,2,1,100,0,1
145754,-100,4,1,1,100,0,0
145858,-100,4,2,1,100,0,1
152789,-100,4,1,1,70,0,1
152996,-100,4,2,1,100,0,1
154444,-100,4,1,1,69,0,1
154651,-100,4,2,1,100,0,1
155685,-83.3333333333333,4,2,1,100,0,1
158168,-100,4,2,1,100,0,1
159099,-100,4,1,1,100,0,0
159203,-100,4,2,1,100,0,0
182271,-100,4,2,1,70,0,0
183306,-100,4,2,1,79,0,0
184134,-100,4,2,1,89,0,0
184961,-100,4,2,1,100,0,0
185582,-100,4,2,1,100,0,1
192565,-100,4,1,1,71,0,1
192668,-100,4,2,1,100,0,1
194220,-100,4,1,1,68,0,1
194323,-100,4,2,1,100,0,1
195461,-100,4,2,1,71,0,1
195565,-100,4,2,1,100,0,1
198720,-100,4,1,1,100,0,0
198823,-100,4,2,1,100,0,1
209168,-100,4,2,1,100,0,0
209530,-100,4,2,1,100,0,0
209582,-100,4,1,1,100,0,0
210409,-100,4,2,1,100,0,0
210461,-100,4,2,1,100,0,0
210771,-100,4,2,1,100,0,0
210823,-100,4,1,1,100,0,0
210875,-100,4,1,1,100,0,0

[Colours]
Combo1 : 187,151,4
Combo2 : 249,255,117
Combo3 : 245,251,21
SliderBorder : 200,200,200

[HitObjects]
88,240,13444,2,0,B|140:300|224:276,1,140,4|8
272,316,14065,2,0,B|224:252|268:172,1,140,2|2
332,200,14685,1,8
188,48,15306,1,0
188,48,15513,2,0,B|124:88|28:72,2,140,8|2|8
236,96,16547,1,0
236,96,16754,6,0,B|392:96,1,140,0|8
412,36,17375,1,2
376,96,17582,1,0
408,160,17789,1,0
408,160,17996,2,0,B|360:228|408:304,1,140,8|0
352,340,18616,1,2
352,340,18823,2,0,B|200:340,1,140,8|0
156,296,19444,1,2
156,296,19651,1,8
228,176,20065,5,4
112,108,20478,2,0,B|132:60|172:32|224:24|276:32|316:60|336:108,1,280,8|8
408,224,21720,1,0
408,224,21927,1,2
380,288,22134,1,8
252,340,22547,1,2
192,300,22754,1,0
136,340,22961,1,8
80,300,23168,5,0
80,300,23271,1,0
80,300,23375,2,0,B|124:232|124:232|124:156,1,140,2|8
100,80,23996,2,0,B|56:148|56:148|56:224,1,140,2|0
56,207,24616,1,8
252,284,25237,1,2
324,284,25444,1,8
452,236,25858,1,2
476,168,26065,1,0
448,104,26271,1,8
308,160,26685,6,0,B|296:120|256:108|216:120|204:160,1,140,4|8
204,224,27306,2,0,B|216:264|256:276|296:264|308:224,1,140,2|2
368,269,27927,2,0,B|348:317|308:345|256:353|204:345|164:317|144:269,1,280,8|8
200,144,29168,2,0,B|224:120|224:80,1,70,0|2
287,80,29582,2,0,B|288:120|312:144,1,70,8|2
256,180,29996,1,4
256,298,30409,5,8
320,292,30616,2,0,B|320:332|296:368|256:376|216:368|192:332|192:292,2,210,0|8|2
320,292,32065,1,8
228,128,32685,2,0,B|276:128|276:128|296:128|336:128|348:80,1,140,2|2
284,64,33306,2,0,B|236:64|236:64|216:64|176:64|164:112,1,140,4|8
164,108,33927,1,2
256,216,34340,1,2
200,264,34547,2,0,B|216:300|256:312|296:300|312:264,1,140,8|0
300,167,35168,5,0
212,167,35375,1,8
200,48,35789,2,0,B|216:12|256:4|296:12|312:48,1,140,2|8
256,80,36409,1,2
312,112,36616,2,0,B|296:148|256:156|216:148|200:112,1,140,2|8
156,156,37237,5,0
189,277,37651,1,0
189,277,37858,2,0,B|233:241|307:315|294:357|256:373|217:357|205:315|278:241|323:277,1,280,2|8
356,156,39099,1,0
292,152,39306,1,2
224,152,39513,1,0
273,12,39927,6,0,B|348:24|388:88,1,140,4|8
356,156,40547,1,2
364,232,40754,2,0,B|395:257|452:255,1,70
458,327,41168,2,0,B|392:363|313:350,1,140,8|0
322,351,41789,1,2
292,273,41996,2,0,B|215:265|143:322,3,140,8|2|8|2
80,281,43444,1,2
89,197,43651,6,0,B|69:108,1,70,8|0
133,69,44065,2,0,B|153:158,1,70,0|2
204,200,44478,2,0,B|278:186|293:95,1,140,8|0
356,48,45099,1,0
376,129,45306,2,0,B|435:167|539:159,2,140,8|2|8
364,212,46340,1,2
432,260,46547,1,2
396,336,46754,1,0
313,323,46961,6,0,B|260:367|172:353,1,140,8|0
99,378,47582,1,2
118,296,47789,2,0,B|154:226|115:154,1,140,8|0
37,138,48409,1,2
98,81,48616,2,0,B|81:45|95:-5,2,70,8|2|8
177,51,49237,1,2
221,122,49444,2,0,B|258:112|298:128,1,70,8|0
329,199,49858,5,4
459,92,50271,1,8
459,92,50478,1,2
379,335,50892,1,2
379,335,51099,2,0,B|339:334|296:378,1,70,8|2
297,279,51513,2,0,B|152:259,1,140,4|8
152,152,52134,2,0,B|80:152|46:232,1,140,2|2
68,304,52754,1,8
140,332,52961,1,0
216,312,53168,5,4
296,312,53375,1,0
256,248,53582,2,0,B|256:176,1,70,8|0
208,120,53996,2,0,B|208:88|256:48|304:88|304:120,2,140,0|8|0
176,192,55030,1,0
216,256,55237,1,8
296,256,55444,1,0
344,192,55651,2,0,B|400:152,2,70,0|0|8
256,192,56272,1,0
256,192,56479,5,4
312,144,56685,1,0
256,96,56892,1,8
200,144,57099,1,0
128,128,57306,2,0,B|80:192|128:256,1,140,0|8
200,240,57927,1,0
256,288,58134,1,0
312,240,58340,1,0
383,256,58547,2,0,B|432:192|384:128,2,140,8|0|8
312,240,59582,1,0
312,240,59789,5,4
360,176,59996,1,0
312,112,60203,2,8,B|362:61,2,70,8|0|0
256,160,60823,1,0
200,112,61030,2,0,B|149:61,2,70,8|0|0
152,176,61651,1,0
200,240,61858,1,8
256,296,62065,1,0
320,344,62271,2,0,B|272:359|256:375|256:375|240:359|195:345,1,140,0|8
256,192,63099,5,4
304,136,63306,1,0
352,72,63513,2,0,B|392:88|392:128,1,70,8|0
384,200,63927,2,0,B|368:240|328:232,1,70,0|0
256,192,64341,1,8
208,136,64547,1,0
160,72,64754,2,0,B|120:88|120:128,1,70,4|0
128,200,65168,2,0,B|144:240|184:232,1,70,8|0
200,304,65582,2,0,B|240:312|256:344|256:344|272:312|312:304,1,140,4|8
112,240,66409,6,0,B|96:276|100:320,2,70,4|0|8
112,240,67030,1,0
84,176,67237,2,0,B|116:240|212:236,1,140,0|8
240,296,67858,2,0,B|264:260|320:260,1,70
316,328,68271,2,0,B|364:316|380:272,1,70,0|8
432,324,68685,2,0,B|392:256|420:164,1,140
413,188,69306,1,8
424,48,69720,6,0,B|344:76,1,70
318,129,70134,2,0,B|306:89|238:73,1,70,8|0
216,36,70547,2,0,B|192:104|88:120,1,140,0|8
64,172,71168,1,0
64,172,71375,1,0
80,240,71582,1,0
64,308,71789,2,0,B|120:264|216:276,1,140,8|0
224,340,72409,2,0,B|264:352|316:332,1,70,0|8
332,280,72823,1,0
400,268,73030,1,4
444,208,73237,5,0
384,168,73444,1,8
312,168,73651,1,0
256,208,73858,1,0
256,208,74065,2,0,B|256:288,2,70,0|8|0
256,208,74685,5,0
200,168,74892,1,0
128,168,75099,1,8
72,208,75306,1,0
128,168,75513,1,0
200,168,75720,1,0
256,208,75927,1,8
336,320,76340,6,0,B|420:320,1,70,4|0
392,248,76754,2,0,B|308:248,2,70,8|0|0
176,320,77582,6,0,B|92:320,1,70,8|0
120,248,77996,2,0,B|204:248,2,70,0|0|8
64,196,78616,1,0
64,196,78720,1,8
64,196,78823,2,0,B|48:160|72:116,2,70,8|0|8
64,196,79444,2,0,B|80:232|56:276,1,70,0|4
456,168,92892,5,4
456,168,93306,2,0,B|380:76|268:132,1,210,8|0
200,152,94134,1,8
104,256,94547,2,0,B|188:232|248:300,1,140,0|8
364,340,95375,1,0
364,340,95582,1,0
364,340,95789,2,0,B|448:312|448:224,1,140,8|0
288,196,96616,5,8
288,196,96823,1,0
288,196,97030,2,0,B|196:200|168:136,1,140,0|8
64,208,97858,1,0
64,208,98065,1,0
64,208,98271,2,0,B|172:208|212:336,1,210,8|0
280,320,99099,1,8
276,188,99513,6,0,B|296:236|368:236|388:188,1,140,0|8
388,188,100134,1,0
308,116,100547,1,0
308,116,100754,2,0,B|264:64|164:64|120:116,1,210,8|0
120,116,101582,1,8
256,352,102409,5,8
112,304,102823,2,0,B|192:308|248:240,1,140,0|8
308,264,103444,2,0,B|344:192|432:168,1,140
416,104,104065,1,8
484,100,104271,6,0,B|376:120|332:60,1,140
276,92,104892,1,8
316,148,105099,2,0,B|280:60|204:76,1,140,0|4
140,80,105720,1,8
248,168,106134,6,0,B|162:173|106:137,1,140,4|8
44,152,106754,2,0,B|44:225|97:300,1,140,2|2
150,234,107375,2,0,B|260:227|375:277,1,210,8|2
355,268,108203,1,8
387,46,108616,1,2
165,14,109030,1,8
120,233,109444,5,4
120,233,109858,2,0,B|80:252|45:300,1,70,8|2
30,198,110271,1,0
30,198,110478,1,0
105,160,110685,2,0,B|203:119|246:-3,1,210,8|2
241,8,111513,1,8
430,126,111927,1,2
299,307,112340,1,2
114,179,112754,5,4
114,179,113168,2,0,B|72:193|28:162,1,70,8|2
90,101,113582,1,0
39,33,113789,1,2
122,21,113996,2,0,B|206:19|262:87,1,140,8|0
269,153,114616,1,2
347,124,114823,2,0,B|412:151|502:145,2,140,8|2|2
330,206,115858,5,0
330,206,116065,2,0,B|325:281|272:333,1,140,4|8
217,268,116685,2,0,B|52:257,1,140,2|0
20,195,117306,1,8
5,112,117513,2,0,B|42:32|149:36,3,140,2|2|2|0
126,120,118961,1,8
256,280,119375,5,4
336,144,119789,2,0,B|400:88|400:200|456:144,2,140,8|0|8
176,144,121030,2,0,B|112:88|112:200|56:144,2,140,0|8|0
160,216,122065,1,0
208,280,122271,2,0,B|157:330,2,70,8|0|4
352,216,123099,5,8
352,216,123306,1,0
304,280,123513,2,0,B|354:330,2,70,0|0|8
192,168,124340,2,0,B|256:120|320:168,2,140,0|8|0
176,320,125582,1,8
336,320,125996,1,4
256,192,126203,12,0,128478
216,128,128892,5,8
304,128,129099,1,0
336,200,129306,2,0,B|360:232|336:264,2,70,0|0|8
256,224,129927,1,0
176,200,130134,2,0,B|152:232|176:264,2,70,0|0|8
256,80,130961,5,0
256,160,131168,1,0
336,192,131375,1,8
296,264,131582,1,0
216,264,131789,5,8
184,232,131892,1,0
176,192,131996,1,0
256,200,132203,1,4
256,280,132409,1,0
256,312,132513,1,0
256,344,132616,5,4
189,308,132823,1,0
145,372,133030,2,0,B|225:300|177:200,1,189.000006195903,8|0
143,133,133651,1,0
177,200,133858,5,8
101,202,134065,1,0
137,268,134271,2,0,B|105:152|-18:159,2,189.000006195903,0|8|8
92,328,135306,1,8
136,268,135513,1,8
208,248,135720,1,0
280,268,135927,1,4
224,320,136134,6,0,B|256:368|304:352,1,94.5000030979515,0|8
384,340,136547,1,0
347,273,136754,2,0,B|352:164|452:124,1,189.000006195903,0|8
396,76,137375,5,0
339,128,137582,2,8,B|255:212|176:120,1,189.000006195903,0|8
173,204,138203,1,8
112,160,138409,1,0
52,216,138616,1,0
84,284,138823,1,8
160,280,139030,6,0,B|232:260|256:336,1,94.5000030979515,8|4
284,256,139444,1,0
336,316,139651,2,0,B|244:252|280:144,1,189.000006195903,8|0
204,184,140271,1,0
136,148,140478,1,8
136,224,140685,6,0,B|80:176|32:240,1,94.5000030979515
92,288,141099,1,0
92,288,141306,2,8,B|176:372|264:292,1,189.000006195903,8|0
408,288,142134,1,8
328,156,142547,5,4
408,92,142754,1,0
408,196,142961,2,8,B|324:112|244:200,1,189.000006195903,8|0
96,344,143789,5,8
20,272,143996,1,0
60,176,144203,2,0,B|168:176|208:76,1,189.000006195903,0|8
212,184,144823,1,8
320,156,145030,6,0,B|392:48|504:124,1,189.000006195903,0|8
464,224,145651,1,8
352,232,145858,6,0,B|352:280|352:280|352:300|352:340|304:352,1,140,4|8
288,288,146478,2,0,B|288:240|288:240|288:220|288:180|336:168,1,140,2|2
288,120,147099,1,10
224,120,147306,1,0
179,168,147513,2,0,B|224:180|224:220|224:240|224:240|224:288,1,140,0|8
204,351,148134,2,0,B|160:340|160:300|160:280|160:280|160:232,1,140,2|2
160,231,148754,1,8
256,68,149168,5,4
192,88,149375,2,0,B|175:52|195:16|226:-9|264:1,1,140,2|2
319,47,149996,2,0,B|337:83|317:119|285:144|247:133,1,140,2|8
208,184,150616,1,2
176,240,150823,1,0
224,284,151030,2,0,B|240:296|256:300|272:296|288:284,1,70,2|8
336,240,151444,1,2
304,184,151651,1,0
256,68,152065,1,8
316,48,152271,6,0,B|356:48|356:48|388:48|428:48|444:16,1,140,2|2
504,36,152892,1,4
196,336,153927,6,0,B|156:336|156:336|124:336|84:336|68:368,1,140,2|2
8,348,154547,1,4
294,237,155789,6,0,B|312:243|327:262|333:285|326:306,1,84.0000020027161,4|2
296,369,156203,2,0,B|281:383|258:387|234:383|220:369,1,84.0000020027161,8|2
190,306,156616,2,0,B|182:285|189:262|203:243|222:236,1,84.0000020027161,0|2
221,169,157030,6,0,B|202:162|187:143|181:120|188:99,1,84.0000020027161,8|2
219,37,157444,2,0,B|233:22|256:18|280:22|294:37,1,84.0000020027161,0|2
325,100,157858,2,0,B|332:120|325:143|311:162|292:169,1,84.0000020027161,8|2
256,244,158271,5,8
256,256,158375,1,0
256,268,158478,1,2
256,280,158582,1,0
256,292,158685,1,8
256,116,159099,5,4
204,68,159306,6,0,B|164:88|160:128,1,70,0|8
160,192,159720,2,0,B|124:164|68:172,2,70
184,256,160340,1,8
296,340,160754,1,0
408,256,161168,2,0,B|368:188|384:112,1,140,8|0
320,92,161789,1,0
320,92,161892,1,0
320,92,161996,2,0,B|252:56|176:64,1,140,8|4
160,128,162616,5,0
160,128,162823,2,0,B|112:124|80:88,2,70,8|0|0
148,196,163444,1,0
148,196,163651,2,0,B|236:212|284:284,1,140,8|0
296,328,164271,2,0,B|312:288|364:276,1,70,0|8
415,281,164685,1,0
415,281,164789,1,0
415,281,164892,2,0,B|375:205|391:129,1,140,0|8
256,192,165720,12,8,167789
112,284,168203,5,0
184,308,168409,1,0
256,284,168616,1,8
384,340,169030,5,0
384,340,169134,1,0
384,340,169237,1,0
432,288,169444,1,8
440,220,169651,6,0,B|484:220,2,35
432,148,170065,1,0
388,92,170271,5,8
388,92,170375,1,0
388,92,170478,1,0
324,68,170685,1,0
256,88,170892,6,0,B|204:88,2,35,0|0|8
368,156,171306,1,0
348,248,171513,1,0
256,288,171720,1,8
164,248,171927,1,8
144,156,172134,1,8
256,124,172340,5,4
444,164,182271,5,2
416,243,182478,1,0
334,222,182685,2,0,B|277:226|247:266,2,70,2|0|2
316,139,183306,1,0
244,95,183513,2,0,B|219:61|229:2,1,70,2|2
151,67,183927,5,8
151,67,184030,1,0
151,67,184134,1,0
151,67,184237,1,0
151,67,184340,2,0,B|121:141,1,70,8|2
124,131,184651,1,0
124,131,184754,1,8
124,131,184858,1,0
124,131,184961,2,0,B|102:176|113:224,1,70,0|8
114,240,185271,1,0
142,270,185375,1,2
180,286,185478,1,0
221,292,185582,6,0,B|277:229|374:236,1,140,4|8
378,312,186202,1,2
439,255,186409,2,0,B|444:176|483:114,1,140,0|8
416,64,187030,1,2
335,87,187237,2,0,B|327:12,1,70,0|2
260,68,187651,2,0,B|270:149|215:222,1,140,8|2
154,161,188271,1,2
154,161,188478,1,8
231,310,188892,6,0,B|296:353|398:340,1,140,4|8
352,259,189513,1,2
352,259,189720,2,0,B|367:184|349:120,1,140,0|8
410,62,190340,1,2
344,9,190547,2,0,B|252:3,1,70
226,74,190961,2,0,B|140:88|94:152,1,140,8|0
24,163,191582,1,2
60,238,191789,6,0,B|49:277|6:295,2,70,8|2|0
124,292,192409,1,2
206,275,192616,2,0,B|285:275|354:325,1,140,4|2
412,355,193237,1,0
433,273,193444,6,0,B|479:276|515:248,1,70,8|2
464,181,193858,1,0
464,181,194065,1,2
382,161,194271,2,0,B|365:79|304:27,1,140,4|0
240,3,194892,1,2
157,17,195099,1,8
107,84,195306,1,2
116,167,195513,6,0,B|111:207|78:238,1,70,4|2
169,245,195927,2,0,B|192:320|288:336,1,140,8|2
396,217,196754,2,0,B|401:177|434:146,1,70,8|0
343,139,197168,2,0,B|320:64|224:48,1,140,0|2
256,272,197996,5,8
256,248,198099,1,0
256,224,198202,1,2
256,200,198306,1,0
256,176,198409,1,8
72,248,198823,6,0,B|36:232|24:192|36:152|72:136,1,140,4|8
12,100,199444,2,0,B|-32:133|-40:193|-32:253|12:285,1,210,2|8
11,284,200271,1,2
255,159,200685,2,0,B|264:188|256:192|248:200|256:228,1,70,2|8
212,284,201099,1,2
196,352,201306,2,0,B|216:384|256:388|296:384|316:352,1,140,2|8
440,248,202134,6,0,B|476:232|488:192|476:152|440:136,1,140,4|8
500,99,202754,2,0,B|544:132|552:192|544:252|500:284,1,210,2|8
500,283,203582,1,2
256,224,203996,2,0,B|248:196|256:192|264:184|256:156,1,70,2|8
300,100,204409,1,2
316,32,204616,2,0,B|296:0|256:-4|216:0|196:32,1,140,2|8
256,192,205237,12,2,208754
40,64,209168,5,4
472,64,209582,1,4
40,320,210409,5,4
472,320,210823,1,4
