osu file format v9

[General]
AudioFilename: Motel - Dime Ven.mp3
AudioLeadIn: 0
PreviewTime: 52754
Countdown: 0
SampleSet: Soft
StackLeniency: 0.7
Mode: 0
LetterboxInBreaks: 0

[Editor]
Bookmarks: 13456,26697,39939,53180,66421,79663,92904,106146,119387,132628,137594,145870,159111,172352,182283,198835
DistanceSpacing: 1
BeatDivisor: 4
GridSize: 4

[Metadata]
Title:Dime Ven
Artist:Motel
Creator:ErufenRito
Version:Easy
Source:
Tags:Kenezz Vicho-Kun Gonzvlo Astom

[Difficulty]
HPDrainRate:1
CircleSize:3
OverallDifficulty:1
ApproachRate:3
SliderMultiplier:0.9
SliderTickRate:1

[Events]
//Background and Video events
0,0,"BG.jpg"
//Break Periods
2,79858,91452
2,172552,180831
//Storyboard Layer 0 (Background)
//Storyboard Layer 1 (Fail)
//Storyboard Layer 2 (Pass)
//Storyboard Layer 3 (Foreground)
//Storyboard Sound Samples
//Background Colour Transformations
3,100,163,162,255

[TimingPoints]
203,413.793103448276,4,2,1,100,1,0
26634,-100,4,2,1,100,0,0
29944,-100,4,2,1,72,0,0
30047,-100,4,2,1,100,0,0
33203,-100,4,2,1,69,0,0
33409,-100,4,2,1,100,0,0
39409,-100,4,1,1,70,0,0
39616,-100,4,2,1,100,0,0
53168,-100,4,2,1,100,0,1
66306,-100,4,2,1,100,0,0
66409,-100,4,2,1,100,0,1
79651,-100,4,2,1,100,0,0
109392,-100,4,2,1,68,0,0
109496,-100,4,2,1,100,0,0
112703,-100,4,2,1,72,0,0
112806,-100,4,2,1,100,0,0
116013,-100,4,2,1,70,0,0
116116,-100,4,2,1,100,0,0
119271,-100,4,2,1,71,0,0
119478,-100,4,2,1,100,0,0
132616,-100,4,2,1,100,0,1
145754,-100,4,2,1,100,0,0
145858,-100,4,2,1,100,0,1
152840,-100,4,1,1,68,0,1
153047,-100,4,2,1,100,0,1
154496,-100,4,1,1,69,0,1
154703,-100,4,2,1,100,0,1
159099,-100,4,1,1,100,0,0
159203,-100,4,2,1,100,0,0
182271,-100,4,2,1,69,0,0
183306,-100,4,2,1,86,0,0
184547,-100,4,2,1,100,0,0
185582,-100,4,2,1,100,0,1
198720,-100,4,1,1,100,0,0
198823,-100,4,2,1,100,0,1
209168,-100,4,2,1,100,0,0
209530,-100,4,2,1,100,0,0
209582,-100,4,1,1,100,0,0
210409,-100,4,2,1,100,0,0
210771,-100,4,2,1,100,0,0
210823,-100,4,1,1,100,0,0
210875,-100,4,1,1,100,0,0

[Colours]
Combo1 : 187,151,4
Combo2 : 249,255,117
Combo3 : 245,251,21
SliderBorder : 200,200,200

[HitObjects]
104,316,13444,1,4
104,316,13858,2,0,B|200:304|248:216,1,180,8|8
400,312,15513,1,8
412,224,15927,2,0,B|380:132,1,90,2|8
296,160,16754,5,0
232,220,17168,2,0,B|176:144|196:44,2,180,8|8|8
56,180,19651,2,0,B|128:240|112:352,1,180,8|8
288,300,21306,5,8
428,184,22134,1,8
472,312,22754,2,0,B|408:312,1,45,2|8
352,264,23375,5,0
320,348,23789,2,0,B|248:392|124:364,2,180,8|8|8
256,292,25858,2,0,B|256:240,2,45,2|8|8
304,184,26685,6,0,B|336:168|344:128|336:88|304:72,1,135,4|2
212,72,27720,2,0,B|180:88|172:128|180:168|212:184,1,135,2|0
256,264,28754,1,8
324,320,29168,2,0,B|312:368|256:384|200:368|188:320,1,180,2|4
180,168,30616,6,0,B|156:120|156:120|140:80|148:56|180:32,1,135,2|8
346,44,32065,2,0,B|363:55|371:79|355:119|355:119|331:167,1,135,8|2
256,280,33306,1,4
208,204,33720,2,0,B|208:152,1,45,8|2
304,159,34340,2,0,B|304:204,1,45,2|8
256,32,35375,5,8
336,192,36203,2,0,B|317:245|257:265|257:265|197:245|172:192,1,225,8|2
256,148,37651,2,0,B|256:92,1,45,0|8
0,192,39099,1,2
122,54,39927,6,0,B|77:80|75:157,1,90,4|8
166,144,40754,1,2
122,227,41168,2,0,B|211:231|270:351,1,180,8|8
343,362,42409,1,2
325,273,42823,1,8
188,155,43651,6,0,B|209:105|285:91,1,90,8|2
339,130,44478,2,0,B|390:219|509:197,1,180,8|8
451,280,45720,1,2
363,257,46134,2,0,B|256:265|213:379,1,180,8|8
126,203,47789,1,8
220,52,48616,6,0,B|177:14|123:24,2,90,8|2|8
262,131,49858,2,0,B|268:187|217:243,1,90,2|8
395,303,51099,1,8
452,233,51513,2,0,B|417:188|363:195,2,90,2|8|2
503,159,52754,1,8
432,104,53168,6,0,B|432:64|368:24|304:64|304:104,1,180,4|0
208,104,54409,2,0,B|208:64|144:24|80:64|80:104,1,180,8|8
145,166,55651,2,0,B|209:230,1,90,0|8
304,229,56478,6,0,B|368:165,2,90,0|8|0
344,312,57720,2,0,B|256:344|168:312,2,180,8|8|8
344,224,59789,5,4
344,136,60203,2,0,B|304:96|304:96|236:28|196:68,1,180,8|8
168,152,61444,1,4
168,240,61858,2,0,B|207:279|207:279|275:347|315:307,1,180,8|8
344,224,63099,6,0,B|414:201|421:86|318:35|264:85,2,270,4|8|0
256,192,65996,1,8
260,280,66409,5,4
260,280,66823,2,0,B|236:324|176:328,1,90,8|0
120,268,67650,1,8
55,205,68064,5,2
55,205,68478,2,0,B|79:157|67:105,1,90,8|2
140,60,69306,2,0,B|196:128|312:140,3,180,8|8|8|8
376,192,72203,6,0,B|364:152|388:124|412:120,2,90,2|8|4
408,272,73444,2,0,B|216:272,1,180,10|12
80,168,75099,2,0,B|260:168,1,180,10|12
291,252,76340,6,0,B|247:280|235:332,2,90,2|8|2
363,306,77582,2,0,B|403:330|451:326,2,90,8|2|8
419,235,78823,2,4,B|463:147|415:43,1,180
256,192,92892,5,4
256,192,93306,1,8
76,192,94134,1,8
168,348,94961,1,8
348,348,95789,2,0,B|356:296|420:288,2,90,8|2|8
408,180,97444,6,0,B|320:260|240:164,1,180,8|8
72,176,99099,1,8
32,256,99513,2,0,B|76:296|120:248,1,90,2|8
256,364,100754,5,8
436,364,101582,1,8
348,208,102409,1,8
388,128,102823,6,0,B|344:88|300:136,1,90,2|8
268,304,104065,2,0,B|352:392|436:296,2,180,8|8|8
268,304,106134,6,0,B|204:248|136:268,1,135,4|2
56,244,107168,2,0,B|81:115|217:80,1,225,2|8
276,134,108616,2,0,B|373:129,2,90,2|8|4
371,229,110065,6,0,B|286:235|250:316,1,135,2|8
184,132,111513,1,8
236,58,111927,2,0,B|339:45|385:140,1,180,2|2
453,193,113168,6,0,B|421:292,1,90,8|0
342,247,113996,2,0,B|241:258|191:363,1,180,8|8
115,376,115237,1,2
115,376,115651,1,2
121,286,116065,6,0,B|127:153|46:60,1,225,4|2
132,23,117513,2,0,B|229:9,3,90,2|2|2|2
355,26,119375,5,4
400,104,119789,2,0,B|432:191|400:280,2,180,8|8|8
316,104,121858,2,0,B|268:120|256:168|256:168|244:120|196:104,1,180,0|4
104,96,123099,6,0,B|72:183|104:272,2,180,8|8|8
167,32,125168,1,2
230,95,125582,1,8
256,192,125996,12,2,128478
256,192,129306,5,2
256,280,129720,2,0,B|240:320|272:336|256:368,2,90,8|0|8
176,232,130961,2,0,B|160:160|256:96|352:160|336:232,1,270,4|8
256,272,132616,5,4
332,320,133030,2,0,B|388:324|408:284,2,90,8|2|8
284,248,134271,5,2
196,248,134685,2,0,B|140:252|116:212,2,90,8|0|8
249,175,135927,6,0,B|365:171|389:63,1,180,4|8
330,6,137168,1,2
277,78,137582,2,0,B|304:174|424:174,1,180,4|8
486,226,138823,1,8
406,267,139237,6,0,B|346:335,1,90,2|8
307,252,140065,2,0,B|247:320,1,90,0|8
214,235,140892,2,0,B|142:163,1,90,0|8
80,228,141720,2,0,B|16:164,1,90,0|8
80,96,142547,5,4
80,96,142961,2,0,B|168:24|260:112,1,180,8|8
320,148,144203,5,4
396,96,144616,2,0,B|320:172|400:256,1,180,8|8
332,316,145858,6,0,B|320:348|244:348|256:316|268:284|192:284|180:316,1,180,4|2
92,324,147099,1,8
112,236,147513,1,0
20,236,147927,2,0,B|8:196|32:168|56:164,1,90,8|2
180,44,149168,6,0,B|192:12|268:12|256:44|244:76|320:76|332:44,1,180,4|2
416,12,150409,1,8
400,100,150823,1,0
492,100,151237,2,0,B|504:140|480:168|456:172,1,90,8|2
360,264,152271,6,0,B|300:264|300:264|260:264|232:288,1,135,2|4
152,72,153927,2,0,B|212:72|212:72|252:72|280:48,1,135,2|4
208,308,155789,6,0,B|168:332|120:328,2,90,6|8|2
304,308,157030,2,0,B|344:332|392:328,2,90,8|2|8
328,220,158271,2,0,B|308:176|256:160|204:176|184:220,1,180,2|4
93,220,159513,5,8
260,280,160341,2,0,B|284:324|344:328,1,90,8|2
408,276,161168,1,8
408,276,161582,1,2
364,196,161996,6,0,B|388:148|376:96,1,90,8|4
320,40,162824,2,0,B|376:108|492:120,2,180,8|8|8
230,31,164892,1,2
248,119,165306,6,0,B|400:174|460:299,1,270,8|2
389,348,166961,2,0,B|197:348,2,180,8|8|8
393,256,169030,6,0,B|393:164,1,90,4|8
305,140,169858,2,0,B|305:248,1,90,0|8
221,264,170685,2,0,B|181:288|133:284,3,90,0|8|0|8
117,372,172340,1,4
168,72,182271,6,0,B|168:176,1,90,2|0
168,256,183099,1,2
256,288,183513,2,0,B|256:184,1,90,0|2
256,104,184340,1,8
344,72,184754,2,0,B|344:176,1,90,2|8
344,256,185582,6,0,B|448:264|488:376,1,180,4|2
392,364,186823,2,0,B|296:372,2,90,8|0|8
286,127,188892,6,0,B|182:119|142:7,1,180,4|2
89,92,190134,2,0,B|-7:100,2,90,8|0|8
311,60,191996,6,0,B|392:71|421:159,1,135,2|8
331,298,193444,2,0,B|235:306,2,90,8|2|8
168,84,195513,6,0,B|168:188,1,90,4|8
168,268,196340,1,2
256,300,196754,2,0,B|256:196,1,90,8|2
336,168,197582,1,8
256,124,197996,1,8
176,164,198409,1,8
124,88,198823,6,0,B|36:100|24:180|36:260|124:272,1,270,4|8
255,316,200685,2,0,B|256:204|256:204|256:160|255:128|296:99,1,225,2|8
388,87,202134,6,0,B|476:99|487:180|476:260|388:272,1,270,4|8
255,316,203996,2,0,B|256:204|256:204|256:160|255:128|216:100,1,225,2|8
136,64,205444,6,0,B|176:12|256:-4|336:12|376:64,1,270,6|8
312,184,207306,2,0,B|296:216|256:224|216:216|200:184,1,135,2|2
256,112,208340,1,8
332,276,209168,6,0,B|332:368,1,90,4|4
180,276,210409,6,0,B|180:368,1,90,4|4
