osu file format v14

[General]
AudioFilename: Sakurairo Diary.mp3
AudioLeadIn: 0
PreviewTime: 53275
Countdown: 0
SampleSet: Normal
StackLeniency: 0.7
Mode: 1
LetterboxInBreaks: 0
WidescreenStoryboard: 0

[Editor]
DistanceSpacing: 1
BeatDivisor: 4
GridSize: 32
TimelineZoom: 0.8

[Metadata]
Title:Sakurairo Diary
TitleUnicode:桜色ダイアリー
Artist:Moso Calibration
ArtistUnicode:妄想キャリブレーション
Creator:Nardoxyribonucleic
Version:Muzukashii
Source:冴えない彼女の育てかた♭
Tags:Taiko Saenai Heroine no Sodatekata Flat Saekano Ending TV Size wmfchris
BeatmapID:1310955
BeatmapSetID:621675

[Difficulty]
HPDrainRate:5
CircleSize:5
OverallDifficulty:4.5
ApproachRate:5
SliderMultiplier:1.4
SliderTickRate:1

[Events]
//Background and Video events
0,0,"Megumi2.jpg",0,-20
//Break Periods
//Storyboard Layer 0 (Background)
//Storyboard Layer 1 (Fail)
//Storyboard Layer 2 (Pass)
//Storyboard Layer 3 (Foreground)
//Storyboard Sound Samples

[TimingPoints]
138,392.156862745098,4,1,0,50,1,0
3275,-100,4,1,0,90,0,0
9549,-100,4,1,0,70,0,0
22098,-100,4,1,0,80,0,0
34647,-100,4,1,0,70,0,0
44059,-100,4,1,0,80,0,0
53471,-100,4,1,0,90,0,1
81706,-100,4,1,0,80,0,0

[HitObjects]
256,192,138,5,8,0:0:0:0:
256,192,530,1,0,0:0:0:0:
256,192,726,1,8,0:0:0:0:
256,192,1118,1,0,0:0:0:0:
256,192,1314,1,0,0:0:0:0:
256,192,1510,1,8,0:0:0:0:
256,192,1902,1,0,0:0:0:0:
256,192,2098,1,8,0:0:0:0:
256,192,2294,1,8,0:0:0:0:
256,192,2392,1,8,0:0:0:0:
256,192,2490,1,8,0:0:0:0:
256,192,2687,1,0,0:0:0:0:
256,192,2883,1,8,0:0:0:0:
256,192,3275,1,4,0:0:0:0:
256,192,3667,1,8,0:0:0:0:
256,192,3863,1,0,0:0:0:0:
256,192,4255,1,0,0:0:0:0:
256,192,4451,1,8,0:0:0:0:
256,192,4647,1,8,0:0:0:0:
256,192,4843,1,0,0:0:0:0:
256,192,5236,1,8,0:0:0:0:
256,192,5432,1,0,0:0:0:0:
256,192,5824,1,0,0:0:0:0:
256,192,6020,1,0,0:0:0:0:
256,192,6216,1,12,0:0:0:0:
256,192,6608,1,0,0:0:0:0:
256,192,6804,1,8,0:0:0:0:
256,192,7196,1,8,0:0:0:0:
256,192,7392,1,0,0:0:0:0:
256,192,7490,1,0,0:0:0:0:
256,192,7588,1,0,0:0:0:0:
256,192,7785,1,12,0:0:0:0:
256,192,8177,1,4,0:0:0:0:
256,192,8569,1,4,0:0:0:0:
256,192,8961,1,12,0:0:0:0:
256,192,9157,1,12,0:0:0:0:
256,192,9549,1,4,0:0:0:0:
256,192,9941,1,8,0:0:0:0:
256,192,10334,1,0,0:0:0:0:
256,192,10530,1,8,0:0:0:0:
256,192,10922,1,0,0:0:0:0:
256,192,11314,1,0,0:0:0:0:
256,192,11510,1,8,0:0:0:0:
256,192,11902,1,0,0:0:0:0:
256,192,12294,1,8,0:0:0:0:
256,192,13079,1,8,0:0:0:0:
256,192,13471,1,0,0:0:0:0:
256,192,13667,1,8,0:0:0:0:
256,192,14059,1,0,0:0:0:0:
256,192,14451,1,8,0:0:0:0:
256,192,14647,1,0,0:0:0:0:
256,192,15039,1,8,0:0:0:0:
256,192,15432,1,8,0:0:0:0:
256,192,15824,1,8,0:0:0:0:
256,192,16412,1,8,0:0:0:0:
256,192,16804,1,0,0:0:0:0:
256,192,17196,1,0,0:0:0:0:
256,192,17392,1,8,0:0:0:0:
256,192,17981,1,0,0:0:0:0:
256,192,18373,1,0,0:0:0:0:
256,192,18765,1,0,0:0:0:0:
256,192,18961,1,8,0:0:0:0:
256,192,19549,1,8,0:0:0:0:
256,192,19941,1,0,0:0:0:0:
256,192,20334,1,12,0:0:0:0:
256,192,20726,1,12,0:0:0:0:
256,192,21118,1,4,0:0:0:0:
256,192,21510,1,8,0:0:0:0:
256,192,21706,1,8,0:0:0:0:
256,192,22098,1,12,0:0:0:0:
256,192,22490,1,0,0:0:0:0:
256,192,22687,1,8,0:0:0:0:
256,192,22883,1,0,0:0:0:0:
256,192,23079,1,0,0:0:0:0:
256,192,23275,1,8,0:0:0:0:
256,192,23667,1,8,0:0:0:0:
256,192,23863,1,8,0:0:0:0:
256,192,24059,1,0,0:0:0:0:
256,192,24255,1,8,0:0:0:0:
256,192,24451,1,0,0:0:0:0:
256,192,24843,1,8,0:0:0:0:
256,192,25236,1,0,0:0:0:0:
256,192,25628,1,0,0:0:0:0:
256,192,25824,1,8,0:0:0:0:
256,192,26020,1,0,0:0:0:0:
256,192,26216,1,0,0:0:0:0:
256,192,26412,1,8,0:0:0:0:
256,192,26804,1,0,0:0:0:0:
256,192,27000,1,8,0:0:0:0:
256,192,27196,1,0,0:0:0:0:
256,192,27392,1,8,0:0:0:0:
256,192,27588,1,8,0:0:0:0:
256,192,27981,1,8,0:0:0:0:
256,192,28373,1,8,0:0:0:0:
256,192,28765,1,0,0:0:0:0:
256,192,28961,1,8,0:0:0:0:
256,192,29353,1,0,0:0:0:0:
256,192,29745,1,8,0:0:0:0:
256,192,29941,1,0,0:0:0:0:
256,192,30137,1,0,0:0:0:0:
256,192,30334,1,8,0:0:0:0:
256,192,30726,1,8,0:0:0:0:
256,192,30922,1,0,0:0:0:0:
256,192,31118,1,8,0:0:0:0:
256,192,31510,1,12,0:0:0:0:
256,192,31902,1,8,0:0:0:0:
256,192,32098,1,0,0:0:0:0:
256,192,32196,1,0,0:0:0:0:
256,192,32294,1,0,0:0:0:0:
256,192,32490,1,0,0:0:0:0:
256,192,32687,1,8,0:0:0:0:
256,192,33079,1,12,0:0:0:0:
256,192,33373,1,12,0:0:0:0:
256,192,33667,1,4,0:0:0:0:
256,192,33863,1,4,0:0:0:0:
256,192,34255,1,0,0:0:0:0:
256,192,34647,1,12,0:0:0:0:
256,192,35432,1,8,0:0:0:0:
256,192,35824,1,0,0:0:0:0:
256,192,36216,1,8,0:0:0:0:
256,192,36510,1,0,0:0:0:0:
256,192,36804,1,0,0:0:0:0:
256,192,37000,1,8,0:0:0:0:
256,192,37392,1,0,0:0:0:0:
256,192,37588,1,8,0:0:0:0:
256,192,37981,1,8,0:0:0:0:
256,192,38177,1,0,0:0:0:0:
256,192,38569,1,8,0:0:0:0:
256,192,38961,1,0,0:0:0:0:
256,192,39157,1,8,0:0:0:0:
256,192,39549,1,8,0:0:0:0:
256,192,39941,1,0,0:0:0:0:
256,192,40530,1,0,0:0:0:0:
256,192,40922,1,12,0:0:0:0:
256,192,41706,1,0,0:0:0:0:
256,192,42098,1,8,0:0:0:0:
256,192,42490,1,0,0:0:0:0:
256,192,42785,1,8,0:0:0:0:
256,192,43079,1,0,0:0:0:0:
256,192,43275,1,8,0:0:0:0:
256,192,43667,1,0,0:0:0:0:
256,192,43863,1,8,0:0:0:0:
256,192,44059,1,4,0:0:0:0:
256,192,44451,1,8,0:0:0:0:
256,192,44647,1,0,0:0:0:0:
256,192,44843,1,8,0:0:0:0:
256,192,45236,1,0,0:0:0:0:
256,192,45432,1,8,0:0:0:0:
256,192,45628,1,8,0:0:0:0:
256,192,45824,1,0,0:0:0:0:
256,192,46020,1,8,0:0:0:0:
256,192,46216,1,0,0:0:0:0:
256,192,46412,1,8,0:0:0:0:
256,192,47000,1,0,0:0:0:0:
256,192,47196,1,12,0:0:0:0:
256,192,47392,1,0,0:0:0:0:
256,192,47785,1,8,0:0:0:0:
256,192,47981,1,0,0:0:0:0:
256,192,48177,1,8,0:0:0:0:
256,192,48569,1,0,0:0:0:0:
256,192,48765,1,8,0:0:0:0:
256,192,49059,1,0,0:0:0:0:
256,192,49353,1,8,0:0:0:0:
256,192,49549,1,0,0:0:0:0:
256,192,50137,1,0,0:0:0:0:
256,192,50334,1,12,0:0:0:0:
256,192,50530,1,0,0:0:0:0:
256,192,50922,1,8,0:0:0:0:
256,192,51118,1,0,0:0:0:0:
256,192,51314,1,8,0:0:0:0:
256,192,51706,1,0,0:0:0:0:
256,192,51902,1,12,0:0:0:0:
256,192,52196,1,4,0:0:0:0:
256,192,52490,1,12,0:0:0:0:
256,192,52687,1,12,0:0:0:0:
256,192,53471,1,12,0:0:0:0:
256,192,53667,1,8,0:0:0:0:
256,192,53765,1,8,0:0:0:0:
256,192,53863,1,8,0:0:0:0:
256,192,54059,1,0,0:0:0:0:
256,192,54255,1,8,0:0:0:0:
256,192,54451,1,8,0:0:0:0:
256,192,54843,1,8,0:0:0:0:
256,192,55039,1,0,0:0:0:0:
256,192,55236,1,0,0:0:0:0:
256,192,55432,1,8,0:0:0:0:
256,192,55628,1,8,0:0:0:0:
256,192,56020,1,8,0:0:0:0:
256,192,56216,1,8,0:0:0:0:
256,192,56412,1,0,0:0:0:0:
256,192,56804,1,0,0:0:0:0:
256,192,57000,1,8,0:0:0:0:
256,192,57196,1,0,0:0:0:0:
256,192,57294,1,0,0:0:0:0:
256,192,57392,1,0,0:0:0:0:
256,192,57588,1,0,0:0:0:0:
256,192,57785,1,8,0:0:0:0:
256,192,57981,1,0,0:0:0:0:
256,192,58373,1,0,0:0:0:0:
256,192,58569,1,8,0:0:0:0:
256,192,58765,1,8,0:0:0:0:
256,192,59157,1,0,0:0:0:0:
256,192,59353,1,8,0:0:0:0:
256,192,59745,1,8,0:0:0:0:
256,192,59941,1,8,0:0:0:0:
256,192,60137,1,0,0:0:0:0:
256,192,60334,1,8,0:0:0:0:
256,192,60432,1,8,0:0:0:0:
256,192,60530,1,8,0:0:0:0:
256,192,60726,1,8,0:0:0:0:
256,192,61118,1,8,0:0:0:0:
256,192,61314,1,0,0:0:0:0:
256,192,61510,1,0,0:0:0:0:
256,192,61706,1,8,0:0:0:0:
256,192,61902,1,8,0:0:0:0:
256,192,62294,1,8,0:0:0:0:
256,192,62490,1,8,0:0:0:0:
256,192,62687,1,0,0:0:0:0:
256,192,63079,1,0,0:0:0:0:
256,192,63275,1,8,0:0:0:0:
256,192,63471,1,0,0:0:0:0:
256,192,63569,1,0,0:0:0:0:
256,192,63667,1,0,0:0:0:0:
256,192,63863,1,0,0:0:0:0:
256,192,64059,1,8,0:0:0:0:
256,192,64255,1,12,0:0:0:0:
256,192,64647,1,0,0:0:0:0:
256,192,64843,1,8,0:0:0:0:
256,192,65236,1,0,0:0:0:0:
256,192,65334,1,0,0:0:0:0:
256,192,65432,1,0,0:0:0:0:
256,192,65628,1,8,0:0:0:0:
256,192,66020,1,12,0:0:0:0:
256,192,66216,1,8,0:0:0:0:
256,192,66314,1,8,0:0:0:0:
256,192,66412,1,8,0:0:0:0:
256,192,66608,1,0,0:0:0:0:
256,192,66804,1,8,0:0:0:0:
256,192,67000,1,8,0:0:0:0:
256,192,67392,1,8,0:0:0:0:
256,192,67588,1,0,0:0:0:0:
256,192,67785,1,0,0:0:0:0:
256,192,67981,1,8,0:0:0:0:
256,192,68177,1,8,0:0:0:0:
256,192,68569,1,8,0:0:0:0:
256,192,68765,1,8,0:0:0:0:
256,192,68961,1,0,0:0:0:0:
256,192,69353,1,0,0:0:0:0:
256,192,69549,1,8,0:0:0:0:
256,192,69745,1,0,0:0:0:0:
256,192,69843,1,0,0:0:0:0:
256,192,69941,1,0,0:0:0:0:
256,192,70138,1,0,0:0:0:0:
256,192,70334,1,8,0:0:0:0:
256,192,70530,1,0,0:0:0:0:
256,192,70922,1,0,0:0:0:0:
256,192,71118,1,8,0:0:0:0:
256,192,71314,1,8,0:0:0:0:
256,192,71706,1,0,0:0:0:0:
256,192,71902,1,8,0:0:0:0:
256,192,72294,1,8,0:0:0:0:
256,192,72490,1,8,0:0:0:0:
256,192,72687,1,0,0:0:0:0:
256,192,72883,1,8,0:0:0:0:
256,192,72981,1,8,0:0:0:0:
256,192,73079,1,8,0:0:0:0:
256,192,73275,1,8,0:0:0:0:
256,192,73667,1,8,0:0:0:0:
256,192,73863,1,0,0:0:0:0:
256,192,74059,1,0,0:0:0:0:
256,192,74255,1,8,0:0:0:0:
256,192,74451,1,12,0:0:0:0:
256,192,74843,1,8,0:0:0:0:
256,192,75039,1,8,0:0:0:0:
256,192,75236,1,0,0:0:0:0:
256,192,75628,1,0,0:0:0:0:
256,192,75824,1,8,0:0:0:0:
256,192,76020,1,0,0:0:0:0:
256,192,76118,1,0,0:0:0:0:
256,192,76216,1,0,0:0:0:0:
256,192,76412,1,0,0:0:0:0:
256,192,76608,1,8,0:0:0:0:
256,192,76804,1,12,0:0:0:0:
256,192,77196,1,0,0:0:0:0:
256,192,77392,1,8,0:0:0:0:
256,192,77588,1,0,0:0:0:0:
256,192,77687,1,0,0:0:0:0:
256,192,77785,1,0,0:0:0:0:
256,192,77981,1,8,0:0:0:0:
256,192,78079,1,8,0:0:0:0:
256,192,78177,1,8,0:0:0:0:
256,192,78373,1,8,0:0:0:0:
256,192,78569,1,4,0:0:0:0:
256,192,78961,1,8,0:0:0:0:
256,192,79157,1,4,0:0:0:0:
256,192,79549,1,0,0:0:0:0:
256,192,79745,1,8,0:0:0:0:
256,192,79941,1,12,0:0:0:0:
256,192,80334,1,0,0:0:0:0:
256,192,80530,1,8,0:0:0:0:
256,192,80922,1,8,0:0:0:0:
256,192,81118,1,0,0:0:0:0:
256,192,81314,1,8,0:0:0:0:
256,192,81412,1,8,0:0:0:0:
256,192,81510,1,8,0:0:0:0:
256,192,81706,1,4,0:0:0:0:
256,192,82098,1,8,0:0:0:0:
256,192,82294,1,0,0:0:0:0:
256,192,82687,1,0,0:0:0:0:
256,192,82883,1,8,0:0:0:0:
256,192,83079,1,8,0:0:0:0:
256,192,83275,1,0,0:0:0:0:
256,192,83667,1,8,0:0:0:0:
256,192,83863,1,0,0:0:0:0:
256,192,84255,1,0,0:0:0:0:
256,192,84451,1,0,0:0:0:0:
256,192,84647,1,12,0:0:0:0:
256,192,85039,1,0,0:0:0:0:
256,192,85236,1,8,0:0:0:0:
256,192,85628,1,8,0:0:0:0:
256,192,85824,1,8,0:0:0:0:
256,192,86216,1,12,0:0:0:0:
256,192,86608,1,8,0:0:0:0:
256,192,86804,1,0,0:0:0:0:
256,192,87196,1,0,0:0:0:0:
256,192,87392,1,8,0:0:0:0:
256,192,87490,1,8,0:0:0:0:
256,192,87588,1,8,0:0:0:0:
256,192,87785,1,0,0:0:0:0:
256,192,88177,1,4,0:0:0:0:
256,192,88373,1,4,0:0:0:0:
