osu file format v14

[General]
AudioFilename: Sakurairo Diary.mp3
AudioLeadIn: 0
PreviewTime: 53275
Countdown: 0
SampleSet: Normal
StackLeniency: 0.7
Mode: 1
LetterboxInBreaks: 0
WidescreenStoryboard: 0

[Editor]
DistanceSpacing: 1
BeatDivisor: 2
GridSize: 32
TimelineZoom: 0.8

[Metadata]
Title:Sakurairo Diary
TitleUnicode:桜色ダイアリー
Artist:Moso Calibration
ArtistUnicode:妄想キャリブレーション
Creator:Nardoxyribonucleic
Version:Wmf's Muzukashii
Source:冴えない彼女の育てかた♭
Tags:Taiko Saenai Heroine no Sodatekata Flat Saekano Ending TV Size wmfchris
BeatmapID:1316288
BeatmapSetID:621675

[Difficulty]
HPDrainRate:5
CircleSize:5
OverallDifficulty:4.5
ApproachRate:5
SliderMultiplier:1.4
SliderTickRate:1

[Events]
//Background and Video events
0,0,"Utaha.jpg",0,100
//Break Periods
//Storyboard Layer 0 (Background)
//Storyboard Layer 1 (Fail)
//Storyboard Layer 2 (Pass)
//Storyboard Layer 3 (Foreground)
//Storyboard Sound Samples

[TimingPoints]
138,392.156862745098,4,1,0,50,1,0
3275,-100,4,1,0,90,0,0
9549,-100,4,1,0,70,0,0
22098,-100,4,1,0,80,0,0
34647,-100,4,1,0,70,0,0
44059,-100,4,1,0,80,0,0
53471,-100,4,1,0,90,0,1
78765,-100,4,1,0,70,0,1
81706,-100,4,1,0,80,0,0

[HitObjects]
480,96,138,5,2,0:0:0:0:
480,96,334,1,0,0:0:0:0:
480,96,530,1,0,0:0:0:0:
480,96,726,1,2,0:0:0:0:
480,96,1118,1,0,0:0:0:0:
480,96,1314,1,0,0:0:0:0:
480,96,1510,1,2,0:0:0:0:
480,96,1902,1,0,0:0:0:0:
480,96,2098,1,2,0:0:0:0:
256,192,2294,12,0,3079,0:0:0:0:
480,96,3275,5,6,0:0:0:0:
480,96,3667,1,2,0:0:0:0:
480,96,3863,1,0,0:0:0:0:
480,96,4255,1,0,0:0:0:0:
480,96,4451,1,2,0:0:0:0:
480,96,4647,1,0,0:0:0:0:
480,96,4843,1,2,0:0:0:0:
480,96,5039,1,2,0:0:0:0:
480,96,5236,1,2,0:0:0:0:
480,96,5432,1,0,0:0:0:0:
480,96,5824,1,0,0:0:0:0:
480,96,6020,1,0,0:0:0:0:
480,96,6216,1,2,0:0:0:0:
480,96,6608,1,2,0:0:0:0:
480,96,6804,1,2,0:0:0:0:
480,96,7196,1,0,0:0:0:0:
480,96,7392,1,0,0:0:0:0:
480,96,7588,1,0,0:0:0:0:
480,96,7785,1,6,0:0:0:0:
96,96,8177,1,2,0:0:0:0:
96,96,8569,1,2,0:0:0:0:
96,96,8961,1,2,0:0:0:0:
96,96,9157,1,2,0:0:0:0:
480,96,9549,5,0,0:0:0:0:
480,96,9941,1,2,0:0:0:0:
480,96,10138,1,2,0:0:0:0:
480,96,10334,1,0,0:0:0:0:
480,96,10530,1,2,0:0:0:0:
480,96,10922,1,0,0:0:0:0:
480,96,11118,1,2,0:0:0:0:
480,96,11510,1,2,0:0:0:0:
480,96,11706,1,2,0:0:0:0:
480,96,11902,1,0,0:0:0:0:
480,96,12294,1,2,0:0:0:0:
480,96,13079,1,2,0:0:0:0:
480,96,13275,1,2,0:0:0:0:
480,96,13471,1,0,0:0:0:0:
480,96,13667,1,2,0:0:0:0:
480,96,14059,1,0,0:0:0:0:
480,96,14255,1,2,0:0:0:0:
480,96,14647,1,2,0:0:0:0:
480,96,14843,1,2,0:0:0:0:
480,96,15039,1,2,0:0:0:0:
480,96,15432,1,2,0:0:0:0:
480,96,15824,1,2,0:0:0:0:
480,96,16412,1,0,0:0:0:0:
480,96,16804,1,0,0:0:0:0:
480,96,17196,1,0,0:0:0:0:
480,96,17392,1,2,0:0:0:0:
480,96,17981,1,0,0:0:0:0:
480,96,18373,1,0,0:0:0:0:
480,96,18765,1,0,0:0:0:0:
480,96,18961,1,2,0:0:0:0:
480,96,19549,1,0,0:0:0:0:
480,96,19941,1,0,0:0:0:0:
480,96,20334,1,6,0:0:0:0:
480,96,20726,1,6,0:0:0:0:
480,96,21118,1,4,0:0:0:0:
480,96,21510,1,2,0:0:0:0:
480,96,21706,1,0,0:0:0:0:
480,96,21902,1,0,0:0:0:0:
480,96,22098,1,4,0:0:0:0:
480,96,22490,1,2,0:0:0:0:
480,96,22883,1,0,0:0:0:0:
480,96,23079,1,2,0:0:0:0:
480,96,23471,1,0,0:0:0:0:
480,96,23667,1,2,0:0:0:0:
480,96,23863,1,2,0:0:0:0:
480,96,24059,1,2,0:0:0:0:
480,96,24255,1,0,0:0:0:0:
480,96,24451,1,0,0:0:0:0:
480,96,24843,1,2,0:0:0:0:
480,96,25236,1,0,0:0:0:0:
480,96,25628,1,2,0:0:0:0:
480,96,26020,1,0,0:0:0:0:
480,96,26216,1,2,0:0:0:0:
480,96,26608,1,0,0:0:0:0:
480,96,26804,1,2,0:0:0:0:
480,96,27000,1,2,0:0:0:0:
480,96,27196,1,0,0:0:0:0:
96,96,27392,1,0,0:0:0:0:
96,96,27588,1,2,0:0:0:0:
480,96,27981,1,2,0:0:0:0:
480,96,28373,1,2,0:0:0:0:
480,96,28961,1,0,0:0:0:0:
480,96,29353,1,0,0:0:0:0:
480,96,29745,1,0,0:0:0:0:
480,96,29941,1,2,0:0:0:0:
480,96,30334,1,0,0:0:0:0:
480,96,30726,1,2,0:0:0:0:
480,96,31118,1,0,0:0:0:0:
480,96,31314,1,0,0:0:0:0:
480,96,31510,1,2,0:0:0:0:
480,96,31706,1,0,0:0:0:0:
480,96,32098,1,0,0:0:0:0:
480,96,32294,1,2,0:0:0:0:
480,96,32490,1,0,0:0:0:0:
480,96,32687,1,0,0:0:0:0:
480,96,32883,1,0,0:0:0:0:
480,96,33079,1,2,0:0:0:0:
480,96,33373,1,2,0:0:0:0:
480,96,33667,1,2,0:0:0:0:
480,96,33863,1,0,0:0:0:0:
480,96,34255,1,0,0:0:0:0:
480,96,34647,1,6,0:0:0:0:
480,96,35432,1,2,0:0:0:0:
480,96,35824,1,2,0:0:0:0:
480,96,36020,1,0,0:0:0:0:
480,96,36216,1,0,0:0:0:0:
480,96,36608,1,0,0:0:0:0:
480,96,36804,1,0,0:0:0:0:
480,96,37000,1,2,0:0:0:0:
480,96,37588,1,2,0:0:0:0:
480,96,37981,1,2,0:0:0:0:
480,96,38177,1,2,0:0:0:0:
480,96,38373,1,0,0:0:0:0:
480,96,38569,1,2,0:0:0:0:
480,96,38961,1,0,0:0:0:0:
480,96,39157,1,2,0:0:0:0:
480,96,39549,1,2,0:0:0:0:
480,96,39941,1,0,0:0:0:0:
480,96,40530,1,0,0:0:0:0:
480,96,40922,1,6,0:0:0:0:
480,96,41706,1,0,0:0:0:0:
480,96,42098,1,0,0:0:0:0:
480,96,42294,1,2,0:0:0:0:
480,96,42490,1,2,0:0:0:0:
480,96,42883,1,0,0:0:0:0:
480,96,43079,1,0,0:0:0:0:
480,96,43275,1,2,0:0:0:0:
480,96,43667,1,0,0:0:0:0:
480,96,44059,1,2,0:0:0:0:
480,96,44255,1,2,0:0:0:0:
480,96,44451,1,2,0:0:0:0:
480,96,44647,1,0,0:0:0:0:
480,96,44843,1,2,0:0:0:0:
480,96,45236,1,0,0:0:0:0:
480,96,45432,1,2,0:0:0:0:
480,96,45628,1,2,0:0:0:0:
480,96,45824,1,0,0:0:0:0:
480,96,46020,1,2,0:0:0:0:
480,96,46216,1,0,0:0:0:0:
480,96,46412,1,2,0:0:0:0:
480,96,47000,1,0,0:0:0:0:
480,96,47196,1,2,0:0:0:0:
480,96,47392,1,2,0:0:0:0:
480,96,47785,1,2,0:0:0:0:
480,96,47981,1,2,0:0:0:0:
480,96,48177,1,2,0:0:0:0:
480,96,48569,1,0,0:0:0:0:
480,96,48765,1,2,0:0:0:0:
480,96,49059,1,2,0:0:0:0:
480,96,49353,1,0,0:0:0:0:
480,96,49549,1,0,0:0:0:0:
480,96,50137,1,0,0:0:0:0:
480,96,50334,1,6,0:0:0:0:
480,96,50922,1,6,0:0:0:0:
480,96,51510,1,0,0:0:0:0:
480,96,51706,1,0,0:0:0:0:
480,96,51902,1,6,0:0:0:0:
480,96,52196,1,6,0:0:0:0:
480,96,52490,1,4,0:0:0:0:
480,96,52687,1,4,0:0:0:0:
480,96,53275,1,0,0:0:0:0:
480,96,53471,1,2,0:0:0:0:
480,96,53667,1,2,0:0:0:0:
480,96,54059,1,0,0:0:0:0:
480,96,54255,1,2,0:0:0:0:
480,96,54451,1,2,0:0:0:0:
480,96,54843,1,2,0:0:0:0:
480,96,55039,1,0,0:0:0:0:
480,96,55236,1,0,0:0:0:0:
480,96,55432,1,2,0:0:0:0:
480,96,55628,1,2,0:0:0:0:
480,96,56020,1,2,0:0:0:0:
480,96,56216,1,0,0:0:0:0:
480,96,56412,1,0,0:0:0:0:
480,96,56608,1,2,0:0:0:0:
480,96,56804,1,0,0:0:0:0:
480,96,57000,1,2,0:0:0:0:
480,96,57196,1,2,0:0:0:0:
480,96,57588,1,2,0:0:0:0:
480,96,57981,1,2,0:0:0:0:
480,96,58373,1,0,0:0:0:0:
480,96,58569,1,2,0:0:0:0:
480,96,58765,1,0,0:0:0:0:
480,96,58961,1,0,0:0:0:0:
480,96,59157,1,0,0:0:0:0:
480,96,59353,1,2,0:0:0:0:
480,96,59549,1,0,0:0:0:0:
480,96,59745,1,2,0:0:0:0:
480,96,59941,1,2,0:0:0:0:
480,96,60334,1,0,0:0:0:0:
480,96,60530,1,2,0:0:0:0:
480,96,60726,1,2,0:0:0:0:
480,96,61118,1,2,0:0:0:0:
480,96,61314,1,0,0:0:0:0:
480,96,61510,1,0,0:0:0:0:
480,96,61706,1,2,0:0:0:0:
480,96,61902,1,2,0:0:0:0:
480,96,62294,1,2,0:0:0:0:
480,96,62490,1,2,0:0:0:0:
480,96,62687,1,0,0:0:0:0:
480,96,62883,1,0,0:0:0:0:
480,96,63079,1,0,0:0:0:0:
480,96,63275,1,2,0:0:0:0:
480,96,63471,1,0,0:0:0:0:
480,96,63863,1,0,0:0:0:0:
480,96,64059,1,2,0:0:0:0:
480,96,64255,1,2,0:0:0:0:
480,96,64647,1,2,0:0:0:0:
480,96,64843,1,2,0:0:0:0:
480,96,65039,1,0,0:0:0:0:
480,96,65236,1,2,0:0:0:0:
480,96,65432,1,0,0:0:0:0:
480,96,65628,1,0,0:0:0:0:
480,96,65824,1,0,0:0:0:0:
480,96,66020,1,2,0:0:0:0:
480,96,66216,1,2,0:0:0:0:
480,96,66608,1,0,0:0:0:0:
480,96,66804,1,2,0:0:0:0:
480,96,67000,1,2,0:0:0:0:
480,96,67392,1,2,0:0:0:0:
480,96,67588,1,0,0:0:0:0:
480,96,67785,1,2,0:0:0:0:
480,96,67981,1,0,0:0:0:0:
480,96,68177,1,2,0:0:0:0:
480,96,68569,1,2,0:0:0:0:
480,96,68765,1,0,0:0:0:0:
480,96,68961,1,0,0:0:0:0:
480,96,69157,1,0,0:0:0:0:
480,96,69353,1,0,0:0:0:0:
480,96,69549,1,2,0:0:0:0:
480,96,69745,1,2,0:0:0:0:
480,96,70138,1,2,0:0:0:0:
480,96,70530,1,2,0:0:0:0:
480,96,70726,1,2,0:0:0:0:
480,96,70922,1,2,0:0:0:0:
480,96,71118,1,0,0:0:0:0:
480,96,71314,1,2,0:0:0:0:
480,96,71706,5,2,0:0:0:0:
480,96,71902,1,0,0:0:0:0:
480,96,72098,1,0,0:0:0:0:
480,96,72294,1,2,0:0:0:0:
480,96,72490,1,2,0:0:0:0:
480,96,72883,1,0,0:0:0:0:
480,96,73079,1,2,0:0:0:0:
480,96,73275,1,2,0:0:0:0:
480,96,73667,1,2,0:0:0:0:
480,96,73863,1,0,0:0:0:0:
480,96,74059,1,0,0:0:0:0:
480,96,74255,1,2,0:0:0:0:
480,96,74451,1,2,0:0:0:0:
480,96,74843,1,2,0:0:0:0:
480,96,75039,1,2,0:0:0:0:
480,96,75236,1,0,0:0:0:0:
480,96,75432,1,0,0:0:0:0:
480,96,75628,1,0,0:0:0:0:
480,96,75824,1,2,0:0:0:0:
480,96,76020,1,0,0:0:0:0:
480,96,76412,1,0,0:0:0:0:
480,96,76608,1,2,0:0:0:0:
480,96,76804,1,2,0:0:0:0:
480,96,77196,1,2,0:0:0:0:
480,96,77392,1,2,0:0:0:0:
480,96,77785,1,0,0:0:0:0:
480,96,77981,1,2,0:0:0:0:
480,96,78177,1,2,0:0:0:0:
480,96,78373,1,0,0:0:0:0:
480,96,78569,1,4,0:0:0:0:
256,192,78765,12,0,80922,0:0:0:0:
480,96,81706,5,4,0:0:0:0:
160,128,82098,1,2,0:0:0:0:
160,128,82294,1,0,0:0:0:0:
160,128,82687,1,0,0:0:0:0:
160,128,82883,1,2,0:0:0:0:
160,128,83079,1,0,0:0:0:0:
480,96,83275,1,2,0:0:0:0:
480,96,83471,1,2,0:0:0:0:
480,96,83667,1,0,0:0:0:0:
480,96,83863,1,0,0:0:0:0:
480,96,84255,1,0,0:0:0:0:
480,96,84451,1,0,0:0:0:0:
480,96,84647,1,2,0:0:0:0:
480,96,85039,1,2,0:0:0:0:
480,96,85236,1,2,0:0:0:0:
480,96,85628,1,0,0:0:0:0:
480,96,85824,1,0,0:0:0:0:
480,96,86020,1,0,0:0:0:0:
480,96,86216,1,2,0:0:0:0:
480,96,86608,1,2,0:0:0:0:
480,96,86804,1,0,0:0:0:0:
480,96,87000,1,0,0:0:0:0:
480,96,87196,1,2,0:0:0:0:
480,96,87392,1,2,0:0:0:0:
480,96,87588,1,0,0:0:0:0:
480,96,87785,1,0,0:0:0:0:
480,96,88177,1,4,0:0:0:0:
480,96,88373,1,4,0:0:0:0:
