osu file format v14

[General]
AudioFilename: Sakurairo Diary.mp3
AudioLeadIn: 0
PreviewTime: 53275
Countdown: 0
SampleSet: Normal
StackLeniency: 0.7
Mode: 1
LetterboxInBreaks: 0
WidescreenStoryboard: 0

[Editor]
DistanceSpacing: 1
BeatDivisor: 4
GridSize: 32
TimelineZoom: 0.8

[Metadata]
Title:Sakurairo Diary
TitleUnicode:桜色ダイアリー
Artist:Moso Calibration
ArtistUnicode:妄想キャリブレーション
Creator:Nardoxyribonucleic
Version:Futsuu
Source:冴えない彼女の育てかた♭
Tags:Taiko Saenai Heroine no Sodatekata Flat Saekano Ending TV Size wmfchris
BeatmapID:1311024
BeatmapSetID:621675

[Difficulty]
HPDrainRate:6
CircleSize:5
OverallDifficulty:4
ApproachRate:5
SliderMultiplier:1.4
SliderTickRate:1

[Events]
//Background and Video events
0,0,"Megumi.jpg",0,40
//Break Periods
//Storyboard Layer 0 (Background)
//Storyboard Layer 1 (Fail)
//Storyboard Layer 2 (Pass)
//Storyboard Layer 3 (Foreground)
//Storyboard Sound Samples

[TimingPoints]
138,392.156862745098,4,1,0,50,1,0
3275,-100,4,1,0,90,0,0
9549,-100,4,1,0,70,0,0
22098,-100,4,1,0,80,0,0
34647,-100,4,1,0,70,0,0
44059,-100,4,1,0,80,0,0
53471,-100,4,1,0,90,0,1
81706,-100,4,1,0,80,0,0

[HitObjects]
256,192,138,5,8,0:0:0:0:
256,192,726,1,8,0:0:0:0:
256,192,1118,1,0,0:0:0:0:
256,192,1510,1,8,0:0:0:0:
256,192,2098,1,8,0:0:0:0:
256,192,2490,1,8,0:0:0:0:
256,192,2687,1,0,0:0:0:0:
256,192,2883,1,8,0:0:0:0:
256,192,3275,1,4,0:0:0:0:
256,192,3667,1,8,0:0:0:0:
256,192,3863,1,0,0:0:0:0:
256,192,4451,1,8,0:0:0:0:
256,192,4843,1,0,0:0:0:0:
256,192,5236,1,8,0:0:0:0:
256,192,5432,1,0,0:0:0:0:
256,192,5824,1,0,0:0:0:0:
256,192,6216,1,12,0:0:0:0:
256,192,6804,1,8,0:0:0:0:
256,192,7196,1,0,0:0:0:0:
256,192,7392,1,0,0:0:0:0:
256,192,7785,1,12,0:0:0:0:
256,192,8177,1,4,0:0:0:0:
256,192,8569,1,4,0:0:0:0:
256,192,8961,1,12,0:0:0:0:
256,192,9157,1,12,0:0:0:0:
256,192,9549,1,4,0:0:0:0:
256,192,10334,1,0,0:0:0:0:
256,192,10726,1,8,0:0:0:0:
256,192,11118,1,0,0:0:0:0:
256,192,11902,1,8,0:0:0:0:
256,192,12294,1,8,0:0:0:0:
256,192,12687,1,0,0:0:0:0:
256,192,13471,1,0,0:0:0:0:
256,192,13863,1,8,0:0:0:0:
256,192,14255,1,0,0:0:0:0:
256,192,14647,1,0,0:0:0:0:
256,192,15039,1,8,0:0:0:0:
256,192,15432,1,8,0:0:0:0:
256,192,15824,1,0,0:0:0:0:
256,192,16608,1,8,0:0:0:0:
256,192,17392,1,8,0:0:0:0:
256,192,17785,1,0,0:0:0:0:
256,192,18177,1,8,0:0:0:0:
256,192,18961,1,0,0:0:0:0:
256,192,19745,1,8,0:0:0:0:
256,192,20334,1,12,0:0:0:0:
256,192,20726,1,12,0:0:0:0:
256,192,21118,1,4,0:0:0:0:
256,192,21510,1,8,0:0:0:0:
256,192,21706,1,8,0:0:0:0:
256,192,22098,1,4,0:0:0:0:
256,192,22490,1,8,0:0:0:0:
256,192,22883,1,0,0:0:0:0:
256,192,23079,1,0,0:0:0:0:
256,192,23275,1,8,0:0:0:0:
256,192,23667,1,0,0:0:0:0:
256,192,24059,1,8,0:0:0:0:
256,192,24255,1,8,0:0:0:0:
256,192,24451,1,0,0:0:0:0:
256,192,24843,1,8,0:0:0:0:
256,192,25628,1,8,0:0:0:0:
256,192,26020,1,0,0:0:0:0:
256,192,26216,1,0,0:0:0:0:
256,192,26412,1,8,0:0:0:0:
256,192,26804,1,8,0:0:0:0:
256,192,27196,1,0,0:0:0:0:
256,192,27392,1,8,0:0:0:0:
256,192,27588,1,0,0:0:0:0:
256,192,27981,1,8,0:0:0:0:
256,192,28373,1,8,0:0:0:0:
256,192,28961,1,8,0:0:0:0:
256,192,29353,1,0,0:0:0:0:
256,192,29549,1,8,0:0:0:0:
256,192,29941,1,0,0:0:0:0:
256,192,30334,1,0,0:0:0:0:
256,192,30726,1,8,0:0:0:0:
256,192,31118,1,8,0:0:0:0:
256,192,31510,1,4,0:0:0:0:
256,192,31902,1,8,0:0:0:0:
256,192,32294,1,0,0:0:0:0:
256,192,32490,1,0,0:0:0:0:
256,192,32687,1,8,0:0:0:0:
256,192,33079,1,12,0:0:0:0:
256,192,33863,1,4,0:0:0:0:
256,192,34255,1,0,0:0:0:0:
256,192,34647,1,12,0:0:0:0:
256,192,35432,1,8,0:0:0:0:
256,192,36216,1,0,0:0:0:0:
256,192,37000,1,8,0:0:0:0:
256,192,37392,1,8,0:0:0:0:
256,192,37785,1,0,0:0:0:0:
256,192,38569,1,8,0:0:0:0:
256,192,39353,1,0,0:0:0:0:
256,192,39745,1,0,0:0:0:0:
256,192,40138,1,8,0:0:0:0:
256,192,40922,1,12,0:0:0:0:
256,192,41706,1,0,0:0:0:0:
256,192,42490,1,8,0:0:0:0:
256,192,43275,1,8,0:0:0:0:
256,192,43667,1,0,0:0:0:0:
256,192,44059,1,4,0:0:0:0:
256,192,44451,1,8,0:0:0:0:
256,192,44647,1,0,0:0:0:0:
256,192,44843,1,8,0:0:0:0:
256,192,45236,1,8,0:0:0:0:
256,192,45628,1,0,0:0:0:0:
256,192,46020,1,8,0:0:0:0:
256,192,46216,1,0,0:0:0:0:
256,192,46412,1,8,0:0:0:0:
256,192,47196,1,12,0:0:0:0:
256,192,47785,1,8,0:0:0:0:
256,192,47981,1,0,0:0:0:0:
256,192,48373,1,8,0:0:0:0:
256,192,48765,1,8,0:0:0:0:
256,192,49353,1,0,0:0:0:0:
256,192,49549,1,0,0:0:0:0:
256,192,50334,1,12,0:0:0:0:
256,192,50922,1,8,0:0:0:0:
256,192,51118,1,0,0:0:0:0:
256,192,51510,1,8,0:0:0:0:
256,192,51902,1,12,0:0:0:0:
256,192,52490,1,4,0:0:0:0:
256,192,52687,1,4,0:0:0:0:
256,192,53471,1,12,0:0:0:0:
256,192,53863,1,8,0:0:0:0:
256,192,54059,1,8,0:0:0:0:
256,192,54255,1,0,0:0:0:0:
256,192,54647,1,8,0:0:0:0:
256,192,55039,1,0,0:0:0:0:
256,192,55432,1,8,0:0:0:0:
256,192,55628,1,8,0:0:0:0:
256,192,56216,1,8,0:0:0:0:
256,192,56608,1,0,0:0:0:0:
256,192,57000,1,8,0:0:0:0:
256,192,57196,1,0,0:0:0:0:
256,192,57588,1,0,0:0:0:0:
256,192,57785,1,8,0:0:0:0:
256,192,58177,1,0,0:0:0:0:
256,192,58569,1,8,0:0:0:0:
256,192,59353,1,8,0:0:0:0:
256,192,59745,1,0,0:0:0:0:
256,192,60137,1,8,0:0:0:0:
256,192,60530,1,0,0:0:0:0:
256,192,60726,1,0,0:0:0:0:
256,192,60922,1,8,0:0:0:0:
256,192,61314,1,0,0:0:0:0:
256,192,61706,1,8,0:0:0:0:
256,192,61902,1,8,0:0:0:0:
256,192,62490,1,8,0:0:0:0:
256,192,62883,1,0,0:0:0:0:
256,192,63275,1,8,0:0:0:0:
256,192,63471,1,0,0:0:0:0:
256,192,63863,1,0,0:0:0:0:
256,192,64255,1,12,0:0:0:0:
256,192,64843,1,8,0:0:0:0:
256,192,65236,1,0,0:0:0:0:
256,192,65432,1,0,0:0:0:0:
256,192,65628,1,8,0:0:0:0:
256,192,66020,1,12,0:0:0:0:
256,192,66412,1,8,0:0:0:0:
256,192,66608,1,8,0:0:0:0:
256,192,66804,1,0,0:0:0:0:
256,192,67196,1,8,0:0:0:0:
256,192,67588,1,0,0:0:0:0:
256,192,67981,1,8,0:0:0:0:
256,192,68177,1,8,0:0:0:0:
256,192,68765,1,8,0:0:0:0:
256,192,69157,1,0,0:0:0:0:
256,192,69549,1,8,0:0:0:0:
256,192,69745,1,0,0:0:0:0:
256,192,70138,1,0,0:0:0:0:
256,192,70334,1,8,0:0:0:0:
256,192,70726,1,0,0:0:0:0:
256,192,71118,1,8,0:0:0:0:
256,192,71902,1,8,0:0:0:0:
256,192,72294,1,0,0:0:0:0:
256,192,72687,1,8,0:0:0:0:
256,192,73079,1,0,0:0:0:0:
256,192,73275,1,0,0:0:0:0:
256,192,73471,1,8,0:0:0:0:
256,192,73863,1,0,0:0:0:0:
256,192,74255,1,8,0:0:0:0:
256,192,74451,1,12,0:0:0:0:
256,192,75039,1,8,0:0:0:0:
256,192,75432,1,0,0:0:0:0:
256,192,75824,1,8,0:0:0:0:
256,192,76020,1,0,0:0:0:0:
256,192,76412,1,0,0:0:0:0:
256,192,76804,1,12,0:0:0:0:
256,192,77392,1,8,0:0:0:0:
256,192,77588,1,8,0:0:0:0:
256,192,77785,1,0,0:0:0:0:
256,192,78177,1,8,0:0:0:0:
256,192,78569,1,4,0:0:0:0:
256,192,78961,1,8,0:0:0:0:
256,192,79157,1,4,0:0:0:0:
256,192,79549,1,0,0:0:0:0:
256,192,79941,1,12,0:0:0:0:
256,192,80530,1,8,0:0:0:0:
256,192,80922,1,0,0:0:0:0:
256,192,81118,1,0,0:0:0:0:
256,192,81314,1,8,0:0:0:0:
256,192,81706,1,4,0:0:0:0:
256,192,82098,1,8,0:0:0:0:
256,192,82294,1,0,0:0:0:0:
256,192,82883,1,8,0:0:0:0:
256,192,83275,1,0,0:0:0:0:
256,192,83667,1,8,0:0:0:0:
256,192,83863,1,0,0:0:0:0:
256,192,84255,1,0,0:0:0:0:
256,192,84647,1,12,0:0:0:0:
256,192,85236,1,8,0:0:0:0:
256,192,85628,1,8,0:0:0:0:
256,192,85824,1,8,0:0:0:0:
256,192,86216,1,12,0:0:0:0:
256,192,86804,1,0,0:0:0:0:
256,192,87196,1,8,0:0:0:0:
256,192,87588,1,8,0:0:0:0:
256,192,87785,1,0,0:0:0:0:
256,192,88177,1,4,0:0:0:0:
256,192,88373,1,4,0:0:0:0:
