osu file format v5

[General]
AudioFilename: 02 Kira Kira Fuyu no Shiny G.mp3
AudioLeadIn: 0
PreviewTime: -1
Countdown: 0
SampleSet: Soft
StackLeniency: 0.7
Mode: 0
EditorBookmarks: 6683,12916,25384,47786,65903,90838,97072,109540,122007,150059,174994,182786,185903,198371,201488,226423,251358,257592,263825,266942,279799

[Metadata]
Title:Kira Kira Shiny G
Artist:Morning Musume.
Creator:baconlepew
Version:Spicy Burrito
Source:
Tags:

[Difficulty]
HPDrainRate:6
CircleSize:5
OverallDifficulty:5
SliderMultiplier:1.5
SliderTickRate:1

[Events]
//Background and Video events
0,0,"snapshot20080813003545.jpg"
//Break Periods
2,95519,108340
2,179869,184703
//Storyboard Layer 0 (Background)
//Storyboard Layer 1 (Failing)
//Storyboard Layer 2 (Passing)
//Storyboard Layer 3 (Foreground)
//Storyboard Sound Samples
//Background Colour Transformations
3,100,163,162,255

[TimingPoints]
6683,389.61038961039,4,2,0,100

[Colours]
Combo1 : 0,255,255
Combo2 : 242,242,242
Combo3 : 255,183,255
Combo4 : 255,255,187
Combo5 : 255,117,117

[HitObjects]
96,64,6683,1,4
192,64,7072,1,0
160,160,7462,1,0
256,160,7851,1,0
224,256,8241,1,0
320,256,8631,1,0
320,256,8825,1,4
128,320,9603,1,0
160,224,10189,1,0
256,256,10579,1,0
288,224,10773,1,0
352,160,11163,1,4
64,320,12916,5,0
160,320,13306,1,0
256,320,13695,1,0
352,320,14085,1,0
352,320,14280,1,0
384,224,14670,1,0
384,224,14864,1,0
320,160,15254,1,0
384,96,15449,1,4
64,64,16423,1,0
160,64,16812,1,0
256,64,17202,1,0
256,64,17397,1,0
320,128,17786,1,0
320,128,17981,1,0
256,192,18371,1,0
256,192,18566,1,4
448,192,19150,1,0
384,256,19540,1,0
320,192,19929,1,0
256,256,20319,1,0
192,192,20708,1,0
128,256,21488,1,0
64,64,22267,2,0,C|64:128|160:128|160:224|256:224|256:320|416:320,1,600
96,96,25384,5,4
128,160,25773,1,0
192,128,26163,1,0
256,96,26553,1,0
320,128,26942,2,0,C|224:256,1,150
160,256,27527,1,0
416,64,28501,1,0
416,64,28695,1,0
416,64,28890,1,0
384,128,29280,1,0
384,128,29475,1,0
384,128,29670,1,0
320,128,30059,1,0
288,64,30449,1,0
256,64,30644,2,4,C|224:96|192:64|128:0,1,150
64,128,31618,1,0
64,192,32007,1,0
64,256,32397,1,0
128,224,32786,1,0
192,192,33176,2,0,C|352:96,1,150
384,96,33760,1,4
448,256,34540,1,0
352,256,34929,1,0
352,256,35124,1,0
320,256,35319,1,0
320,256,35514,1,0
288,256,35708,1,0
224,256,36098,2,4,C|160:224|224:160|160:96|224:32,1,300
64,192,37851,5,0
64,192,38046,1,0
96,192,38241,1,0
96,192,38436,1,0
160,192,38825,1,0
160,192,39020,1,0
192,192,39215,1,0
224,192,39410,1,0
288,160,39799,1,0
352,192,40189,1,0
416,224,40579,1,0
448,224,40773,1,0
256,192,40969,12,4,43306
416,320,44085,5,0
416,320,44280,1,0
416,288,44475,1,0
416,288,44670,1,0
384,224,45059,1,0
384,224,45254,1,0
384,192,45449,1,0
384,192,45644,1,0
352,128,46033,1,0
288,96,46423,1,0
224,64,46812,1,0
224,64,47007,1,0
256,192,47202,12,4,49539
256,32,50319,1,0
256,32,50514,1,0
256,64,50708,1,0
256,64,50903,1,0
256,128,51293,1,0
256,128,51488,1,0
256,160,51683,1,0
256,160,51877,1,0
256,224,52267,1,0
224,288,52657,1,0
288,288,53046,1,0
320,352,53436,1,0
256,352,53825,1,0
192,352,54215,1,0
160,352,54410,1,0
96,352,54799,1,4
256,96,56553,5,0
256,96,56747,1,0
224,96,56942,1,0
224,96,57137,1,0
224,160,57527,1,0
256,288,58111,1,0
256,288,58306,1,0
288,288,58501,1,0
288,288,58695,1,0
288,224,59085,1,0
256,128,59670,6,0,B|192:32|128:32|96:128,1,225
96,160,60449,2,0,B|256:352,1,225
240,332,61228,2,0,B|448:128,1,225
416,128,62007,2,0,B|384:32|320:32|256:128,1,225
256,32,62786,1,4
288,128,63566,1,4
224,224,64345,1,4
256,320,65124,1,4
160,288,65903,6,0,B|256:320|384:256,1,225
384,192,66683,2,0,B|288:224|160:160,1,225
160,96,67462,2,0,B|256:128|384:64,1,225
448,64,68436,1,0
512,64,68825,1,4
256,192,69994,1,0
256,192,70189,1,0
256,192,70384,1,4
416,64,72137,2,0,B|448:160|384:288,1,225
320,288,72916,2,0,B|352:192|288:64,1,225
224,64,73695,2,0,B|256:160|192:288,1,225
160,288,74475,1,0
96,288,75254,1,4
256,192,76228,1,0
256,192,76423,1,0
256,192,76618,1,0
256,192,76812,1,4
128,320,78371,2,0,B|256:288|416:320,1,225
384,256,79150,2,0,B|256:224|128:256,1,225
128,192,79929,2,0,B|256:160|384:192,1,225
384,128,80708,2,0,B|256:96|128:128,1,225
128,192,81488,2,0,B|256:224|384:192,1,225
256,192,82462,1,0
256,192,82657,1,0
256,192,82851,1,4
256,96,84605,5,0
160,192,85384,1,0
64,288,86163,2,0,C|160:320|256:288|352:320|480:288,1,375
256,192,87527,1,0
256,192,87721,1,4
96,64,90838,5,4
192,64,91227,1,0
160,160,91617,1,0
256,160,92006,1,0
224,256,92396,1,0
320,256,92786,1,0
320,256,92980,1,0
128,320,93954,1,0
160,224,94344,1,0
256,256,94734,1,0
288,224,94929,1,0
352,160,95319,1,4
416,96,109540,5,4
384,160,109929,1,0
320,128,110319,1,0
256,96,110709,1,0
192,128,111098,2,0,C|288:256,1,150
352,256,111683,1,4
96,64,112657,1,0
96,64,112851,1,0
96,64,113046,1,0
128,128,113436,1,0
128,128,113631,1,0
128,128,113826,1,0
192,128,114215,1,0
224,64,114605,1,0
256,64,114800,2,4,C|287:97|320:64|384:0,1,150
448,128,115774,1,0
448,192,116163,1,0
448,224,116358,1,0
384,224,116942,1,0
320,192,117332,2,0,C|160:96,1,150
128,96,117916,1,4
64,256,118696,1,0
160,256,119085,1,0
160,256,119280,1,0
192,256,119475,1,0
192,256,119670,1,0
224,256,119864,1,0
288,256,120254,2,4,C|353:224|289:159|351:95|288:32,1,300
448,192,122007,5,0
448,192,122202,1,0
416,192,122397,1,0
416,192,122592,1,0
352,192,122981,1,0
352,192,123176,1,0
320,192,123371,1,0
288,192,123566,1,0
224,160,123955,1,0
160,192,124345,1,0
96,224,124735,1,0
64,224,124929,1,0
256,192,125125,12,4,127462
96,320,128241,5,0
96,320,128436,1,0
96,288,128631,1,0
96,288,128826,1,0
128,224,129215,1,0
128,224,129410,1,0
128,192,129605,1,0
128,192,129800,1,0
160,128,130189,1,0
224,96,130579,1,0
288,64,130968,1,0
288,64,131163,1,0
256,192,131358,12,4,133695
256,352,134475,1,0
256,352,134670,1,0
256,320,134864,1,0
256,320,135059,1,0
256,256,135449,1,0
256,256,135644,1,0
256,224,135839,1,0
256,224,136033,1,0
256,160,136423,1,0
288,96,136813,1,0
224,96,137202,1,0
192,32,137592,1,0
256,32,137981,1,0
320,32,138371,1,0
352,32,138566,1,0
416,32,138955,1,4
224,96,140709,5,0
224,96,140903,1,0
288,96,141098,1,0
288,96,141293,1,0
288,160,141683,1,0
288,288,142267,1,0
288,288,142462,1,0
224,288,142657,1,0
224,288,142851,1,0
224,224,143241,1,0
256,128,143826,6,0,B|192:32|128:32|96:128,1,225
96,160,144605,2,0,B|256:352,1,225
240,332,145384,2,0,B|448:128,1,225
416,128,146163,2,0,B|384:32|320:32|256:128,1,225
256,32,146942,1,0
224,128,147722,1,0
288,224,148501,1,0
256,320,149280,1,4
352,288,150059,6,0,B|256:320|128:256,1,225
128,192,150839,2,0,B|224:224|352:160,1,225
352,96,151618,2,0,B|256:128|128:64,1,225
64,64,152592,1,0
0,64,152981,1,0
256,192,154150,1,0
256,192,154345,1,0
256,192,154540,1,4
96,320,156293,6,0,B|63:225|128:96,1,225
192,96,157072,2,0,B|160:192|224:320,1,225
288,320,157851,2,0,B|257:223|320:96,1,225
352,96,158631,1,0
416,96,159410,1,4
256,192,160384,1,0
256,192,160579,1,0
256,192,160774,1,4
128,64,162527,6,0,B|256:96|416:64,1,225
384,128,163306,2,0,B|256:160|128:128,1,225
128,192,164085,2,0,B|256:224|384:192,1,225
384,256,164864,2,0,B|256:288|128:256,1,225
128,192,165644,2,0,B|256:160|384:192,1,225
256,192,166618,1,0
256,192,166813,1,0
256,192,167007,1,4
256,288,168761,5,0
352,192,169540,1,0
448,96,170319,2,0,C|352:64|256:96|160:64|32:96,1,375
256,192,171683,1,0
256,192,171877,1,4
96,64,174994,5,4
192,64,175383,1,0
160,160,175773,1,0
256,160,176162,1,0
224,256,176552,1,0
320,256,176942,1,0
320,256,177136,1,0
128,320,178110,1,0
160,224,178500,1,0
256,256,178890,1,0
288,224,179085,1,0
352,160,179475,1,4
64,160,185903,5,0
96,192,186098,1,0
128,160,186293,1,0
160,192,186488,2,0,B|256:192,3,75
256,160,187267,1,0
288,128,187462,1,0
320,128,187657,1,0
352,160,187851,1,0
352,192,188046,2,0,B|352:288,3,75
320,288,188825,1,0
288,320,189020,1,0
256,288,189215,1,0
224,320,189410,2,0,B|128:320,3,75
160,288,190189,1,0
160,256,190384,1,0
160,224,190579,1,0
160,192,190773,1,0
160,160,190968,1,0
192,128,191163,2,0,C|448:288,1,300
448,320,192137,1,0
416,320,192332,1,0
384,320,192527,1,0
352,352,192721,2,0,C|32:352,1,300
64,320,193695,1,0
64,288,193890,1,0
64,256,194085,1,0
64,224,194280,2,0,B|288:320|288:128,1,300
256,128,195254,6,0,B|192:32|128:32|96:128,1,225
96,160,196033,2,0,B|256:352,1,225
240,332,196812,2,0,B|448:128,1,225
416,128,197591,2,0,B|384:32|320:32|256:128,1,225
256,32,198370,1,4
224,128,199150,1,4
288,224,199929,1,4
256,320,200708,1,4
160,288,201488,6,0,B|256:320|384:256,1,225
384,192,202268,2,0,B|288:224|160:160,1,225
160,96,203047,2,0,B|256:128|384:64,1,225
448,64,204021,1,0
512,64,204410,1,4
256,192,205579,1,0
256,192,205774,1,0
256,192,205969,1,4
416,64,207722,2,0,B|448:160|384:288,1,225
320,288,208501,2,0,B|352:192|288:64,1,225
224,64,209280,2,0,B|256:160|192:288,1,225
160,288,210060,1,0
96,288,210838,1,4
256,192,211813,1,0
256,192,212008,1,0
256,192,212203,1,0
256,192,212397,1,4
128,320,213956,2,0,B|256:288|416:320,1,225
384,256,214735,2,0,B|256:224|128:256,1,225
128,192,215514,2,0,B|256:160|384:192,1,225
384,128,216293,2,0,B|256:96|128:128,1,225
128,192,217073,2,0,B|256:224|384:192,1,225
256,192,218047,1,0
256,192,218242,1,0
256,192,218436,1,4
256,96,220190,5,4
352,192,220969,1,0
448,288,221748,2,0,C|352:320|256:288|160:320|32:288,1,375
256,192,223112,1,0
256,192,223306,1,4
128,32,225449,5,2
128,96,225838,2,2,B|128:288,1,150
160,288,226423,6,0,B|256:320|384:256,1,225
384,192,227203,2,0,B|288:224|160:160,1,225
160,96,227982,2,0,B|256:128|384:64,1,225
448,64,228760,1,0
512,64,229345,1,4
256,192,230514,1,0
256,192,230709,1,0
256,192,230904,1,4
416,64,232657,2,0,B|448:160|384:288,1,225
320,288,233436,2,0,B|352:192|288:64,1,225
224,64,234215,2,0,B|256:160|192:288,1,225
160,288,234995,1,0
96,288,235773,1,4
256,192,236748,1,0
256,192,236943,1,0
256,192,237138,1,0
256,192,237332,1,4
128,320,238891,2,0,B|256:288|416:320,1,225
384,256,239670,2,0,B|256:224|128:256,1,225
128,192,240449,2,0,B|256:160|384:192,1,225
384,128,241228,2,0,B|256:96|128:128,1,225
128,192,242008,2,0,B|256:224|384:192,1,225
256,192,242982,1,0
256,192,243177,1,0
256,192,243371,1,4
256,96,245125,5,4
160,192,245904,1,4
64,288,246683,2,0,C|160:320|256:288|352:320|480:288,1,375
256,192,248047,1,0
256,192,248241,1,4
416,64,251358,5,4
320,64,251747,1,0
352,160,252137,1,0
256,160,252526,1,0
288,256,252916,1,0
192,256,253306,1,0
192,256,253500,1,0
384,320,254475,1,0
352,224,254864,1,0
256,256,255254,1,0
224,224,255448,1,0
160,160,255838,1,4
96,64,257592,5,4
192,64,257981,1,0
160,160,258371,1,0
256,160,258760,1,0
224,256,259150,1,0
320,256,259540,1,0
320,256,259734,1,4
128,320,260708,1,0
160,224,261098,1,0
256,256,261488,1,0
288,224,261682,1,0
352,160,262072,1,4
128,64,263825,5,0
160,160,264215,1,0
256,128,264605,1,0
288,160,264799,1,0
352,224,265189,1,4
384,64,266942,5,0
352,160,267332,1,0
256,128,267722,1,0
224,160,267916,1,0
160,224,268306,1,4
128,96,270059,5,4
224,96,270449,1,0
320,96,270838,1,0
320,192,271228,1,0
320,192,271423,1,0
320,256,271812,1,0
320,256,272007,1,0
256,256,272397,1,0
256,256,272592,1,4
128,256,273566,1,4
128,160,273955,1,0
128,64,274345,1,0
128,64,274540,1,0
192,64,274929,1,0
192,64,275124,1,0
256,64,275514,1,0
256,64,275708,1,4
320,128,276293,1,0
256,160,276683,1,0
192,128,277072,1,0
128,160,277462,1,0
64,128,277851,6,0,B|64:384,1,225
96,352,278631,2,0,B|288:160,1,225
256,192,279410,12,4,282138
