osu file format v9

[General]
AudioFilename: 03. Fantasy ga Hajimaru.mp3
AudioLeadIn: 0
PreviewTime: 78077
Countdown: 1
SampleSet: Soft
StackLeniency: 0.7
Mode: 0
LetterboxInBreaks: 1

[Editor]
Bookmarks: 30590
DistanceSpacing: 2
BeatDivisor: 4
GridSize: 8

[Metadata]
Title:Fantasy ga Hajimaru
Artist:Morning Musume
Creator:asforoneday
Version:Hard
Source:
Tags:fantasy! juuichi morning musume ga hajimaru

[Difficulty]
HPDrainRate:5
CircleSize:4
OverallDifficulty:5
ApproachRate:5
SliderMultiplier:0.8
SliderTickRate:1

[Events]
//Background and Video events
0,0,"ng.png"
//Break Periods
2,42018,47525
2,154896,161482
//Storyboard Layer 0 (Background)
//Storyboard Layer 1 (Fail)
//Storyboard Layer 2 (Pass)
//Storyboard Layer 3 (Foreground)
//Storyboard Sound Samples
//Background Colour Transformations
3,100,0,0,0

[TimingPoints]
6776,431.654676258993,4,2,0,100,1,0
12387,-100,4,1,0,100,0,0
78088,-100,4,1,0,100,0,1
94552,-100,4,1,0,100,0,0
109136,-100,4,2,0,100,0,0
112568,-100,4,1,0,100,0,0
138392,-100,4,1,0,100,0,1
155324,-100,4,1,0,100,0,0
172699,-100,4,2,0,100,0,0
185052,-100,4,1,0,100,0,0
186115,-100,4,1,0,100,0,1
199800,-100,4,1,0,100,0,0

[Colours]
Combo1 : 186,174,200
Combo2 : 113,0,3
Combo3 : 222,181,39
Combo4 : 0,63,168

[HitObjects]
24,160,7718,5,8
72,96,8581,1,8
120,160,9444,1,8
168,96,10308,1,8
216,160,11171,1,8
264,96,12034,1,8
424,96,12466,6,4,B|464:96,1,40
400,56,12897,2,4,B|427:27,1,40,0|0
472,40,14192,5,0
400,72,14408,1,0
328,112,14624,2,8,B|280:136,1,40,8|0
208,128,15056,1,0
128,128,15272,1,0
48,128,15487,1,8
72,352,15919,5,0
232,352,16351,1,8
392,352,16782,1,0
392,352,16998,1,8
392,352,17214,1,12
424,192,17646,5,0
424,112,17862,1,0
424,192,18077,2,8,B|382:191,1,40,8|0
304,192,18509,1,0
304,272,18725,1,0
304,352,18941,1,8
184,352,19372,5,0
184,272,19588,1,0
104,272,19804,1,8
104,192,20020,2,12,B|104:152,1,40,4|8
160,64,21099,5,0
240,64,21315,1,0
320,64,21531,2,8,B|320:104,1,40,8|0
320,184,21962,1,0
272,248,22178,1,0
224,184,22394,1,8
104,184,22826,5,0
104,64,23257,1,8
264,64,23689,1,0
264,64,23905,1,8
264,64,24121,1,12
264,224,24552,5,0
264,304,24768,1,0
184,304,24984,2,8,B|184:264,1,40,8|0
184,184,25415,1,0
184,104,25631,1,0
264,104,25847,1,8
424,104,26279,5,0
504,104,26495,1,0
504,184,26710,1,0
344,184,27142,5,0
424,184,27358,1,0
424,264,27574,1,0
248,216,28005,6,8,B|248:240|224:240,2,40,0|0|8
328,216,28653,1,0
408,216,28869,1,0
488,216,29085,1,0
344,288,29516,6,0,B|344:312|320:312,1,40
240,312,29948,1,0
160,312,30164,1,8
80,312,30379,1,0
80,232,30595,2,8,B|80:208|104:208,1,40,0|8
104,128,31027,1,12
264,128,31459,5,0
264,128,31674,1,0
264,128,31890,1,8
344,128,32106,2,0,B|344:80,1,40
344,8,32538,1,0
264,8,32754,2,8,B|264:48,1,40,8|0
264,128,33185,1,0
264,208,33401,1,0
184,208,33617,1,8
104,208,33833,1,4
72,312,34264,5,8
72,312,34480,1,8
232,312,34912,5,0
288,256,35128,1,0
232,200,35344,1,8
288,144,35559,1,0
232,88,35775,1,0
152,88,35991,1,8
160,208,36423,6,0,B|136:224|160:240,1,40
232,208,36854,2,8,B|256:224|232:240,1,40,0|8
232,320,37286,1,0
288,264,37502,1,0
344,208,37718,1,8
400,152,37933,1,12
272,64,38365,6,0,B|232:48,1,40
144,48,38797,2,8,B|104:64,1,40,8|0
112,144,39228,2,0,B|152:160,1,40
248,288,39876,5,0
248,208,40092,1,0
328,208,40308,1,0
328,288,40523,1,8
328,288,40739,1,4
256,192,40955,8,0,41818
56,88,48725,5,0
120,136,48941,1,0
184,88,49156,1,8
248,136,49372,1,0
312,88,49588,2,0,B|336:104|312:120,1,40
328,256,50236,5,0
328,336,50451,2,8,B|328:376,2,40,0|0|8
328,256,51099,1,0
272,200,51315,1,0
216,256,51531,1,8
160,200,51746,1,12
40,200,52178,6,0,B|16:192|32:168,1,40
104,200,52610,2,8,B|128:192|112:168,1,40,8|0
72,104,53041,2,0,B|72:48,1,40
184,48,53689,5,0
264,48,53905,1,0
264,128,54121,1,0
184,128,54336,1,8
224,200,54552,1,4
224,320,54984,5,8
224,320,55200,1,8
328,264,55631,5,0
272,208,55847,1,0
304,136,56063,1,8
384,136,56279,1,0
416,208,56495,1,0
360,264,56710,1,0
240,264,57142,6,0,B|208:296,1,40
128,288,57574,2,8,B|96:256,1,40,0|8
40,208,58005,1,0
40,128,58221,1,0
120,128,58437,1,8
120,128,58653,1,12
240,152,59085,5,0
240,152,59300,1,0
240,152,59516,1,8
224,232,59732,2,0,B|264:232,2,40
224,352,60595,5,0
144,352,60811,1,0
64,352,61027,1,0
64,272,61243,1,8
64,192,61459,1,4
304,184,62322,6,0,B|304:144,1,40
304,64,62754,2,8,B|304:24,1,40,0|8
384,24,63185,2,0,B|432:24,2,40
432,88,63833,2,8,B|432:128,1,40,8|0
432,208,64264,2,0,B|432:248,1,40,0|0
432,328,64696,1,8
352,328,64912,1,0
272,328,65128,1,4
48,104,65991,5,4
128,104,66207,1,0
208,104,66423,1,8
288,104,66638,1,0
288,184,66854,1,0
288,264,67070,1,0
208,264,67286,1,8
208,184,67502,1,0
128,184,67718,5,0
224,312,68149,5,12
320,184,68581,5,4
224,56,69013,5,8
304,56,69228,6,0,B|272:88,1,40
304,320,70092,2,0,B|256:320,1,40
88,152,70955,2,0,B|120:184,1,40
280,176,71603,1,8
440,176,72034,1,0
312,304,72897,5,0
352,232,73113,1,0
312,168,73329,1,8
352,104,73545,1,0
312,32,73761,1,0
392,32,73977,1,0
400,192,74408,2,0,B|360:192,1,40
256,192,75272,8,0,77646
40,152,78077,6,0,B|64:120,1,40
144,120,78509,2,0,B|168:152,1,40,8|0
248,152,78941,2,0,B|272:120,1,40,0|0
352,120,79372,2,8,B|376:152,1,40,8|0
376,232,79804,2,0,B|352:264,1,40,0|0
272,264,80236,2,0,B|248:232,1,40,8|0
168,232,80667,2,8,B|144:264,1,40,0|0
64,264,81099,2,8,B|40:232,1,40,8|0
40,152,81531,5,0
88,88,81746,1,0
136,152,81962,1,8
184,88,82178,1,4
336,88,83041,5,0
384,152,83257,1,0
432,88,83473,1,0
480,152,83689,1,8
480,232,83905,2,8,B|400:232,1,80,0|8
320,232,84552,1,12
200,232,84984,5,0
152,168,85200,1,0
104,232,85415,1,8
56,296,85631,1,0
56,216,85847,1,0
56,136,86063,1,0
56,56,86279,2,8,B|56:16,2,40,8|0|0
136,56,86926,1,0
216,56,87142,2,8,B|240:72|216:88,1,40,8|0
296,56,87574,2,0,B|320:72|296:88,1,40,0|8
376,56,88005,2,12,B|400:72|376:88,1,40,8|0
384,168,88437,5,0
424,240,88653,1,0
376,304,88869,1,8
296,304,89085,1,4
176,304,89948,5,0
96,304,90164,1,0
48,240,90379,1,0
96,176,90595,1,8
96,176,90811,1,4
192,176,91890,6,4,B|232:176,1,40
312,176,92322,2,12,B|272:176,1,40
256,264,93401,6,0,B|256:224,1,40
256,144,93833,2,4,B|256:184,1,40
256,200,94264,5,4
136,200,94912,5,4
136,80,95344,5,0
216,80,95559,2,0,B|232:104|216:120,1,40,0|8
288,80,95991,2,0,B|304:104|288:120,1,40
288,200,96423,1,0
368,200,96638,1,8
368,40,97070,5,0
208,48,97502,1,8
48,56,97933,2,8,B|48:72|48:96,1,40,0|8
48,176,98365,1,12
256,240,98797,5,0
256,240,99013,1,0
336,240,99228,1,8
336,240,99444,1,0
376,312,99660,1,0
376,312,99876,1,0
376,312,100092,1,8
376,152,100523,6,8,B|400:136|376:120,2,40,0|0|8
296,152,101171,1,0
216,152,101387,1,0
488,320,102250,6,0,B|488:365,1,40
408,360,102682,2,8,B|408:312,1,40,8|0
328,320,103113,2,0,B|328:360,1,40
248,360,103545,1,8
88,360,103977,5,0
88,200,104408,1,8
96,40,104840,2,8,B|136:40,1,40,0|8
216,40,105272,1,12
368,48,105703,6,0,B|368:88,1,40
288,88,106135,2,8,B|288:40,1,40,8|0
208,48,106567,2,0,B|208:96,1,40
128,88,106998,1,8
224,184,107430,6,0,B|288:136|344:184|272:248,1,160
224,296,108509,1,0
224,296,108725,1,0
104,184,109156,5,0
184,184,109372,1,0
240,240,109588,1,0
320,240,109804,1,0
368,304,110020,1,0
448,304,110236,1,0
456,144,110667,5,0
376,144,110883,1,0
328,208,111099,1,0
248,208,111315,1,0
192,264,111531,1,0
112,264,111746,1,0
112,344,111962,1,8
112,344,112178,1,12
240,256,112610,6,0,B|232:224|264:240,1,40
336,256,113041,2,8,B|328:224|360:240,1,40,8|0
432,256,113473,2,0,B|424:224|456:240,1,40,0|0
432,80,114121,1,0
432,160,114336,2,4,B|472:184,3,40,4|4|12|4
328,104,115415,5,8
328,104,115631,1,8
168,104,116063,5,0
232,152,116279,1,0
168,200,116495,1,8
104,152,116710,1,0
40,200,116926,1,0
104,248,117142,1,0
264,248,117574,5,0
328,200,117790,1,0
392,248,118005,1,0
328,296,118221,1,8
264,248,118437,2,0,B|264:208,1,40
264,128,118869,2,12,B|304:128,1,40
168,48,119516,5,0
232,96,119732,1,0
168,136,119948,1,8
232,184,120164,1,0
168,232,120379,1,0
232,280,120595,2,8,B|272:280,1,40,0|0
352,280,121027,1,0
432,280,121243,2,0,B|360:216|288:280|368:352,1,200
264,352,122538,1,12
184,352,122754,6,0,B|158:321,1,40
160,240,123185,2,8,B|185:209,1,40,0|8
264,208,123617,1,0
344,208,123833,1,0
424,208,124049,1,0
424,128,124264,2,8,B|399:98,1,40,8|0
320,96,124696,2,0,B|294:126,1,40,0|0
216,128,125128,1,8
136,128,125344,1,0
56,128,125559,1,4
296,336,126423,5,4
296,256,126638,1,0
296,176,126854,1,8
296,96,127070,1,0
216,96,127286,1,0
136,96,127502,1,0
56,96,127718,1,8
56,176,127933,1,0
136,176,128149,5,0
128,336,128581,5,12
288,336,129013,5,4
288,176,129444,5,8
288,96,129660,6,0,B|256:64,1,40
56,192,130523,2,0,B|16:192,1,40
256,200,131387,2,0,B|288:232,1,40
448,224,132034,1,8
448,64,132466,1,0
104,104,133329,5,0
160,48,133545,1,0
216,104,133761,1,8
272,48,133977,1,0
328,104,134192,1,0
272,160,134408,1,0
272,320,134840,2,0,B|272:360,1,40
256,192,135703,8,0,138077
64,120,138509,5,0
64,40,138725,1,0
144,40,138941,1,8
144,120,139156,1,0
224,120,139372,1,0
304,120,139588,1,0
304,40,139804,1,8
384,40,140020,1,0
384,120,140236,5,0
384,200,140451,1,0
384,280,140667,1,8
304,280,140883,1,0
304,200,141099,1,0
304,120,141315,1,8
304,120,141531,1,8
224,120,141746,1,0
144,120,141962,2,0,B|96:184,1,80,0|8
16,184,142610,1,4
288,352,143473,5,0
288,272,143689,2,8,B|328:272,2,40,0|0|8
208,272,144336,1,4
48,272,144768,5,8
48,272,144984,1,8
48,112,145415,6,0,B|88:112,3,40,0|0|8|0
168,112,146279,2,0,B|208:112,3,40,0|0|8|0
288,112,147142,2,0,B|328:112,3,40,0|0|8|0
408,112,148005,2,0,B|448:112,3,40,0|0|8|0
408,184,148869,5,0
408,264,149085,1,0
408,344,149300,1,8
328,344,149516,1,4
8,344,150379,5,0
8,264,150595,1,0
8,184,150811,1,0
8,104,151027,1,8
88,104,151243,1,4
248,104,151674,5,8
248,104,151890,1,8
400,48,152322,5,0
320,48,152538,1,0
240,48,152754,1,8
160,48,152969,1,4
40,344,153833,5,0
120,344,154049,1,4
120,264,154264,1,4
200,264,154480,1,4
200,184,154696,1,4
96,64,162682,6,8,B|176:64,1,80
296,64,163437,5,0
416,64,163761,2,0,B|416:80|416:104,1,40,0|8
416,224,164300,5,0
296,224,164624,2,0,B|296:248|296:272,1,40,0|8
184,224,165164,5,0
184,104,165487,2,8,B|224:104,2,40,8|8|0
176,184,166135,6,0,B|152:248|56:184|112:152,1,140
112,32,167214,1,8
112,32,167430,1,8
232,32,167754,5,0
352,32,168077,2,0,B|392:32,1,40
352,144,168617,5,4
352,264,168941,2,4,B|392:264,2,40
256,192,169588,12,0,170883
256,200,171315,6,0,B|256:176,12,20
128,152,173041,5,0
184,96,173257,1,0
264,96,173473,1,0
320,152,173689,1,0
320,232,173905,1,0
272,296,174121,1,0
192,296,174336,1,0
136,240,174552,1,0
152,160,174768,2,0,B|176:128,1,40
256,128,175200,2,0,B|280:160,1,40
272,240,175631,2,0,B|248:272,1,40
168,264,176063,2,0,B|144:232,1,40
208,192,176495,5,0
208,192,176710,1,0
208,192,176926,1,0
208,192,177142,1,0
208,64,178005,6,0,B|248:64,4,40
96,112,179300,5,8
96,112,179516,1,8
96,232,179948,6,0,B|120:264,1,40
192,232,180380,2,0,B|216:264,1,40,8|0
288,232,180811,2,0,B|312:264,1,40
384,232,181243,2,0,B|408:264,1,40,8|0
408,344,181674,2,0,B|384:376,1,40,0|0
312,344,182106,2,0,B|288:376,1,40,8|0
216,344,182538,2,0,B|192:376,1,40,0|0
120,344,182969,2,0,B|96:376,1,40,8|0
16,376,183401,5,0
16,296,183617,1,0
16,216,183833,1,8
16,136,184049,1,0
256,144,184912,5,0
256,224,185128,1,0
256,304,185344,1,0
336,304,185559,1,4
336,304,185775,1,4
472,232,186854,6,0,B|448:264,1,40
368,264,187286,2,0,B|344:232,1,40,8|0
264,232,187718,2,0,B|240:264,1,40,0|0
160,264,188149,2,8,B|136:232,1,40,8|0
136,152,188581,2,0,B|160:120,1,40,0|0
240,120,189013,2,0,B|264:152,1,40,8|0
344,152,189444,2,8,B|368:120,1,40,0|8
448,120,189876,2,8,B|472:152,1,40,8|0
472,232,190308,5,0
472,312,190523,1,0
392,312,190739,1,8
312,312,190955,1,4
192,312,191818,5,0
112,312,192034,1,0
32,312,192250,1,0
32,232,192466,1,8
32,152,192682,2,8,B|32:72,1,80,8|0
96,32,193329,1,12
256,32,193761,5,0
256,32,193977,1,0
256,112,194192,1,8
256,112,194408,1,0
336,112,194624,1,0
336,112,194840,1,0
336,192,195056,2,8,B|336:232,2,40,8|0|0
336,112,195703,1,0
256,112,195919,2,8,B|280:128|256:144,1,40,8|0
200,200,196351,2,0,B|176:216|200:232,1,40,0|0
272,264,196782,2,12,B|296:280|272:296,1,40,8|0
344,264,197214,5,0
280,208,197430,1,0
224,152,197646,1,8
168,96,197862,1,4
488,96,198725,5,0
432,152,198941,1,0
376,208,199156,1,0
320,264,199372,1,8
264,320,199588,1,4
256,152,200667,6,0,B|256:272,1,120
40,32,202178,1,0
120,32,202394,1,4
80,104,202610,1,4
160,104,202826,1,4
240,104,203041,1,4
256,192,203257,12,0,204121
