osu file format v14

[General]
AudioFilename: gtfo.mp3
AudioLeadIn: 0
PreviewTime: 95024
Countdown: 1
SampleSet: Soft
StackLeniency: 0.7
Mode: 0
LetterboxInBreaks: 1
WidescreenStoryboard: 0

[Editor]
DistanceSpacing: 0.5
BeatDivisor: 4
GridSize: 4
TimelineZoom: 2.8

[Metadata]
Title:Tits or get the fuck out!!
TitleUnicode:Tits or get the fuck out!!
Artist:Morimori Atsushi
ArtistUnicode:モリモリあつし
Creator:EvilElvis
Version:Chastity
Source:東方project
Tags:Euny Quilt Delis felys
BeatmapID:776107
BeatmapSetID:352169

[Difficulty]
HPDrainRate:7
CircleSize:4
OverallDifficulty:8.5
ApproachRate:9.5
SliderMultiplier:1.7
SliderTickRate:1

[Events]
//Background and Video events
0,0,"td.jpg",0,0
//Break Periods
2,73405,74862
//Storyboard Layer 0 (Background)
//Storyboard Layer 1 (Fail)
//Storyboard Layer 2 (Pass)
//Storyboard Layer 3 (Foreground)
//Storyboard Sound Samples

[TimingPoints]
115,272.727272727273,4,2,1,70,1,0
115,-200,4,2,1,50,0,0
12115,-153.846153846154,4,2,1,50,0,0
20842,-100,4,1,1,70,0,0
27933,-200,4,2,1,70,0,0
28205,-100,4,2,1,70,0,0
29569,-100,4,1,1,70,0,0
30660,-100,4,1,1,70,0,0
31205,-200,4,1,1,70,0,0
33660,-133.333333333333,4,2,1,70,0,0
33933,-200,4,1,1,70,0,0
40478,-100,4,1,1,70,0,0
42660,-200,4,1,1,70,0,0
44842,-100,4,1,1,70,0,0
46478,-66.6666666666667,4,2,1,70,0,0
47024,-200,4,1,1,70,0,0
49205,-100,4,1,1,70,0,0
52069,-200,4,2,1,70,0,0
52205,-100,4,1,1,70,0,0
53024,-200,4,2,1,70,0,0
53296,-76.9230769230769,4,2,1,70,0,0
53569,-200,4,2,1,70,0,0
54660,-76.9230769230769,4,2,1,70,0,0
54933,-200,4,2,1,70,0,0
55751,-100,4,1,1,70,0,0
72933,-200,4,2,1,70,0,0
77569,-200,4,2,1,70,0,0
86365,-200,4,2,1,50,0,0
90796,-76.9230769230769,4,2,1,70,0,0
91205,-200,4,2,1,70,0,0
93933,-100,4,2,1,70,0,0
94069,-76.9230769230769,4,2,1,70,0,0
94478,-200,4,2,1,70,0,0
95024,-90.9090909090909,4,1,1,70,0,1
98842,-200,4,2,1,70,0,0
99115,-66.6666666666667,4,2,1,70,0,0
99387,-90.9090909090909,4,1,1,70,0,1
103751,-200,4,2,1,70,0,0
104024,-200,4,2,1,70,0,1
104296,-90.9090909090909,4,1,1,70,0,1
107569,-200,4,2,1,70,0,0
107842,-66.6666666666667,4,2,1,70,0,0
108115,-90.9090909090909,4,1,1,70,0,1
112478,-90.9090909090909,4,1,1,70,0,0
129660,-200,4,2,1,70,0,0
129933,-83.3333333333333,4,1,1,70,0,0
135387,-100,4,1,1,70,0,0
138728,-100,4,2,1,70,0,0
140978,-100,4,1,1,50,0,0
143024,-133.333333333333,4,2,1,40,0,0
145205,-133.333333333333,4,1,1,40,0,0
146296,-133.333333333333,4,1,1,60,0,0
147387,-133.333333333333,4,2,1,50,0,0
148205,-133.333333333333,4,2,1,40,0,0
148751,-133.333333333333,4,2,1,30,0,0
149160,-133.333333333333,4,2,1,20,0,0
149433,-133.333333333333,4,2,1,40,0,0

[Colours]
Combo1 : 0,193,97
Combo2 : 122,0,244
Combo3 : 60,157,255
Combo4 : 204,0,204

[HitObjects]
256,192,1205,12,0,3251,0:0:0:0:
52,190,3387,6,0,L|105:194,1,42.5,4|0,1:0|0:0,0:0:0:0:
168,210,3660,2,0,L|215:200,1,42.5,8|0,0:0|0:0,0:0:0:0:
284,183,3933,5,8,1:0:0:0:
282,193,4069,1,0,0:0:0:0:
357,203,4205,1,8,1:2:0:0:
361,214,4342,1,8,1:0:0:0:
492,110,4478,5,8,0:3:0:0:
416,126,4615,1,8,3:0:0:0:
348,91,4751,1,8,1:2:0:0:
272,105,4887,1,0,0:0:0:0:
293,21,5024,5,8,1:0:0:0:
301,24,5160,1,0,0:0:0:0:
377,12,5296,1,10,0:0:0:0:
385,17,5433,1,2,0:0:0:0:
505,212,5569,6,0,L|445:205,1,42.5,4|0,1:0|0:0,0:0:0:0:
387,221,5842,1,8,1:2:0:0:
339,280,5978,1,0,0:0:0:0:
346,356,6115,1,8,1:0:0:0:
355,351,6251,1,0,0:0:0:0:
506,365,6387,5,8,1:2:0:0:
486,291,6524,1,8,1:0:0:0:
408,292,6660,1,0,0:0:0:0:
413,303,6796,1,8,3:0:0:0:
432,377,6933,5,4,1:3:0:0:
438,369,7069,1,0,0:0:0:0:
445,224,7205,5,6,1:3:0:0:
430,213,7342,1,8,0:3:0:0:
312,171,7478,5,8,1:2:0:0:
285,169,7615,1,8,3:0:0:0:
276,366,7751,6,0,L|283:313,1,42.5,4|0,1:0|0:0,0:0:0:0:
199,355,8024,2,0,L|194:312,1,42.5,8|0,1:2|0:0,0:0:0:0:
126,376,8296,1,8,1:0:0:0:
119,366,8433,1,0,0:0:0:0:
55,323,8569,1,8,1:2:0:0:
67,319,8705,1,8,1:0:0:0:
135,257,8842,5,8,0:3:0:0:
61,236,8978,1,8,0:3:0:0:
114,181,9115,1,8,1:2:0:0:
40,159,9251,1,0,0:0:0:0:
97,108,9387,5,8,1:0:0:0:
108,101,9524,1,0,0:0:0:0:
71,37,9660,1,8,1:2:0:0:
83,36,9796,1,2,0:0:0:0:
219,158,9933,6,0,L|216:200,1,42.5,4|0,1:0|0:0,0:0:0:0:
252,268,10205,1,8,1:2:0:0:
321,299,10342,1,0,0:0:0:0:
396,287,10478,1,8,1:0:0:0:
403,273,10615,1,0,0:0:0:0:
497,167,10751,5,8,1:2:0:0:
428,136,10887,1,8,1:0:0:0:
353,148,11024,1,0,0:0:0:0:
346,162,11160,1,8,0:3:0:0:
257,155,11296,5,8,1:2:0:0:
266,233,11433,1,8,1:0:0:0:
228,304,11569,5,4,1:3:0:0:
215,312,11705,1,0,0:0:0:0:
307,302,11842,5,4,1:3:0:0:
319,311,11978,1,0,0:0:0:0:
55,218,12115,6,0,L|-7:227,1,55.2499974708558,4|0,1:0|0:0,0:0:0:0:
44,292,12387,1,8,1:2:0:0:
62,300,12524,1,0,0:0:0:0:
73,139,12660,5,8,1:0:0:0:
132,90,12796,1,8,0:3:0:0:
208,75,12933,1,8,1:2:0:0:
217,91,13069,1,8,1:0:0:0:
435,170,13205,6,0,L|497:179,1,55.2499974708558,2|8,1:3|0:3,0:0:0:0:
367,135,13478,1,8,1:2:0:0:
299,158,13615,1,8,0:3:0:0:
284,228,13751,1,8,1:0:0:0:
319,290,13887,1,8,0:3:0:0:
389,300,14024,1,8,1:2:0:0:
440,249,14160,1,2,0:0:0:0:
217,186,14296,6,0,L|149:193,1,55.2499974708558,4|0,1:0|0:0,0:0:0:0:
18,138,14569,1,8,1:2:0:0:
102,272,14705,1,8,0:3:0:0:
106,253,14842,1,4,1:3:0:0:
125,99,14978,1,8,0:3:0:0:
112,124,15115,1,4,1:3:0:0:
100,147,15251,1,8,1:3:0:0:
223,75,15387,5,2,1:3:0:0:
205,115,15524,1,8,1:3:0:0:
190,156,15660,1,4,1:3:0:0:
303,55,15796,5,0,0:0:0:0:
299,65,15933,1,4,1:3:0:0:
256,223,16069,5,8,0:3:0:0:
262,210,16205,1,8,1:2:0:0:
281,136,16342,5,10,0:3:0:0:
318,278,16478,6,0,L|373:274,1,55.2499974708558,4|0,1:0|0:0,0:0:0:0:
437,232,16751,1,8,1:2:0:0:
446,226,16887,1,0,0:0:0:0:
246,351,17024,5,8,1:0:0:0:
174,333,17160,1,8,0:3:0:0:
97,311,17296,1,8,1:2:0:0:
107,297,17433,1,8,1:0:0:0:
358,141,17569,6,0,L|289:152,1,55.2499974708558,2|8,1:3|0:3,0:0:0:0:
501,73,17842,1,8,1:2:0:0:
419,208,17978,1,8,0:3:0:0:
420,45,18115,1,8,1:0:0:0:
509,173,18251,5,8,0:3:0:0:
338,59,18387,1,8,1:2:0:0:
342,40,18524,1,2,0:0:0:0:
148,189,18660,6,0,L|206:194,1,55.2499974708558,4|0,1:0|0:0,0:0:0:0:
277,203,18933,1,8,1:2:0:0:
340,247,19069,1,0,0:0:0:0:
357,321,19205,1,4,1:3:0:0:
347,330,19342,1,8,0:3:0:0:
280,366,19478,1,4,1:3:0:0:
259,358,19615,1,2,0:0:0:0:
26,66,20842,6,0,P|66:57|108:64,1,85,4|0,1:0|0:0,0:0:0:0:
108,274,21115,2,0,P|66:281|25:272,1,85,4|0,0:3|0:0,0:0:0:0:
153,153,21387,5,0,0:0:0:0:
335,83,21524,1,8,0:3:0:0:
225,231,21660,1,4,0:3:0:0:
232,46,21796,1,0,0:0:0:0:
356,225,21933,5,8,0:3:0:0:
340,204,22069,1,0,0:0:0:0:
445,267,22205,1,4,0:3:0:0:
472,266,22342,1,0,0:0:0:0:
366,317,22478,1,0,0:0:0:0:
354,342,22615,1,8,0:3:0:0:
125,232,22751,5,4,0:3:0:0:
270,139,22887,1,8,0:3:0:0:
245,340,23024,6,0,L|243:244,1,85,4|0,0:0|0:0,0:0:0:0:
134,53,23296,2,0,L|197:115,1,85,4|0,0:3|0:0,0:0:0:0:
425,106,23569,2,0,L|346:150,1,85,0|8,0:0|0:3,0:0:0:0:
43,255,23842,5,4,0:3:0:0:
106,344,23978,1,0,0:0:0:0:
100,155,24115,5,2,0:3:0:0:
79,166,24251,1,8,0:0:0:0:
259,223,24387,5,4,0:3:0:0:
188,142,24524,1,2,0:3:0:0:
206,339,24660,5,8,0:0:0:0:
227,325,24796,1,2,0:3:0:0:
435,242,24933,5,12,0:3:0:0:
435,242,25001,1,8,0:3:0:0:
435,242,25069,1,8,0:3:0:0:
437,145,25205,6,0,P|374:165|348:190,1,85,4|0,0:0|0:0,0:0:0:0:
435,337,25478,2,0,P|497:316|523:291,1,85,4|0,0:3|0:0,0:0:0:0:
304,286,25751,2,0,L|286:182,1,85,0|8,0:0|0:3,0:0:0:0:
169,73,26024,1,4,0:3:0:0:
350,40,26160,1,0,0:0:0:0:
261,113,26296,5,8,0:3:0:0:
256,37,26433,1,0,0:0:0:0:
373,191,26569,5,4,0:3:0:0:
391,116,26705,1,0,0:0:0:0:
183,248,26842,5,0,0:0:0:0:
89,157,26978,1,8,0:3:0:0:
352,325,27115,5,4,0:3:0:0:
457,266,27251,1,8,0:3:0:0:
97,360,27387,5,4,0:0:0:0:
27,290,27524,1,0,0:0:0:0:
178,303,27660,5,4,0:3:0:0:
33,285,27796,1,0,0:0:0:0:
197,196,27933,5,0,0:0:0:0:
40,279,28069,1,8,0:3:0:0:
43,102,28205,1,4,0:3:0:0:
90,191,28342,1,0,0:0:0:0:
307,28,28478,5,4,0:2:0:0:
336,35,28751,5,4,0:2:0:0:
365,43,29024,5,4,0:2:0:0:
396,51,29296,5,8,0:3:0:0:
390,71,29365,1,8,0:3:0:0:
384,91,29433,1,8,0:3:0:0:
378,111,29501,1,8,0:3:0:0:
370,131,29569,6,0,P|319:118|250:125,1,85,4|0,1:0|0:0,0:0:0:0:
391,208,29842,2,0,P|435:233|462:273,1,85,4|0,0:3|0:0,0:0:0:0:
311,196,30115,5,0,0:0:0:0:
117,257,30251,1,8,0:3:0:0:
263,349,30387,1,4,0:3:0:0:
205,140,30524,1,0,0:0:0:0:
204,268,30660,5,8,0:3:0:0:
291,101,30796,1,0,0:0:0:0:
119,125,30933,5,4,0:3:0:0:
367,263,31069,1,8,0:3:0:0:
238,32,31205,6,0,L|183:36,1,42.5,2|0,1:3|0:0,0:0:0:0:
144,225,31478,1,4,0:3:0:0:
1,113,31615,1,8,0:3:0:0:
106,111,31751,5,4,1:0:0:0:
88,106,31887,1,0,0:0:0:0:
221,172,32024,1,4,0:3:0:0:
199,156,32160,1,0,0:0:0:0:
252,305,32296,1,0,0:3:0:0:
253,271,32433,1,8,0:3:0:0:
202,374,32569,5,4,0:3:0:0:
287,119,32705,1,0,0:0:0:0:
59,41,32842,1,2,3:0:0:0:
59,41,33046,1,2,3:0:0:0:
59,41,33251,1,2,3:0:0:0:
126,81,33387,6,0,L|120:107,1,21.25,2|0,2:0|2:0,0:0:0:0:
117,173,33524,2,0,L|109:197,1,21.25,0|0,0:0|2:0,0:0:0:0:
182,218,33660,6,0,L|191:181,1,31.8750012159348,2|0,0:0|0:0,0:0:0:0:
203,115,33796,2,0,L|212:78,1,31.8750012159348,0|0,1:0|0:0,0:0:0:0:
271,36,33933,5,4,0:0:0:0:
276,33,34069,1,0,0:0:0:0:
325,89,34205,5,4,0:3:0:0:
326,82,34342,1,0,0:0:0:0:
400,108,34478,5,2,0:0:0:0:
397,98,34615,1,8,0:3:0:0:
452,191,34751,5,4,0:3:0:0:
457,178,34887,1,0,0:0:0:0:
378,197,35024,5,4,0:0:0:0:
363,179,35160,1,0,0:0:0:0:
341,258,35296,5,4,0:3:0:0:
309,254,35433,1,0,0:0:0:0:
369,329,35569,5,2,0:0:0:0:
333,361,35705,1,8,0:3:0:0:
243,298,35842,5,4,0:3:0:0:
223,245,35978,1,8,0:3:0:0:
186,350,36115,5,4,0:0:0:0:
129,320,36251,1,0,0:0:0:0:
22,281,36387,5,4,0:3:0:0:
86,221,36524,1,0,0:0:0:0:
0,204,36660,5,2,0:0:0:0:
54,109,36796,1,8,0:3:0:0:
292,77,36933,5,4,0:3:0:0:
189,31,37069,1,0,0:0:0:0:
304,170,37205,6,0,L|288:229,1,42.5,4|0,2:0|2:0,0:0:0:0:
338,282,37478,5,0,0:0:0:0:
338,275,37615,5,2,2:0:0:0:
332,279,37751,5,0,0:0:0:0:
346,361,37887,5,0,0:0:0:0:
378,352,37955,1,0,0:0:0:0:
404,330,38024,1,0,0:0:0:0:
415,298,38092,1,0,0:0:0:0:
414,264,38160,2,0,L|406:236,1,21.25
498,196,38296,6,0,L|476:18,1,170,4|2,0:0|0:3,0:0:0:0:
477,27,39115,1,0,0:0:0:0:
413,66,39251,1,0,0:0:0:0:
226,244,39387,6,0,L|248:66,1,170,0|2,0:0|0:3,0:0:0:0:
246,75,40205,1,0,0:0:0:0:
315,121,40342,1,0,0:0:0:0:
496,315,40478,6,0,L|486:230,1,85,6|0,0:0|0:0,0:0:0:0:
193,202,40751,2,0,L|178:245,1,42.5,2|0,0:0|0:0,0:0:0:0:
226,209,40887,2,0,L|219:252,1,42.5
261,204,41024,1,2,0:3:0:0:
296,190,41092,1,0,0:0:0:0:
332,179,41160,1,2,0:0:0:0:
370,180,41228,1,0,0:0:0:0:
403,199,41296,1,0,0:0:0:0:
414,235,41365,1,0,0:0:0:0:
411,273,41433,1,2,0:0:0:0:
385,300,41501,1,0,0:0:0:0:
350,312,41569,6,0,L|265:290,1,85,2|0,0:0|0:0,0:0:0:0:
238,285,41774,1,0,0:0:0:0:
201,285,41842,2,0,P|152:292|107:314,1,85,2|0,0:0|0:0,0:0:0:0:
94,322,42046,1,0,0:0:0:0:
68,336,42115,6,0,L|74:277,1,42.5,2|0,0:3|0:0,0:0:0:0:
14,245,42251,2,0,L|10:203,1,42.5,2|0,0:0|0:0,0:0:0:0:
66,154,42387,2,0,L|70:111,1,42.5,2|0,0:0|0:0,0:0:0:0:
17,55,42524,1,2,0:0:0:0:
270,27,42660,6,0,B|332:46|332:46|355:78|355:78|424:97,1,170,4|2,0:0|0:3,0:0:0:0:
418,96,43478,1,0,0:0:0:0:
463,165,43615,1,0,0:0:0:0:
95,332,43751,6,0,B|157:312|157:312|180:280|180:280|249:261,1,170,0|2,0:0|0:3,0:0:0:0:
243,262,44569,1,0,0:0:0:0:
288,194,44705,1,0,0:0:0:0:
50,35,44842,6,0,L|56:137,1,85,6|0,0:0|0:0,0:0:0:0:
277,17,45115,2,0,L|235:31,1,42.5,2|0,0:0|0:0,0:0:0:0:
290,46,45251,2,0,L|248:53,1,42.5
275,77,45387,1,2,0:3:0:0:
250,100,45455,1,0,0:0:0:0:
240,132,45524,1,2,0:0:0:0:
247,165,45592,1,0,0:0:0:0:
266,192,45660,1,0,0:0:0:0:
285,220,45728,1,0,0:0:0:0:
292,253,45796,1,2,0:0:0:0:
285,286,45865,1,0,0:0:0:0:
252,296,45933,6,0,L|357:311,1,85,2|0,0:0|0:0,0:0:0:0:
367,322,46137,1,0,0:0:0:0:
396,339,46205,2,0,P|413:287|401:244,1,85,2|2,0:0|0:0,0:0:0:0:
425,229,46410,1,0,0:0:0:0:
453,191,46478,6,0,B|395:213|395:213|312:191,1,127.500004863739,4|0,1:2|0:0,0:0:0:0:
78,57,46751,2,0,B|136:35|136:35|219:57,1,127.500004863739,4|0,1:2|0:0,0:0:0:0:
159,304,47024,6,0,L|142:118,1,170,4|2,0:0|0:3,0:0:0:0:
143,134,47842,1,0,0:0:0:0:
200,80,47978,1,0,0:0:0:0:
435,145,48115,6,0,L|452:331,1,170,0|2,0:0|0:3,0:0:0:0:
450,314,48933,1,0,0:0:0:0:
393,368,49069,1,0,0:0:0:0:
227,209,49205,6,0,L|316:202,1,85,6|0,0:0|0:0,0:0:0:0:
124,331,49478,2,0,L|77:351,1,42.5,2|0,0:0|0:0,0:0:0:0:
105,300,49615,2,0,L|63:337,1,42.5
77,282,49751,1,2,0:3:0:0:
45,269,49819,1,0,0:0:0:0:
20,244,49887,1,2,0:0:0:0:
7,212,49955,1,0,0:0:0:0:
6,178,50024,1,0,0:0:0:0:
16,145,50092,1,0,0:0:0:0:
42,124,50160,1,0,0:0:0:0:
74,115,50228,1,0,0:0:0:0:
108,119,50296,6,0,L|194:138,1,85,2|0,0:0|0:0,0:0:0:0:
220,120,50501,1,0,0:0:0:0:
243,96,50569,2,0,P|266:146|266:177,1,85,2|0,0:0|0:0,0:0:0:0:
290,199,50774,1,0,0:0:0:0:
295,232,50842,2,0,L|291:283,1,42.5,2|0,0:3|0:0,0:0:0:0:
223,346,50978,2,0,L|217:288,1,42.5,2|0,0:0|0:0,0:0:0:0:
447,309,51115,2,0,L|442:354,1,42.5
369,308,51251,2,0,L|362:264,1,42.5,2|0,0:0|0:0,0:0:0:0:
475,181,51387,6,0,L|467:131,3,42.5,0|0|0|0,2:0|0:0|2:0|0:0,0:0:0:0:
460,97,51660,1,0,0:0:0:0:
429,67,51728,1,0,2:0:0:0:
387,55,51796,1,0,0:0:0:0:
344,56,51865,1,0,0:0:0:0:
302,64,51933,6,0,L|292:25,1,21.25,8|0,0:2|2:0,0:0:0:0:
175,34,52069,6,0,L|224:27,1,42.5,0|8,0:0|0:3,0:0:0:0:
143,59,52274,5,0,0:0:0:0:
129,94,52342,1,0,2:0:0:0:
136,131,52410,1,0,0:0:0:0:
155,164,52478,6,0,P|199:177|245:169,1,85,4|0,0:0|0:0,0:0:0:0:
411,238,52751,2,0,P|367:225|321:233,1,85
260,280,53024,6,0,L|267:332,1,42.5,0|8,0:0|0:3,0:0:0:0:
197,371,53296,6,0,B|238:304|238:304|188:206,1,165.749992412568,4|0,1:2|0:0,0:0:0:0:
198,226,53569,6,0,L|54:251,1,127.5,4|0,1:0|0:0,0:0:0:0:
23,198,54115,1,8,0:3:0:0:
239,28,54319,1,2,0:0:0:0:
239,28,54455,2,0,L|245:61,1,21.25,0|2,0:0|0:0,0:0:0:0:
319,270,54660,6,0,L|483:291,1,165.749992412568,6|0,1:0|0:0,0:0:0:0:
483,291,54933,6,0,L|492:246,1,42.5,8|0,0:3|0:0,0:0:0:0:
241,370,55205,5,2,3:0:0:0:
241,370,55478,6,0,L|237:333,1,21.25,2|0,1:0|0:0,0:0:0:0:
227,274,55615,2,0,L|229:252,1,21.25,2|0,1:0|0:0,0:0:0:0:
272,185,55751,6,0,P|219:178|173:159,1,85,4|2,0:0|3:2,0:0:0:0:
14,291,56024,2,0,P|54:277|96:273,1,85,4|2,0:3|3:2,0:0:0:0:
203,98,56296,5,0,0:0:0:0:
169,309,56433,1,2,3:2:0:0:
68,147,56569,1,4,0:3:0:0:
85,162,56705,1,2,3:2:0:0:
281,251,56842,1,0,0:3:0:0:
309,129,56978,5,2,3:2:0:0:
177,201,57115,1,12,0:3:0:0:
272,35,57251,5,8,3:0:0:0:
437,97,57387,1,0,0:0:0:0:
297,11,57524,5,2,3:2:0:0:
415,124,57660,1,4,0:3:0:0:
312,20,57796,1,8,3:0:0:0:
309,129,57933,5,4,0:0:0:0:
227,174,58069,1,2,2:0:0:0:
156,111,58205,1,4,0:3:0:0:
234,61,58342,1,2,2:0:0:0:
296,215,58478,6,0,L|285:271,1,42.5
315,204,58615,2,0,L|306:257,1,42.5
429,237,58751,6,0,L|440:293,1,42.5,4|0,0:3|0:0,0:0:0:0:
452,241,58887,2,0,L|461:294,1,42.5
367,345,59024,6,0,L|264:354,1,85,2|2,0:0|2:0,0:0:0:0:
63,278,59296,2,0,L|166:269,1,85,4|2,0:3|2:0,0:0:0:0:
252,134,59569,1,2,0:0:0:0:
73,101,59705,1,8,0:3:0:0:
73,101,59774,1,8,0:3:0:0:
73,101,59842,1,12,0:3:0:0:
140,169,59978,1,8,0:3:0:0:
230,26,60115,5,4,0:0:0:0:
301,48,60251,1,2,2:0:0:0:
485,145,60387,5,12,0:3:0:0:
356,187,60524,1,2,2:0:0:0:
473,152,60660,1,0,0:3:0:0:
346,189,60796,1,2,2:0:0:0:
301,48,60933,5,4,0:3:0:0:
230,26,61069,1,0,0:0:0:0:
111,158,61205,5,4,0:2:0:0:
110,78,61342,2,0,L|95:26,2,42.5,0|0|4,0:0|0:0|0:3,0:0:0:0:
258,225,61615,2,0,L|309:233,2,42.5
63,279,61887,2,0,L|18:304,2,42.5,0|0|4,0:0|0:0|0:3,0:0:0:0:
192,181,62160,5,8,0:3:0:0:
257,107,62296,1,6,0:0:0:0:
255,102,62365,1,0,0:0:0:0:
254,97,62433,1,0,0:0:0:0:
253,92,62501,1,0,0:0:0:0:
280,60,62569,5,4,0:3:0:0:
322,57,62637,1,0,0:0:0:0:
358,79,62705,1,2,0:0:0:0:
368,120,62774,1,0,0:0:0:0:
349,157,62842,1,0,0:0:0:0:
330,194,62910,1,2,0:0:0:0:
334,236,62978,1,0,0:0:0:0:
361,269,63046,1,2,0:0:0:0:
399,285,63115,5,4,0:3:0:0:
396,272,63183,1,0,0:0:0:0:
394,259,63251,1,0,0:0:0:0:
393,246,63319,1,0,0:0:0:0:
425,224,63387,5,4,0:2:0:0:
496,257,63660,5,4,0:2:0:0:
461,327,63933,5,4,0:2:0:0:
334,151,64205,5,8,0:3:0:0:
337,143,64274,1,8,0:3:0:0:
333,135,64342,1,8,0:3:0:0:
335,126,64410,1,8,0:3:0:0:
332,117,64478,6,0,L|345:218,1,85,4|2,0:0|2:0,0:0:0:0:
279,248,64751,1,4,0:3:0:0:
269,340,64887,1,2,2:0:0:0:
222,191,65024,5,0,0:0:0:0:
237,326,65160,1,2,2:0:0:0:
149,139,65296,5,4,0:3:0:0:
209,314,65433,1,2,2:0:0:0:
0,204,65569,5,0,0:0:0:0:
46,331,65705,1,2,2:0:0:0:
146,216,65842,5,12,0:3:0:0:
125,302,65978,1,8,0:3:0:0:
258,296,66115,5,4,0:2:0:0:
201,348,66251,1,8,0:3:0:0:
201,348,66319,1,8,0:3:0:0:
201,348,66387,1,12,0:3:0:0:
244,282,66524,1,8,0:3:0:0:
351,312,66660,5,4,0:0:0:0:
509,234,66796,1,2,2:0:0:0:
488,355,66933,5,4,0:3:0:0:
386,212,67069,1,0,0:0:0:0:
251,172,67205,5,0,0:0:0:0:
445,31,67342,1,0,0:0:0:0:
485,171,67478,5,4,0:3:0:0:
279,47,67615,1,0,0:0:0:0:
116,238,67751,5,4,0:2:0:0:
99,216,67955,1,4,0:2:0:0:
81,197,68160,1,4,0:2:0:0:
155,173,68296,6,0,L|199:181,1,42.5,0|0,0:0|2:0,0:0:0:0:
230,245,68433,2,0,L|282:235,1,42.5,0|0,2:0|2:0,0:0:0:0:
301,172,68569,2,0,L|346:182,1,42.5,0|0,0:0|2:0,0:0:0:0:
397,227,68705,2,0,L|441:219,1,42.5,0|0,2:0|2:0,0:0:0:0:
512,265,68842,6,0,L|500:170,1,85,4|2,0:0|2:0,0:0:0:0:
202,345,69115,1,4,0:3:0:0:
236,328,69183,1,0,0:0:0:0:
273,332,69251,1,0,0:0:0:0:
305,351,69319,1,0,0:0:0:0:
340,365,69387,1,0,0:0:0:0:
378,364,69455,1,0,0:0:0:0:
410,343,69524,1,0,0:0:0:0:
428,264,69660,1,4,0:3:0:0:
356,223,69796,1,4,0:2:0:0:
17,151,69933,6,0,L|29:246,1,85,4|0,0:0|0:0,0:0:0:0:
320,79,70205,1,4,0:3:0:0:
286,96,70274,1,0,0:0:0:0:
249,92,70342,1,0,0:0:0:0:
217,73,70410,1,0,0:0:0:0:
182,59,70478,1,0,0:0:0:0:
144,60,70546,1,0,0:0:0:0:
112,81,70615,1,0,0:0:0:0:
94,160,70751,1,4,0:3:0:0:
166,206,70887,1,4,0:2:0:0:
238,158,71024,5,4,0:0:0:0:
205,79,71160,1,0,0:0:0:0:
272,23,71296,1,4,0:3:0:0:
280,25,71365,1,0,0:0:0:0:
288,26,71433,1,0,0:0:0:0:
296,28,71501,1,0,0:0:0:0:
333,33,71569,1,4,0:0:0:0:
367,49,71637,1,0,0:0:0:0:
388,80,71705,1,0,0:0:0:0:
394,117,71774,1,0,0:0:0:0:
375,150,71842,1,4,0:3:0:0:
357,183,71910,1,0,0:0:0:0:
353,221,71978,1,0,0:0:0:0:
366,257,72046,1,0,0:0:0:0:
400,273,72115,5,2,2:0:0:0:
143,340,72387,1,2,2:0:0:0:
482,250,72660,5,2,2:0:0:0:
54,366,72933,2,0,L|-5:348,1,42.5,2|0,0:0|0:0,0:0:0:0:
137,179,73205,5,2,1:3:0:0:
256,192,75387,12,4,77569,1:0:0:0:
35,166,77842,5,8,0:0:0:0:
35,166,78115,1,0,0:0:0:0:
59,150,78251,1,0,0:0:0:0:
87,142,78387,1,8,0:0:0:0:
116,141,78524,1,0,0:0:0:0:
145,147,78660,1,0,0:0:0:0:
218,166,78933,1,8,0:0:0:0:
271,221,79205,1,4,0:0:0:0:
278,249,79342,2,0,L|249:251,2,21.25,2|2|8,0:0|0:0|0:0,0:0:0:0:
280,278,79615,1,8,0:3:0:0:
80,121,80433,5,0,0:0:0:0:
108,113,80569,1,8,0:0:0:0:
137,112,80705,1,0,0:0:0:0:
166,118,80842,1,0,0:0:0:0:
239,137,81115,1,8,0:0:0:0:
292,192,81387,1,4,0:0:0:0:
175,229,81524,6,0,L|146:231,2,21.25,2|0|8,0:0|0:0|0:0,0:0:0:0:
296,229,81796,5,0,0:3:0:0:
348,285,81933,2,0,L|336:340,1,42.5,0|0,0:0|0:3,0:0:0:0:
275,363,82205,1,8,0:0:0:0:
273,353,82342,1,0,0:3:0:0:
196,347,82478,5,0,0:0:0:0:
206,326,82615,1,0,0:3:0:0:
136,295,82751,5,8,0:0:0:0:
163,268,82887,1,0,0:3:0:0:
94,234,83024,5,0,0:3:0:0:
85,160,83160,1,0,0:3:0:0:
115,93,83296,1,0,0:0:0:0:
185,63,83433,1,0,0:3:0:0:
263,71,83569,1,0,0:3:0:0:
331,113,83705,1,0,0:3:0:0:
331,113,83774,1,0,0:3:0:0:
331,113,83842,1,8,0:0:0:0:
266,146,83978,1,0,0:3:0:0:
207,185,84115,6,0,L|307:193,1,85,4|0,0:2|0:3,0:0:0:0:
362,185,84524,2,0,L|446:178,1,85,4|0,0:0|0:3,0:0:0:0:
258,262,84933,6,0,L|358:254,1,85,4|0,0:0|0:3,0:0:0:0:
413,262,85342,2,0,L|497:268,1,85,8|0,0:0|0:3,0:0:0:0:
319,358,85751,5,4,0:2:0:0:
392,344,85887,1,0,0:3:0:0:
392,344,85955,1,0,0:0:0:0:
392,344,86024,1,8,0:0:0:0:
301,345,86160,1,0,0:0:0:0:
333,210,86296,6,0,L|340:148,1,42.5,4|0,1:0|0:0,0:0:0:0:
265,44,86569,1,12,1:3:0:0:
265,44,86978,1,8,0:3:0:0:
289,111,87115,1,12,1:3:0:0:
282,39,87251,1,0,0:0:0:0:
123,33,87387,6,0,L|114:93,1,42.5,2|0,0:0|1:0,0:0:0:0:
29,200,87660,1,4,1:3:0:0:
29,200,88069,1,8,0:3:0:0:
29,200,88137,1,0,0:0:0:0:
29,200,88205,1,4,1:3:0:0:
51,273,88342,1,0,0:0:0:0:
241,356,88478,6,0,L|247:313,1,42.5,0|0,1:0|0:0,0:0:0:0:
339,195,88751,1,4,1:3:0:0:
410,212,88887,2,0,L|447:204,1,21.25,0|0,1:0|1:1,1:0:0:0:
465,146,89092,2,0,L|485:141,1,21.25,0|8,0:1|1:3,0:1:0:0:
501,71,89296,1,4,1:3:0:0:
440,35,89433,1,0,0:3:0:0:
440,35,89501,1,0,0:0:0:0:
440,35,89569,5,0,1:0:0:0:
401,99,89705,1,0,0:0:0:0:
224,73,89842,1,4,1:3:0:0:
233,66,89978,1,0,0:0:0:0:
365,184,90115,1,8,0:0:0:0:
301,15,90251,1,4,0:0:0:0:
133,185,90387,6,0,L|142:231,1,42.5,4|0,1:3|0:0,0:0:0:0:
193,276,90660,1,6,1:0:0:0:
265,280,90796,1,0,0:0:0:0:
328,245,90933,1,4,1:3:0:0:
398,230,91069,1,0,0:0:0:0:
459,269,91205,1,0,1:0:0:0:
451,340,91342,1,8,0:3:0:0:
388,375,91478,1,4,1:3:0:0:
324,339,91615,1,0,0:0:0:0:
249,354,91751,5,2,1:0:0:0:
183,313,91887,1,0,0:0:0:0:
106,307,92024,1,4,1:3:0:0:
42,349,92160,1,0,0:0:0:0:
2,283,92296,1,0,1:0:0:0:
65,240,92433,1,8,0:3:0:0:
70,231,92501,1,0,0:0:0:0:
74,221,92569,1,4,1:3:0:0:
35,158,92705,1,0,0:0:0:0:
41,85,92842,5,0,1:0:0:0:
101,38,92978,1,0,0:0:0:0:
179,46,93115,1,4,1:3:0:0:
253,27,93251,1,0,0:0:0:0:
327,17,93387,1,0,1:0:0:0:
390,64,93524,1,8,0:3:0:0:
397,140,93660,1,4,1:3:0:0:
386,153,93796,1,0,0:0:0:0:
136,199,93933,6,0,L|85:189,1,42.5,0|0,1:0|0:0,0:0:0:0:
179,158,94069,6,0,L|162:280,1,110.499994941712,6|0,1:0|0:0,0:0:0:0:
163,267,94274,2,0,L|227:272,2,55.2499974708558,0|0|0,1:0|0:0|0:0,0:0:0:0:
128,330,94478,6,0,L|137:390,1,42.5,2|2,1:0|0:0,0:0:0:0:
56,121,94751,5,4,0:0:0:0:
56,121,95024,6,0,B|128:96|128:96|144:55|144:55|210:30,1,187.000005706787,6|4,0:0|0:3,0:0:0:0:
346,131,95433,1,2,0:0:0:0:
317,44,95569,2,0,P|270:78|252:115,1,93.5000028533936
380,231,95842,2,0,P|427:197|445:160,1,93.5000028533936,4|0,0:3|0:0,0:0:0:0:
467,7,96115,6,0,L|482:129,1,93.5000028533936,2|0,0:0|0:0,0:0:0:0:
500,290,96387,2,0,L|511:197,1,93.5000028533936,4|2,0:3|0:0,0:0:0:0:
390,358,96660,2,0,L|266:351,1,93.5000028533936
185,176,96933,1,4,0:3:0:0:
195,341,97069,1,2,0:0:0:0:
430,277,97205,6,0,B|311:295|350:233|234:252,1,187.000005706787,2|4,0:0|0:3,0:0:0:0:
190,71,97615,1,2,0:0:0:0:
176,271,97751,1,0,0:0:0:0:
11,142,97887,1,0,0:0:0:0:
112,111,98024,2,0,L|118:204,1,93.5000028533936,4|0,0:3|0:0,0:0:0:0:
333,29,98296,6,0,P|275:74|258:188,1,187.000005706787,2|4,0:0|0:3,0:0:0:0:
264,380,98705,1,0,0:0:0:0:
347,344,98842,6,0,P|319:321|307:307,1,42.5,6|0,1:2|0:0,0:0:0:0:
477,332,99115,6,0,P|432:312|366:246,1,127.500004863739,8|0,0:3|0:0,0:0:0:0:
508,197,99387,5,6,0:0:0:0:
252,170,99524,1,0,0:0:0:0:
487,62,99660,2,0,P|422:74|383:101,1,93.5000028533936,4|2,0:3|0:0,0:0:0:0:
377,78,99865,1,0,0:0:0:0:
357,64,99933,2,0,L|346:182,1,93.5000028533936
250,269,100205,2,0,P|194:276|154:289,1,93.5000028533936,4|2,0:3|0:0,0:0:0:0:
24,357,100478,6,0,B|-2:247|54:283|28:170,1,187.000005706787,2|4,0:0|0:3,0:0:0:0:
178,83,100887,1,2,0:0:0:0:
111,41,101024,2,0,P|57:30|2:38,1,93.5000028533936
231,202,101296,1,4,0:3:0:0:
310,33,101433,1,0,0:0:0:0:
114,155,101569,6,0,P|110:208|125:262,1,93.5000028533936,4|8,0:0|0:3,0:0:0:0:
106,278,101774,2,0,P|157:271|209:280,1,93.5000028533936,2|0,0:3|0:0,0:0:0:0:
218,299,101978,2,0,P|279:303|328:294,1,93.5000028533936,8|0,0:3|0:0,0:0:0:0:
341,263,102183,2,0,P|337:320|344:371,1,93.5000028533936,2|0,0:3|0:0,0:0:0:0:
371,373,102387,1,2,0:3:0:0:
503,294,102524,1,2,0:3:0:0:
277,203,102660,6,0,L|274:149,1,46.7500014266968,6|0,0:0|0:0,0:0:0:0:
245,208,102796,2,0,L|248:154,1,46.7500014266968,0|0,0:0|0:3,0:0:0:0:
208,204,102933,1,0,0:0:0:0:
177,183,103001,1,0,0:0:0:0:
162,148,103069,1,2,0:0:0:0:
133,123,103137,1,0,0:0:0:0:
96,114,103205,1,0,0:0:0:0:
59,120,103274,1,0,0:0:0:0:
26,138,103342,1,0,0:0:0:0:
15,173,103410,1,0,0:0:0:0:
19,209,103478,6,0,L|74:198,1,46.7500014266968,2|0,0:3|2:0,0:0:0:0:
127,246,103615,2,0,L|178:252,1,46.7500014266968,8|0,0:3|2:0,0:0:0:0:
263,78,103751,6,0,L|254:33,1,42.5,8|0,0:3|0:3,0:0:0:0:
277,155,104024,1,4,0:3:0:0:
277,155,104160,1,2,1:0:0:0:
476,208,104296,6,0,L|366:221,1,93.5000028533936
252,278,104569,1,4,0:3:0:0:
388,368,104705,1,2,0:0:0:0:
440,137,104842,6,0,P|445:99|425:39,1,93.5000028533936,2|0,0:0|0:0,0:0:0:0:
170,18,105115,2,0,P|155:62|159:108,1,93.5000028533936,4|2,0:3|0:0,0:0:0:0:
349,61,105387,2,0,L|245:52,1,93.5000028533936
3,175,105660,2,0,L|113:160,1,93.5000028533936,4|2,0:3|0:0,0:0:0:0:
272,313,105933,6,0,P|291:232|231:116,1,187.000005706787,2|4,0:0|0:3,0:0:0:0:
5,248,106342,1,2,0:0:0:0:
51,329,106478,2,0,P|97:338|150:322,1,93.5000028533936
136,162,106751,2,0,P|89:156|34:167,1,93.5000028533936,4|0,0:3|0:0,0:0:0:0:
194,246,107024,6,0,B|296:224|274:274|397:248,1,187.000005706787,2|4,0:0|0:3,0:0:0:0:
359,328,107433,1,2,0:0:0:0:
499,375,107569,6,0,L|502:328,1,42.5,4|0,1:2|0:0,0:0:0:0:
341,50,107842,6,0,L|351:177,1,127.500004863739,8|0,0:3|0:0,0:0:0:0:
17,58,108115,5,6,0:0:0:0:
132,23,108251,1,0,0:0:0:0:
205,120,108387,2,0,L|107:131,1,93.5000028533936,4|2,0:3|0:0,0:0:0:0:
0,233,108660,1,0,0:0:0:0:
110,341,108796,1,0,0:0:0:0:
239,234,108933,1,4,0:3:0:0:
162,215,109069,1,2,0:0:0:0:
328,344,109205,5,6,0:0:0:0:
323,297,109274,1,0,0:0:0:0:
317,250,109342,1,0,0:0:0:0:
310,203,109410,1,0,0:0:0:0:
354,216,109478,1,4,0:3:0:0:
399,229,109546,1,0,0:0:0:0:
443,242,109615,1,2,0:0:0:0:
438,195,109683,1,0,0:0:0:0:
432,148,109751,6,0,L|424:89,1,46.7500014266968
340,28,109887,2,0,L|347:82,1,46.7500014266968
274,129,110024,1,4,0:3:0:0:
274,129,110160,1,0,0:0:0:0:
512,320,110296,6,0,P|463:315|412:318,1,93.5000028533936,4|8,0:0|0:3,0:0:0:0:
392,345,110501,2,0,P|388:295|392:247,1,93.5000028533936,2|0,0:3|0:0,0:0:0:0:
409,222,110705,2,0,P|345:233|299:235,1,93.5000028533936,8|2,0:3|0:3,0:0:0:0:
292,214,110910,2,0,P|285:265|288:309,1,93.5000028533936,0|2,0:0|0:3,0:0:0:0:
268,328,111115,1,8,0:3:0:0:
119,361,111251,1,2,0:3:0:0:
30,238,111387,5,6,0:0:0:0:
160,266,111524,2,0,L|207:277,2,46.7500014266968,0|2|0,0:0|0:3|0:0,0:0:0:0:
176,114,111796,5,8,0:3:0:0:
46,142,111933,2,0,L|-1:153,2,46.7500014266968,2|2|0,0:0|0:3|0:0,0:0:0:0:
123,27,112205,5,2,0:0:0:0:
276,51,112342,1,2,0:3:0:0:
133,44,112478,5,4,0:0:0:0:
256,192,112546,12,8,116569,2:2:0:0:
79,188,116842,5,6,0:0:0:0:
83,189,116910,1,0,0:0:0:0:
87,190,116978,1,0,0:0:0:0:
91,191,117046,1,0,0:0:0:0:
95,192,117115,1,0,0:0:0:0:
99,193,117183,1,0,0:0:0:0:
103,194,117251,1,0,0:0:0:0:
107,195,117319,1,0,0:0:0:0:
111,195,117387,5,0,0:0:0:0:
115,197,117455,1,0,0:0:0:0:
119,198,117524,1,0,0:0:0:0:
123,199,117592,1,0,0:0:0:0:
127,200,117660,1,2,0:0:0:0:
131,201,117728,1,0,0:0:0:0:
135,202,117796,1,0,0:0:0:0:
139,203,117865,1,0,0:0:0:0:
173,215,117933,5,2,0:0:0:0:
210,219,118001,1,0,0:0:0:0:
246,210,118069,1,0,0:0:0:0:
280,194,118137,1,0,0:0:0:0:
317,189,118205,1,0,0:0:0:0:
354,191,118274,1,0,0:0:0:0:
386,210,118342,1,2,0:0:0:0:
410,237,118410,1,0,0:0:0:0:
420,272,118478,5,0,0:0:0:0:
414,309,118546,1,0,0:0:0:0:
392,339,118615,1,0,0:0:0:0:
357,353,118683,1,0,0:0:0:0:
320,343,118751,1,2,0:0:0:0:
283,335,118819,1,0,0:0:0:0:
245,342,118887,1,0,0:0:0:0:
207,338,118955,1,0,0:0:0:0:
170,346,119024,6,0,L|175:246,1,93.5000028533936,6|8,0:0|0:3,0:0:0:0:
221,201,119228,2,0,L|207:91,1,93.5000028533936,2|8,0:3|0:3,0:0:0:0:
161,47,119433,2,0,P|213:36|261:42,1,93.5000028533936,2|0,0:3|0:0,0:0:0:0:
317,79,119637,2,0,L|417:65,1,93.5000028533936,2|8,0:3|0:3,0:0:0:0:
476,109,119842,1,2,0:3:0:0:
346,286,119978,1,8,0:3:0:0:
306,178,120115,5,4,0:0:0:0:
207,207,120251,1,0,0:0:0:0:
188,202,120319,1,2,0:3:0:0:
169,197,120387,1,0,0:0:0:0:
73,224,120524,1,8,0:3:0:0:
6,151,120660,2,0,L|0:101,1,46.7500014266968,2|0,0:3|0:3,0:0:0:0:
136,15,120865,2,0,L|140:70,1,46.7500014266968,2|0,0:3|0:0,0:0:0:0:
21,18,121069,1,8,0:3:0:0:
241,35,121205,5,4,0:0:0:0:
241,35,121478,1,8,0:2:0:0:
246,113,121751,5,8,0:3:0:0:
246,113,122024,1,8,0:2:0:0:
256,190,122296,5,8,0:3:0:0:
256,190,122569,1,8,0:2:0:0:
259,267,122842,5,8,0:3:0:0:
259,267,123115,1,8,0:2:0:0:
267,339,123387,5,8,0:3:0:0:
267,339,123660,1,8,0:2:0:0:
343,322,123933,5,8,0:3:0:0:
343,322,124205,1,8,0:2:0:0:
415,301,124478,5,8,0:3:0:0:
415,301,124751,1,8,0:2:0:0:
486,277,125024,5,8,0:3:0:0:
364,227,125160,1,8,0:3:0:0:
364,227,125228,1,8,0:3:0:0:
364,227,125296,1,8,0:3:0:0:
242,174,125433,1,8,0:3:0:0:
468,170,125569,5,6,0:0:0:0:
470,151,125705,1,0,0:0:0:0:
403,71,125842,1,2,0:0:0:0:
418,81,125978,1,0,0:0:0:0:
321,139,126115,1,0,0:0:0:0:
330,122,126251,1,2,0:0:0:0:
391,228,126387,1,0,0:0:0:0:
373,222,126524,1,0,0:0:0:0:
331,29,126660,5,6,0:0:0:0:
315,44,126796,1,0,0:0:0:0:
504,82,126933,1,2,0:0:0:0:
491,63,127069,1,0,0:0:0:0:
464,254,127205,1,0,0:0:0:0:
483,241,127342,1,2,0:0:0:0:
284,206,127478,1,2,0:0:0:0:
296,223,127615,1,0,0:0:0:0:
314,126,127751,5,4,0:0:0:0:
278,115,127819,1,0,0:0:0:0:
241,124,127887,1,0,0:0:0:0:
212,147,127955,1,0,0:0:0:0:
183,171,128024,1,0,0:0:0:0:
147,182,128092,1,0,0:0:0:0:
109,182,128160,1,0,0:0:0:0:
74,167,128228,1,0,0:0:0:0:
54,134,128296,6,0,L|62:244,1,93.5000028533936,2|0,0:3|0:0,0:0:0:0:
31,250,128501,1,2,0:3:0:0:
6,278,128569,2,0,P|50:289|114:291,1,93.5000028533936,0|2,0:0|0:3,0:0:0:0:
133,305,128774,1,0,0:0:0:0:
167,319,128842,6,0,L|219:308,1,46.7500014266968,6|0,0:0|0:0,0:0:0:0:
283,289,128978,2,0,L|329:300,1,46.7500014266968
403,323,129115,2,0,L|449:311,1,46.7500014266968,2|0,0:0|0:0,0:0:0:0:
503,257,129251,5,2,0:0:0:0:
503,257,129319,1,0,0:0:0:0:
503,257,129387,1,0,2:0:0:0:
430,19,129524,1,0,0:0:0:0:
320,157,129660,6,0,L|383:167,1,63.75,4|0,1:2|0:0,0:0:0:0:
310,103,129933,6,0,P|292:149|308:226,1,101.999996887207,4|0,1:0|0:0,0:0:0:0:
450,232,130205,2,0,P|468:186|452:109,1,101.999996887207,4|0,0:3|0:0,0:0:0:0:
286,283,130478,1,0,0:0:0:0:
152,210,130615,1,8,2:3:0:0:
94,254,130751,1,4,0:3:0:0:
103,272,130887,1,0,0:0:0:0:
183,304,131024,5,8,0:3:0:0:
267,200,131160,1,0,0:0:0:0:
400,261,131296,1,4,0:3:0:0:
312,362,131433,1,0,0:0:0:0:
183,304,131569,1,0,0:0:0:0:
369,176,131705,5,8,2:3:0:0:
510,203,131842,1,4,0:3:0:0:
388,166,131978,1,8,2:3:0:0:
496,29,132115,6,0,L|388:52,1,101.999996887207,6|0,0:0|0:0,0:0:0:0:
365,77,132319,1,0,0:0:0:0:
326,91,132387,1,4,0:3:0:0:
285,84,132455,1,0,0:0:0:0:
257,54,132524,1,2,0:0:0:0:
220,35,132592,1,0,0:0:0:0:
179,37,132660,1,0,0:0:0:0:
138,40,132728,1,0,0:0:0:0:
106,67,132796,1,0,0:0:0:0:
69,84,132865,1,0,0:0:0:0:
28,80,132933,5,4,0:3:0:0:
32,94,133001,1,0,0:0:0:0:
33,109,133069,1,0,0:0:0:0:
33,124,133137,1,0,0:0:0:0:
31,139,133205,6,0,L|132:155,1,101.999996887207,6|0,0:0|0:0,0:0:0:0:
469,160,133478,2,0,L|368:176,1,101.999996887207,4|2,0:3|0:0,0:0:0:0:
156,229,133751,1,0,0:0:0:0:
244,370,133887,1,0,0:0:0:0:
244,370,133955,1,0,0:0:0:0:
244,370,134024,1,4,0:3:0:0:
366,246,134160,1,0,0:0:0:0:
141,320,134296,5,6,0:0:0:0:
79,271,134433,2,0,L|26:282,2,50.9999984436036,0|0|12,0:0|0:0|0:3,0:0:0:0:
239,179,134705,6,0,L|292:190,2,50.9999984436036,0|0|6,0:0|0:0|0:0,0:0:0:0:
64,143,134978,1,0,0:0:0:0:
213,94,135115,1,12,0:3:0:0:
131,223,135251,1,0,0:0:0:0:
112,64,135387,5,6,0:0:0:0:
120,76,135455,1,0,0:0:0:0:
126,89,135524,1,0,0:0:0:0:
221,251,135660,1,12,0:3:0:0:
354,96,135796,1,0,0:0:0:0:
234,140,135933,5,2,0:0:0:0:
320,368,136069,1,0,0:0:0:0:
433,358,136205,5,12,0:3:0:0:
434,353,136274,1,0,0:0:0:0:
435,348,136342,1,0,0:0:0:0:
436,343,136410,1,0,0:0:0:0:
444,308,136478,5,2,0:3:0:0:
427,276,136546,1,0,0:0:0:0:
393,264,136615,1,0,0:0:0:0:
358,270,136683,1,0,0:0:0:0:
324,283,136751,5,4,0:3:0:0:
278,281,136819,1,0,0:3:0:0:
242,251,136887,1,2,0:3:0:0:
230,206,136955,1,0,0:0:0:0:
252,160,137024,5,0,0:0:0:0:
301,146,137092,1,2,0:3:0:0:
346,168,137160,1,0,0:0:0:0:
391,190,137228,1,0,0:0:0:0:
442,190,137296,1,4,0:3:0:0:
488,169,137365,1,0,0:0:0:0:
512,124,137433,1,2,0:3:0:0:
507,73,137501,1,0,0:0:0:0:
473,35,137569,5,0,0:0:0:0:
432,113,137842,5,4,0:2:0:0:
391,190,138115,5,4,0:2:0:0:
353,266,138387,5,8,0:3:0:0:
333,270,138455,1,8,0:3:0:0:
312,273,138524,1,8,0:3:0:0:
292,277,138592,1,8,0:3:0:0:
274,280,138660,6,0,L|174:275,1,85,4|0,0:0|0:0,0:0:0:0:
126,232,138933,2,0,L|41:236,1,85,4|0,1:3|0:0,0:0:0:0:
1,170,139205,1,0,1:0:0:0:
26,98,139342,1,0,0:0:0:0:
56,28,139478,5,4,1:3:0:0:
105,87,139615,1,0,0:0:0:0:
154,145,139751,5,0,1:0:0:0:
77,156,139887,1,0,0:0:0:0:
154,145,140024,5,4,1:3:0:0:
186,75,140160,1,0,0:0:0:0:
154,145,140296,5,0,1:3:0:0:
192,210,140433,1,0,0:0:0:0:
273,114,140569,5,4,1:3:0:0:
251,19,140705,1,0,1:0:0:0:
290,104,140842,5,4,1:0:0:0:
328,37,140978,1,0,0:0:0:0:
344,40,141046,1,0,0:0:0:0:
360,44,141115,1,4,0:3:0:0:
377,46,141183,1,0,0:0:0:0:
391,84,141251,1,0,0:0:0:0:
407,82,141319,1,0,0:0:0:0:
423,79,141387,1,0,0:0:0:0:
440,76,141455,1,0,0:0:0:0:
453,40,141524,1,0,0:0:0:0:
468,45,141592,1,0,0:0:0:0:
484,49,141660,6,0,L|528:64,3,42.5,4|0|0|0,0:3|0:0|0:0|0:0,0:0:0:0:
510,103,141933,5,4,0:2:0:0:
486,177,142137,1,4,0:2:0:0:
461,253,142342,1,4,0:2:0:0:
437,324,142478,6,0,L|393:313,1,42.5,0|0,2:0|2:0,0:0:0:0:
328,349,142615,2,0,L|284:360,1,42.5,0|0,0:0|2:0,0:0:0:0:
213,333,142751,2,0,L|166:321,1,42.5,0|0,0:0|2:0,0:0:0:0:
103,353,142887,2,0,L|53:363,1,42.5,0|0,2:0|2:0,0:0:0:0:
24,288,143024,6,0,P|55:284|87:276,1,63.7500024318696
148,231,143296,2,0,P|183:239|221:243,1,63.7500024318696,0|0,1:0|0:0,0:0:0:0:
283,265,143569,1,0,0:0:0:0:
353,234,143705,1,0,0:0:0:0:
428,222,143842,1,0,1:0:0:0:
445,232,143978,1,0,1:0:0:0:
499,144,144115,6,0,P|498:104|501:74,1,63.7500024318696,4|0,1:2|0:0,0:0:0:0:
424,16,144387,2,0,P|425:56|422:86,1,63.7500024318696,0|0,1:0|0:0,0:0:0:0:
376,139,144660,1,0,0:0:0:0:
299,146,144796,1,0,0:0:0:0:
237,100,144933,1,0,1:0:0:0:
162,83,145069,1,0,1:0:0:0:
89,107,145205,6,0,L|83:69,3,31.8750012159348,4|0|0|0,0:2|0:0|0:0|0:0,0:0:0:0:
21,162,145478,2,0,L|16:200,3,31.8750012159348
28,234,145751,1,4,0:2:0:0:
56,264,145819,1,0,0:0:0:0:
96,278,145887,1,0,0:0:0:0:
138,273,145955,1,0,0:0:0:0:
177,261,146024,1,0,0:0:0:0:
217,268,146092,1,0,0:0:0:0:
251,291,146160,1,0,0:0:0:0:
261,331,146228,1,0,0:0:0:0:
241,367,146296,5,4,0:0:0:0:
251,25,146569,1,2,2:0:0:0:
491,206,146842,5,2,2:0:0:0:
22,178,147115,1,2,2:0:0:0:
477,45,147387,5,8,0:3:0:0:
441,57,147524,1,0,0:0:0:0:
393,113,147660,5,2,0:0:0:0:
368,107,147796,1,2,0:0:0:0:
306,69,147933,5,0,0:0:0:0:
288,77,148069,1,0,0:0:0:0:
227,120,148205,5,2,0:0:0:0:
214,117,148342,1,0,0:0:0:0:
156,75,148478,5,0,0:0:0:0:
149,76,148615,1,0,0:0:0:0:
95,128,148751,5,2,0:0:0:0:
95,128,148887,1,2,0:0:0:0:
30,160,149024,1,2,0:0:0:0:
30,160,149160,1,2,0:0:0:0:
12,229,149296,1,2,0:0:0:0:
12,229,149433,1,0,0:0:0:0:
