osu file format v14

[General]
AudioFilename: 18 .mp3
AudioLeadIn: 0
PreviewTime: 85150
Countdown: 0
SampleSet: Soft
StackLeniency: 0.7
Mode: 0
LetterboxInBreaks: 1
WidescreenStoryboard: 1

[Editor]
Bookmarks: 25151,37151,45878,163967
DistanceSpacing: 1
BeatDivisor: 2
GridSize: 4
TimelineZoom: 5.029998

[Metadata]
Title:Time Machine
TitleUnicode:タイムマシン
Artist:Morimori Atsushi
ArtistUnicode:モリモリあつし
Creator:mithew
Version:>
Source:
Tags:stream
BeatmapID:763225
BeatmapSetID:345645

[Difficulty]
HPDrainRate:6
CircleSize:4
OverallDifficulty:8.6
ApproachRate:9.4
SliderMultiplier:1.95
SliderTickRate:1

[Events]
//Background and Video events
0,0,"id ont.jpg",0,0
//Break Periods
2,50441,53593
2,65698,73685
2,168515,176502
//Storyboard Layer 0 (Background)
//Storyboard Layer 1 (Fail)
//Storyboard Layer 2 (Pass)
//Storyboard Layer 3 (Foreground)
//Storyboard Sound Samples

[TimingPoints]
6605.72340425532,272.727272727273,4,2,1,80,1,0
14242,-66.6666666666667,4,2,1,80,0,0
15332,-80,4,2,1,80,0,0
18605,-133.333333333333,4,2,1,80,0,0
24060,-100,4,1,1,80,0,0
30605,-133.333333333333,4,1,1,80,0,0
31151,-100,4,1,1,80,0,0
33878,-200,4,1,1,80,0,0
34287,-133.333333333333,4,1,1,80,0,0
35242,-100,4,1,1,80,0,0
42605,-200,4,1,1,80,0,0
42946,-100,4,1,1,80,0,0
50242,324.324324324324,3,1,1,80,1,0
50242,-133.333333333333,3,2,1,80,0,0
62890,-200,3,2,1,80,0,0
63863,-100,3,2,1,80,0,0
64680,136.363636363636,3,1,1,80,1,0
64680,-133.333333333333,3,1,1,80,0,0
65498,272.727272727273,4,1,1,80,1,0
74225,-100,4,1,1,80,0,0
85134,-80,4,1,1,80,0,1
91679,-200,4,1,1,80,0,1
92634,-80,4,1,1,80,0,1
102588,-133.333333333333,4,2,1,80,0,0
105316,-111.111111111111,4,2,1,80,0,0
109679,-100,4,2,1,80,0,0
114043,-111.111111111111,4,2,1,80,0,0
114588,-83.3333333333333,4,2,1,80,0,0
119498,-66.6666666666667,4,2,1,80,0,0
120043,-100,4,2,1,80,0,0
121952,-76.9230769230769,4,2,1,80,0,0
122225,-90.9090909090909,4,2,1,80,0,0
124134,-66.6666666666667,4,2,1,80,0,0
124407,-90.9090909090909,4,2,1,80,0,0
128770,-90.9090909090909,4,1,1,80,0,0
135316,-133.333333333333,4,1,1,80,0,0
136134,-100,4,1,1,80,0,0
137498,-117.647058823529,4,2,1,80,0,0
138588,-200,4,2,1,80,0,0
138998,-100,4,2,1,80,0,0
147316,-200,4,2,1,80,0,0
147998,-100,4,2,1,80,0,0
148134,-100,4,2,1,80,0,0
149225,-66.6666666666667,4,2,1,80,0,0
154952,-80,4,2,1,80,0,0
155770,-66.6666666666667,4,2,1,80,0,0
156043,-80,4,2,1,80,0,0
157134,272.727272727273,3,2,1,80,1,0
157134,-66.6666666666667,3,2,1,80,0,0
159724,-100,3,2,1,80,0,0
160134,136.363636363636,4,1,1,80,1,0
160679,272.727272727273,3,1,1,80,1,0
163951,-66.6666666666667,3,1,1,80,0,0
168315,272.727272727273,4,1,1,80,1,0
187951,-80,4,1,1,80,0,0
190133,-80,4,1,1,80,0,0
194496,-200,4,1,1,80,0,0
195451,-80,4,1,1,80,0,0
207587,-200,4,2,1,80,0,0
209769,-80,4,1,1,80,0,0
211951,-200,4,2,1,80,0,0
214133,-80,4,1,1,80,0,0
216315,-200,4,1,1,80,0,0
218496,-133.333333333333,4,1,1,80,0,0
219315,-80,4,1,1,80,0,0
219587,-100,4,1,1,80,0,0
220678,-80,4,1,1,80,0,0
222860,-200,4,2,1,80,0,0

[HitObjects]
56,280,6605,5,4,1:0:0:0:
98,297,6673,1,0,0:0:0:0:
144,306,6742,1,0,0:0:0:0:
191,305,6810,1,0,0:0:0:0:
236,293,6878,1,0,0:0:0:0:
279,273,6946,1,0,0:0:0:0:
315,244,7014,1,4,1:0:0:0:
345,208,7082,1,0,0:0:0:0:
367,167,7151,2,0,L|359:115,1,48.75
263,46,7287,2,0,L|267:107,1,48.75,4|0,1:0|0:0,0:0:0:0:
163,176,7423,2,0,L|160:122,1,48.75
64,52,7560,2,0,L|68:99,1,48.75
87,207,7696,5,4,1:0:0:0:
109,166,7764,1,0,0:0:0:0:
144,137,7832,1,0,0:0:0:0:
190,127,7901,1,0,0:0:0:0:
236,135,7969,1,0,0:0:0:0:
274,121,8037,1,0,0:0:0:0:
311,95,8105,1,4,1:0:0:0:
354,75,8173,1,0,0:0:0:0:
401,65,8242,2,0,L|401:15,1,48.75
482,152,8378,2,0,L|482:102,1,48.75,4|0,1:0|0:0,0:0:0:0:
394,230,8514,2,0,L|394:176,1,48.75
473,305,8651,2,0,L|471:245,1,48.75
394,230,8787,5,4,1:0:0:0:
368,267,8855,1,0,0:0:0:0:
324,280,8923,1,0,0:0:0:0:
282,262,8992,1,0,0:0:0:0:
262,220,9060,1,0,0:0:0:0:
275,175,9128,1,0,0:0:0:0:
312,150,9196,1,4,1:0:0:0:
358,155,9264,1,0,0:0:0:0:
397,168,9332,2,0,P|428:180|447:203,7,48.75,0|0|4|0|0|0|0|0,0:0|0:0|1:0|0:0|0:0|0:0|0:0|0:0,0:0:0:0:
394,230,9878,5,4,1:0:0:0:
349,266,9946,1,0,0:0:0:0:
292,266,10014,1,0,0:0:0:0:
250,228,10082,1,0,0:0:0:0:
242,171,10151,1,0,0:0:0:0:
273,123,10219,1,0,0:0:0:0:
328,108,10287,1,4,1:0:0:0:
380,132,10355,1,0,0:0:0:0:
414,168,10423,2,0,P|442:183|461:206,7,48.75,0|0|4|0|0|0|0|0,0:0|0:0|1:0|0:0|0:0|0:0|0:0|0:0,0:0:0:0:
450,230,10969,5,4,1:0:0:0:
447,264,11037,1,0,0:0:0:0:
435,297,11105,1,0,0:0:0:0:
413,324,11173,1,0,0:0:0:0:
384,343,11242,1,0,0:0:0:0:
337,339,11310,1,0,0:0:0:0:
297,314,11378,1,4,1:0:0:0:
278,271,11446,1,0,0:0:0:0:
252,229,11514,5,0,0:0:0:0:
213,195,11582,1,0,0:0:0:0:
163,184,11650,1,4,1:0:0:0:
121,215,11718,1,0,0:0:0:0:
91,253,11787,1,0,0:0:0:0:
49,246,11855,1,0,0:0:0:0:
19,212,11923,1,0,0:0:0:0:
19,166,11992,1,0,0:0:0:0:
44,131,12060,5,4,1:0:0:0:
81,156,12128,1,0,0:0:0:0:
127,165,12196,1,0,0:0:0:0:
173,162,12264,1,0,0:0:0:0:
218,148,12332,1,0,0:0:0:0:
258,124,12401,1,0,0:0:0:0:
291,91,12469,1,4,1:0:0:0:
316,51,12537,1,0,0:0:0:0:
349,14,12605,5,0,0:0:0:0:
397,31,12673,1,0,0:0:0:0:
436,65,12741,1,4,1:0:0:0:
461,109,12809,1,0,0:0:0:0:
467,160,12877,1,0,0:0:0:0:
456,210,12945,1,0,0:0:0:0:
427,253,13014,1,0,0:0:0:0:
386,283,13082,1,0,0:0:0:0:
340,296,13151,5,4,1:0:0:0:
287,294,13219,1,0,0:0:0:0:
247,263,13287,1,0,0:0:0:0:
238,214,13355,1,0,0:0:0:0:
265,170,13423,1,0,0:0:0:0:
313,156,13492,1,0,0:0:0:0:
359,178,13560,1,4,1:0:0:0:
379,224,13628,1,0,0:0:0:0:
363,275,13696,5,0,0:0:0:0:
310,298,13764,1,0,0:0:0:0:
252,299,13832,1,4,1:0:0:0:
199,276,13901,1,0,0:0:0:0:
159,234,13969,1,0,0:0:0:0:
138,180,14037,1,0,0:0:0:0:
142,121,14105,1,0,0:0:0:0:
169,70,14173,1,0,0:0:0:0:
228,40,14242,5,4,1:0:0:0:
295,37,14310,1,0,0:0:0:0:
349,79,14378,1,0,0:0:0:0:
361,147,14446,1,0,0:0:0:0:
327,206,14514,1,0,0:0:0:0:
263,228,14582,1,0,0:0:0:0:
199,203,14651,1,4,1:0:0:0:
167,142,14719,1,0,0:0:0:0:
179,72,14787,2,0,L|215:6,8,73.1250027894975,0|0|4|0|0|0|0|0|4,0:0|0:0|1:0|0:0|0:0|0:0|0:0|0:0|1:0,0:0:0:0:
296,44,15469,5,4,1:0:0:0:
92,244,16423,5,4,1:0:0:0:
428,160,16696,1,6,1:0:0:0:
256,48,17514,6,4,L|256:196,1,121.875,4|4,1:0|1:0,1:0:0:0:
124,240,18605,6,4,B|144:232|144:232|140:252|140:252|144:240|144:240|248:256,1,146.250005578995,4|4,1:0|1:0,1:0:0:0:
352,48,19696,5,4,1:0:0:0:
434,304,19832,1,4,1:0:0:0:
144,192,20787,5,4,1:0:0:0:
144,192,21060,1,4,1:0:0:0:
440,224,21878,6,4,L|352:272,1,73.1250027894975,4|4,1:0|1:0,1:0:0:0:
256,192,22969,5,4,1:0:0:0:
256,192,23242,1,4,1:0:0:0:
256,192,23378,12,0,24060,0:0:0:0:
65,139,24196,6,0,P|23:109|-4:59,2,97.5,0|0|4,0:0|0:0|1:0,0:0:0:0:
191,226,24605,1,0,2:0:0:0:
279,73,24742,2,0,P|230:48|170:53,2,97.5,0|4|0,0:0|1:0|0:0,0:0:0:0:
396,144,25151,1,0,2:0:0:0:
376,268,25287,5,4,1:0:0:0:
276,332,25423,1,0,0:0:0:0:
262,208,25560,1,0,0:0:0:0:
224,80,25696,5,4,1:0:0:0:
146,166,25832,1,4,1:0:0:0:
146,166,25901,1,4,1:0:0:0:
146,166,25969,2,0,L|80:258,1,97.5
26,351,26242,1,4,1:0:0:0:
150,306,26378,2,0,L|249:322,1,97.5
392,216,26651,1,4,1:0:0:0:
353,345,26787,1,0,2:0:0:0:
272,192,26923,2,0,L|165:174,1,97.5,0|4,0:0|0:0,0:0:0:0:
84,41,27196,1,0,0:0:0:0:
52,161,27332,1,0,2:0:0:0:
150,261,27469,6,0,P|196:276|254:310,1,97.5
384,300,27742,2,0,L|428:208,1,97.5,0|4,0:0|0:0,0:0:0:0:
468,88,28014,1,4,0:0:0:0:
468,88,28082,1,4,0:0:0:0:
468,88,28151,2,4,P|424:64|364:52,1,97.5,4|0,0:0|0:0,0:0:0:0:
228,28,28423,5,4,0:0:0:0:
224,148,28560,1,0,0:0:0:0:
96,200,28696,2,0,P|96:144|72:80,1,97.5,0|4,0:0|0:0,0:0:0:0:
180,304,28969,1,0,2:0:0:0:
281,241,29105,2,0,L|183:182,2,97.5,0|4|0,0:0|0:0|0:0,0:0:0:0:
403,302,29514,1,0,2:0:0:0:
380,144,29651,5,4,0:0:0:0:
412,36,29787,2,0,P|364:48|312:56,1,97.5
125,91,30060,1,4,0:0:0:0:
44,224,30196,1,4,0:0:0:0:
44,224,30264,1,4,0:0:0:0:
44,224,30332,2,0,P|76:260|142:286,1,97.5,4|0,0:0|0:0,0:0:0:0:
264,324,30605,5,4,0:0:0:0:
296,339,30673,1,0,0:0:0:0:
332,337,30742,1,0,0:0:0:0:
362,316,30810,1,0,0:0:0:0:
379,284,30878,1,0,0:0:0:0:
377,248,30946,1,0,0:0:0:0:
358,218,31014,1,4,0:0:0:0:
326,201,31082,1,0,0:0:0:0:
289,202,31151,5,0,0:0:0:0:
248,227,31219,1,0,0:0:0:0:
201,240,31287,1,0,0:0:0:0:
153,237,31355,1,0,0:0:0:0:
107,220,31423,1,4,0:0:0:0:
69,190,31492,1,0,0:0:0:0:
42,150,31560,1,0,0:0:0:0:
28,104,31628,1,0,0:0:0:0:
28,56,31696,5,4,0:0:0:0:
28,56,31764,1,0,0:0:0:0:
28,56,31832,2,0,L|112:72,1,48.75
252,120,31969,1,4,0:0:0:0:
252,120,32037,1,0,0:0:0:0:
252,120,32105,2,0,L|168:136,1,48.75
32,176,32242,1,4,0:0:0:0:
32,176,32310,1,0,0:0:0:0:
32,176,32378,2,0,L|116:192,1,48.75
256,224,32514,2,0,B|240:224|240:224|224:224|224:268|160:264,1,97.5,4|0,0:0|0:0,0:0:0:0:
32,292,32787,5,4,0:0:0:0:
128,328,32923,5,2,0:0:0:0:
150,295,32992,1,0,0:0:0:0:
182,274,33060,1,8,0:0:0:0:
219,264,33128,1,0,0:0:0:0:
257,259,33196,1,0,0:0:0:0:
295,266,33264,1,0,0:0:0:0:
332,276,33332,1,0,0:0:0:0:
366,257,33401,1,0,0:0:0:0:
399,238,33469,1,4,0:0:0:0:
431,216,33537,1,0,0:0:0:0:
455,185,33605,1,8,0:0:0:0:
468,148,33673,1,0,0:0:0:0:
440,118,33742,1,0,0:0:0:0:
410,93,33810,1,0,0:0:0:0:
381,69,33878,6,0,B|362:52|362:52|353:85|353:85|326:44|259:86,1,146.25,4|0,1:0|0:0,0:0:0:0:
248,86,34355,1,0,0:0:0:0:
211,88,34423,1,0,0:0:0:0:
177,101,34492,1,0,0:0:0:0:
148,123,34560,1,4,0:0:0:0:
126,152,34628,1,0,0:0:0:0:
113,186,34696,2,0,L|110:267,1,73.1250027894975,8|0,0:0|0:0,0:0:0:0:
242,227,34969,6,0,L|262:177,1,36.5625013947487,4|0,1:0|2:0,2:0:0:0:
257,232,35105,2,0,L|277:182,1,36.5625013947487,0|0,2:0|2:0,2:0:0:0:
341,112,35242,6,0,L|240:84,5,97.5,8|0|0|4|8|0,0:0|0:0|0:0|0:0|0:0|0:0,0:0:0:0:
133,95,36060,2,0,P|86:156|71:256,1,146.25,4|0,0:0|0:0,0:0:0:0:
155,305,36332,2,0,P|217:299|307:250,1,146.25,8|0,0:0|0:0,0:0:0:0:
372,207,36605,2,0,P|366:132|332:55,1,146.25
224,14,36878,2,0,P|205:95|151:154,1,146.25,8|0,0:0|0:0,0:0:0:0:
166,143,37151,5,4,0:0:0:0:
352,120,37287,1,0,0:0:0:0:
314,261,37423,1,8,0:0:0:0:
256,68,37560,1,0,0:0:0:0:
185,264,37696,1,0,0:0:0:0:
155,86,37832,1,4,0:0:0:0:
297,221,37969,1,8,0:0:0:0:
116,204,38105,1,0,0:0:0:0:
144,324,38242,6,0,B|169:329|169:329|192:300|248:334,1,97.5,4|0,0:0|0:0,0:0:0:0:
384,288,38514,1,8,0:0:0:0:
442,153,38651,1,0,0:0:0:0:
282,68,38787,1,0,0:0:0:0:
306,248,38923,1,4,0:0:0:0:
390,73,39060,1,8,0:0:0:0:
156,188,39196,1,0,0:0:0:0:
208,304,39332,5,4,0:0:0:0:
98,128,39469,1,0,0:0:0:0:
321,194,39605,1,8,0:0:0:0:
162,51,39742,1,4,0:0:0:0:
122,241,39878,1,0,0:0:0:0:
258,145,40014,1,4,0:0:0:0:
50,127,40151,1,8,0:0:0:0:
43,150,40219,1,8,0:0:0:0:
36,173,40287,1,8,0:0:0:0:
29,196,40355,1,8,0:0:0:0:
21,220,40423,5,4,0:0:0:0:
115,41,40560,1,0,0:0:0:0:
330,114,40696,1,8,0:0:0:0:
241,316,40832,1,4,0:0:0:0:
368,316,40969,69,0,0:0:0:0:
360,44,41105,1,4,0:0:0:0:
276,152,41242,1,8,0:0:0:0:
448,160,41378,1,8,0:0:0:0:
360,124,41514,5,4,0:0:0:0:
393,258,41651,2,0,L|440:268,2,48.75,0|0|8,0:0|0:0|0:0,0:0:0:0:
349,250,41855,1,0,0:0:0:0:
314,216,41923,1,0,0:0:0:0:
266,213,41992,1,0,0:0:0:0:
228,241,42060,1,0,0:0:0:0:
216,287,42128,1,0,0:0:0:0:
178,317,42196,1,4,0:0:0:0:
131,324,42264,1,0,0:0:0:0:
86,305,42332,1,8,0:0:0:0:
58,266,42401,1,0,0:0:0:0:
54,218,42469,1,0,0:0:0:0:
75,175,42537,1,0,0:0:0:0:
102,140,42605,6,0,P|136:84|188:51,1,121.875,4|0,0:0|0:0,0:0:0:0:
228,38,43014,1,0,0:0:0:0:
266,58,43082,1,0,0:0:0:0:
304,79,43151,1,0,0:0:0:0:
347,73,43219,1,0,0:0:0:0:
383,97,43287,1,4,0:0:0:0:
410,131,43355,1,0,0:0:0:0:
437,164,43423,2,0,B|439:214|439:214|425:262,1,97.5,8|0,0:0|0:0,0:0:0:0:
345,296,43696,6,0,L|330:240,2,48.75,4|0|0,1:0|0:0|0:0,0:0:0:0:
292,284,43901,2,0,L|277:228,2,48.75,0|8|0,0:0|0:0|0:0,0:0:0:0:
242,266,44105,2,0,L|227:210,2,48.75
194,252,44310,2,0,L|179:196,2,48.75,0|4|0,0:0|0:0|0:0,0:0:0:0:
147,238,44514,2,0,L|119:129,1,97.5,8|0,0:0|0:0,0:0:0:0:
68,31,44787,6,0,L|285:31,1,195,4|8,0:0|0:0,0:0:0:0:
473,288,45332,2,0,L|258:288,1,195,0|8,0:0|0:0,0:0:0:0:
158,190,45878,5,4,0:0:0:0:
288,310,46014,1,0,0:0:0:0:
380,213,46151,1,8,0:0:0:0:
209,332,46287,1,0,0:0:0:0:
246,92,46423,1,0,0:0:0:0:
110,240,46560,1,4,0:0:0:0:
319,200,46696,1,8,0:0:0:0:
98,103,46832,1,0,0:0:0:0:
185,33,46969,6,0,B|196:56|183:80|183:80|194:152,1,97.5,4|0,0:0|0:0,0:0:0:0:
328,122,47242,1,8,0:0:0:0:
165,325,47378,1,0,0:0:0:0:
190,127,47514,1,0,0:0:0:0:
396,153,47651,5,4,0:0:0:0:
299,289,47787,1,8,0:0:0:0:
244,31,47923,1,0,0:0:0:0:
122,122,48060,2,0,B|135:138|119:143|119:143|135:153|135:153|119:160|119:160|131:177|131:177|112:182|112:182|131:192|131:192|112:192|112:192|125:203|125:203|108:201|108:201|117:211,1,146.25,4|0,0:0|0:0,0:0:0:0:
86,208,48332,6,0,L|60:253,1,48.75,8|0,0:0|0:0,0:0:0:0:
133,339,48469,2,0,L|159:286,1,48.75,4|0,0:0|0:0,0:0:0:0:
257,195,48605,2,0,L|238:239,1,48.75
304,354,48742,6,0,L|324:302,1,48.75,4|0,0:0|0:0,0:0:0:0:
417,181,48878,2,0,L|402:234,1,48.75,8|0,0:0|0:0,0:0:0:0:
333,105,49014,2,0,L|346:52,1,48.75
218,51,49151,6,0,L|250:38,32,24.375,4|0|0|0|0|0|0|0|8|0|0|0|4|0|0|0|0|0|0|0|4|0|0|0|0|0|0|0|0|0|0|0|4,0:0|0:0|0:0|0:0|0:0|0:0|0:0|0:0|0:0|0:0|0:0|0:0|0:0|0:0|0:0|0:0|0:0|0:0|0:0|0:0|0:0|0:0|0:0|0:0|0:0|0:0|0:0|0:0|0:0|0:0|0:0|0:0|1:0,0:0:0:0:
100,312,54133,5,4,1:0:0:0:
100,312,54296,1,0,0:0:0:0:
100,312,54377,2,0,L|152:292,1,36.5625013947487,4|0,1:0|0:0,0:0:0:0:
320,216,54620,2,0,L|320:140,1,73.1250027894975
320,28,54944,1,0,0:0:0:0:
111,58,55106,5,4,1:0:0:0:
111,58,55269,1,0,0:0:0:0:
111,58,55350,2,0,L|143:74,1,36.5625013947487,4|0,1:0|0:0,0:0:0:0:
321,173,55593,2,0,L|315:246,1,73.1250027894975
305,360,55917,1,0,0:0:0:0:
128,156,56079,5,4,1:0:0:0:
189,85,56241,1,0,0:0:0:0:
204,129,56323,1,4,1:0:0:0:
223,171,56404,1,0,0:0:0:0:
111,148,56566,5,0,0:0:0:0:
206,73,56728,1,0,0:0:0:0:
229,190,56890,1,0,0:0:0:0:
90,134,57052,5,0,0:0:0:0:
228,60,57214,1,0,0:0:0:0:
231,215,57377,1,0,0:0:0:0:
67,112,57539,5,2,0:0:0:0:
260,49,57701,1,8,0:0:0:0:
252,97,57782,1,8,0:0:0:0:
244,145,57863,1,8,0:0:0:0:
236,193,57944,1,8,0:0:0:0:
228,241,58025,5,4,1:0:0:0:
228,241,58269,2,0,L|272:264,1,36.5625013947487,0|0,1:0|0:0,0:0:0:0:
391,294,58512,1,0,0:0:0:0:
435,288,58593,5,8,1:0:0:0:
435,288,58674,1,4,1:0:0:0:
444,259,58755,1,4,1:0:0:0:
451,231,58836,1,4,1:0:0:0:
451,202,58917,1,4,1:0:0:0:
436,160,58998,5,0,0:0:0:0:
379,137,59079,1,0,0:0:0:0:
320,123,59160,1,0,0:0:0:0:
259,119,59241,1,0,0:0:0:0:
216,144,59323,5,4,1:0:0:0:
216,144,59404,1,4,1:0:0:0:
216,144,59485,1,4,1:0:0:0:
216,144,59566,1,4,1:0:0:0:
183,182,59647,5,0,0:0:0:0:
147,132,59728,1,0,0:0:0:0:
112,82,59809,1,0,0:0:0:0:
76,33,59890,1,0,0:0:0:0:
110,10,59971,6,0,L|162:14,1,36.5625013947487,4|0,1:0|0:0,0:0:0:0:
332,75,60214,2,0,L|268:83,1,36.5625013947487,4|0,1:0|1:0,1:0:0:0:
144,116,60539,1,8,1:0:0:0:
136,156,60620,5,4,1:0:0:0:
170,167,60701,1,4,1:0:0:0:
205,178,60782,1,4,1:0:0:0:
240,189,60863,1,4,1:0:0:0:
275,201,60944,5,0,1:0:0:0:
214,210,61025,1,0,1:0:0:0:
154,220,61106,1,0,1:0:0:0:
94,230,61187,1,0,1:0:0:0:
34,240,61269,5,4,1:0:0:0:
69,249,61350,1,4,1:0:0:0:
105,258,61431,1,4,1:0:0:0:
140,268,61512,1,4,1:0:0:0:
175,277,61593,5,0,1:0:0:0:
248,283,61674,1,0,1:0:0:0:
321,288,61755,1,0,1:0:0:0:
394,293,61836,1,0,1:0:0:0:
467,300,61917,6,0,L|468:217,1,73.1250027894975,4|0,1:0|0:0,0:0:0:0:
368,32,62241,2,0,L|368:132,1,73.1250027894975
276,304,62566,2,0,L|276:204,1,73.1250027894975
192,64,62890,2,0,L|144:104,1,48.75,4|0,1:0|0:0,0:0:0:0:
72,204,63214,5,0,0:0:0:0:
284,276,63377,1,0,0:0:0:0:
284,88,63539,1,0,0:0:0:0:
116,312,63701,1,0,0:0:0:0:
424,196,63863,2,0,L|428:156,1,24.375
221,62,64680,6,4,L|296:44,1,73.1250027894975,4|4,1:0|1:0,1:0:0:0:
183,186,64816,2,4,B|194:188|174:184|174:184|142:204|112:184,1,73.1250027894975,4|4,1:0|1:0,1:0:0:0:
231,287,64952,2,4,L|305:287,1,73.1250027894975,4|4,1:0|1:0,1:0:0:0:
397,192,65089,2,4,L|324:192,1,73.1250027894975,4|4,1:0|1:0,1:0:0:0:
298,95,65225,2,4,L|298:15,1,73.1250027894975,4|4,1:0|1:0,1:0:0:0:
180,150,65361,2,4,L|180:66,1,73.1250027894975,4|4,1:0|1:0,1:0:0:0:
64,186,65498,1,4,1:0:0:0:
240,260,74225,5,4,1:0:0:0:
288,328,74361,1,0,2:0:0:0:
368,311,74498,2,0,P|410:275|437:204,1,97.5,8|0,0:0|2:0,0:0:0:0:
348,224,74770,1,0,2:0:0:0:
376,72,74907,2,0,P|316:100|252:112,1,97.5,4|8,0:0|0:0,0:0:0:0:
136,120,75179,1,0,2:0:0:0:
96,40,75316,6,0,P|56:72|36:128,1,97.5,4|0,0:0|2:0,0:0:0:0:
24,224,75588,1,8,0:0:0:0:
108,292,75725,1,0,2:0:0:0:
232,264,75861,2,0,P|280:244|312:192,1,97.5,0|4,2:0|0:0,0:0:0:0:
228,184,76134,1,10,0:0:0:0:
387,180,76270,1,0,2:0:0:0:
416,28,76407,6,0,P|344:64|252:152,1,195,4|8,0:0|0:0,0:0:0:0:
304,280,76816,1,0,2:0:0:0:
172,328,76952,2,0,P|92:236|104:128,1,195,0|8,0:0|0:0,0:0:0:0:
92,60,77361,1,0,2:0:0:0:
204,40,77498,5,4,0:0:0:0:
184,144,77634,2,0,P|236:140|280:108,1,97.5,0|8,2:0|0:0,0:0:0:0:
342,40,77907,1,0,2:0:0:0:
362,144,78043,2,0,P|310:140|266:108,1,97.5,0|4,2:0|1:0,0:0:0:0:
204,40,78316,5,8,1:0:0:0:
189,86,78384,1,8,1:0:0:0:
175,133,78452,1,8,1:0:0:0:
161,180,78520,1,8,1:0:0:0:
147,226,78588,5,4,1:0:0:0:
352,208,78861,1,4,0:0:0:0:
240,132,79134,1,4,0:0:0:0:
284,332,79407,1,4,0:0:0:0:
116,304,79679,5,4,0:0:0:0:
144,144,79816,1,4,0:0:0:0:
240,344,79952,1,4,0:0:0:0:
48,172,80088,1,4,0:0:0:0:
244,128,80225,1,4,0:0:0:0:
180,320,80361,1,4,0:0:0:0:
344,108,80498,1,4,0:0:0:0:
340,268,80634,1,4,0:0:0:0:
464,200,80770,5,4,0:0:0:0:
454,247,80838,1,4,0:0:0:0:
432,290,80907,1,4,0:0:0:0:
399,326,80975,1,4,0:0:0:0:
357,350,81043,1,4,0:0:0:0:
309,361,81111,1,4,0:0:0:0:
261,358,81179,1,4,0:0:0:0:
215,341,81248,1,4,0:0:0:0:
176,313,81316,5,4,0:0:0:0:
147,274,81384,1,4,0:0:0:0:
130,228,81452,1,4,0:0:0:0:
128,180,81520,1,4,0:0:0:0:
137,133,81588,1,4,0:0:0:0:
160,90,81657,1,4,0:0:0:0:
195,56,81725,1,4,0:0:0:0:
238,33,81793,1,4,0:0:0:0:
285,24,81861,5,0,2:0:0:0:
285,24,81929,1,0,2:0:0:0:
285,24,81998,2,0,L|312:84,1,48.75,0|0,2:0|2:0,2:0:0:0:
372,188,82134,1,0,2:0:0:0:
340,204,82202,1,0,2:0:0:0:
308,208,82270,2,0,P|268:196|244:176,1,48.75,0|0,2:0|2:0,2:0:0:0:
136,108,82407,1,0,2:0:0:0:
96,128,82475,1,0,2:0:0:0:
80,156,82543,2,0,P|72:180|72:204,1,48.75,0|0,2:0|2:0,2:0:0:0:
80,336,82679,1,0,2:0:0:0:
112,324,82748,2,0,L|164:296,1,48.75,0|0,2:0|2:0,2:0:0:0:
137,157,84861,6,0,P|168:112|214:92,2,97.5,4|0|4,0:0|0:0|0:0,0:0:0:0:
308,224,85270,1,0,0:0:0:0:
400,204,85407,2,0,P|392:254|335:305,1,121.875,4|0,0:0|0:0,0:0:0:0:
136,186,85679,1,4,0:0:0:0:
226,155,85816,1,0,0:0:0:0:
256,246,85952,1,6,0:0:0:0:
152,276,86088,5,0,0:0:0:0:
152,276,86225,2,0,L|197:158,1,121.875,6|0,0:0|0:0,0:0:0:0:
416,46,86498,2,0,P|404:103|352:142,1,121.875,6|0,0:0|0:0,0:0:0:0:
386,299,86770,2,0,P|410:254|478:215,1,121.875,6|0,0:0|0:0,0:0:0:0:
307,192,87043,2,0,B|291:205|291:205|255:176|191:196,1,121.875,4|0,0:0|0:0,0:0:0:0:
34,188,87316,6,0,P|138:150|128:9,1,243.75,4|4,0:0|0:0,0:0:0:0:
337,65,87725,1,0,0:0:0:0:
264,109,87861,2,0,P|305:144|373:146,1,121.875,4|0,0:0|0:0,0:0:0:0:
474,254,88134,2,0,L|340:229,1,121.875,4|0,0:0|0:0,0:0:0:0:
217,311,88407,2,0,B|244:249|244:249|129:186|184:102,1,243.75,4|4,0:0|0:0,0:0:0:0:
390,143,88816,1,0,0:0:0:0:
485,161,88952,2,0,P|383:55|297:113,1,243.75,4|4,0:0|0:0,0:0:0:0:
338,254,89361,5,0,0:0:0:0:
314,286,89429,1,0,0:0:0:0:
282,314,89498,2,0,P|259:242|217:203,1,121.875,4|0,0:0|0:0,0:0:0:0:
159,140,89770,1,6,0:0:0:0:
254,84,89907,1,0,0:0:0:0:
376,57,90043,2,0,P|459:147|361:72,1,365.625,4|0,0:0|0:0,0:0:0:0:
362,73,90588,2,0,P|388:190|474:297,1,243.75,4|4,0:0|0:0,0:0:0:0:
305,214,90998,1,0,0:0:0:0:
38,284,91134,6,0,B|69:311|69:311|125:278|199:295,1,121.875,4|0,0:0|0:0,0:0:0:0:
270,285,91407,1,4,0:0:0:0:
390,318,91543,1,0,0:0:0:0:
462,220,91679,2,0,P|416:191|384:149,3,97.5,0|0|0|4,0:0|0:0|0:0|0:0,0:0:0:0:
338,53,92634,5,8,0:0:0:0:
338,53,92702,1,8,0:0:0:0:
338,53,92770,1,12,0:0:0:0:
318,318,93043,2,0,L|304:184,1,121.875,4|0,0:0|0:0,0:0:0:0:
177,328,93316,2,0,L|163:196,1,121.875,4|0,0:0|0:0,0:0:0:0:
64,332,93588,5,4,0:0:0:0:
8,160,93725,1,0,0:0:0:0:
116,28,93861,2,0,P|188:58|233:114,1,121.875,4|0,0:0|0:0,0:0:0:0:
272,266,94134,2,0,P|212:242|170:205,1,121.875,4|0,0:0|0:0,0:0:0:0:
436,304,94407,2,0,L|377:61,1,243.75,4|4,0:0|0:0,0:0:0:0:
283,37,94816,5,0,0:0:0:0:
159,70,94952,2,0,P|118:120|120:178,1,121.875,4|0,0:0|0:0,0:0:0:0:
184,276,95225,1,4,0:0:0:0:
159,311,95361,1,0,0:0:0:0:
290,229,95498,1,4,0:0:0:0:
322,299,95634,1,0,0:0:0:0:
217,100,95770,1,4,0:0:0:0:
148,179,95907,1,0,0:0:0:0:
308,164,96043,6,0,P|296:216|328:280,1,121.875,4|0,0:0|0:0,0:0:0:0:
372,213,96316,1,4,0:0:0:0:
372,213,96452,1,0,0:0:0:0:
112,272,96588,1,4,0:0:0:0:
113,75,96725,1,0,0:0:0:0:
223,231,96861,1,4,0:0:0:0:
45,186,96998,1,0,0:0:0:0:
204,139,97134,2,0,P|180:231|303:317,1,243.75,4|4,0:0|0:0,0:0:0:0:
271,215,97543,5,0,0:0:0:0:
411,169,97679,1,4,0:0:0:0:
303,69,97816,1,0,0:0:0:0:
170,38,97952,6,0,B|121:67|121:67|106:153,2,121.875,4|0|4,0:0|0:0|0:0,0:0:0:0:
208,191,98361,1,0,0:0:0:0:
110,302,98498,1,4,0:0:0:0:
295,334,98634,2,0,P|311:282|306:206,1,121.875,0|4,0:0|1:0,0:0:0:0:
222,74,98907,2,0,P|202:126|208:192,1,121.875,0|4,0:0|0:0,0:0:0:0:
292,156,99179,1,0,0:0:0:0:
297,29,99316,6,0,P|407:49|456:154,1,182.8125,4|0,0:0|0:0,0:0:0:0:
389,157,99588,2,0,P|308:178|241:262,1,182.8125,4|0,0:0|0:0,0:0:0:0:
372,325,99861,2,0,P|281:283|182:289,1,182.8125,4|0,0:0|0:0,0:0:0:0:
199,284,100134,1,4,0:0:0:0:
70,89,100407,6,0,P|47:181|78:268,2,182.8125,4|0|4,0:0|0:0|0:0,0:0:0:0:
196,53,100952,1,0,0:0:0:0:
348,59,101088,1,0,0:0:0:0:
453,144,101225,2,0,P|433:205|391:262,1,121.875
290,331,101498,2,0,P|232:348|178:323,1,121.875
118,129,101770,1,0,0:0:0:0:
235,269,101907,1,0,0:0:0:0:
410,307,102043,5,4,0:0:0:0:
423,282,102111,1,4,0:0:0:0:
409,261,102179,1,4,0:0:0:0:
428,242,102248,1,4,0:0:0:0:
410,220,102316,1,4,0:0:0:0:
429,202,102384,1,4,0:0:0:0:
411,182,102452,1,4,0:0:0:0:
431,161,102520,1,4,0:0:0:0:
417,126,102588,5,4,1:0:0:0:
384,115,102656,1,0,0:0:0:0:
349,113,102724,1,0,0:0:0:0:
315,122,102792,1,0,0:0:0:0:
289,123,102860,1,0,0:0:0:0:
264,98,102928,1,0,0:0:0:0:
234,83,102997,1,4,1:0:0:0:
199,77,103065,1,0,0:0:0:0:
168,82,103134,2,0,L|108:106,7,36.5625013947487,0|0|4|0|0|0|0|0,0:0|0:0|1:0|0:0|0:0|0:0|0:0|0:0,0:0:0:0:
107,112,103679,5,4,1:0:0:0:
113,147,103748,1,0,0:0:0:0:
135,172,103816,1,0,0:0:0:0:
161,193,103884,1,0,0:0:0:0:
167,227,103952,1,0,0:0:0:0:
140,250,104020,1,0,0:0:0:0:
138,284,104088,1,4,1:0:0:0:
164,307,104157,1,0,0:0:0:0:
199,315,104225,2,0,L|236:308,7,36.5625013947487,0|0|0|0|0|0|0|0,0:0|0:0|1:0|0:0|0:0|0:0|0:0|0:0,0:0:0:0:
262,304,104770,5,4,1:0:0:0:
295,305,104838,1,0,0:0:0:0:
327,298,104907,1,0,0:0:0:0:
356,281,104975,1,0,0:0:0:0:
381,258,105043,1,0,0:0:0:0:
397,230,105111,1,0,0:0:0:0:
406,196,105179,1,4,1:0:0:0:
405,164,105248,1,0,0:0:0:0:
400,129,105316,5,0,0:0:0:0:
391,88,105384,1,0,0:0:0:0:
367,53,105452,1,4,1:0:0:0:
333,30,105520,1,0,0:0:0:0:
293,21,105588,1,0,0:0:0:0:
252,28,105656,1,0,0:0:0:0:
216,49,105725,1,0,0:0:0:0:
191,82,105793,1,0,0:0:0:0:
187,130,105861,5,4,1:0:0:0:
198,172,105929,1,0,0:0:0:0:
185,214,105997,1,0,0:0:0:0:
152,243,106065,1,0,0:0:0:0:
102,251,106133,1,0,0:0:0:0:
57,230,106201,1,0,0:0:0:0:
29,189,106270,1,4,1:0:0:0:
28,139,106338,1,0,0:0:0:0:
41,85,106407,5,0,0:0:0:0:
87,42,106475,1,0,0:0:0:0:
148,34,106543,1,4,1:0:0:0:
200,63,106611,1,0,0:0:0:0:
217,109,106679,1,0,0:0:0:0:
252,136,106747,1,0,0:0:0:0:
303,146,106815,1,0,0:0:0:0:
356,134,106884,1,0,0:0:0:0:
392,112,106952,5,4,1:0:0:0:
399,160,107020,1,0,0:0:0:0:
395,206,107088,1,0,0:0:0:0:
379,253,107156,1,0,0:0:0:0:
351,296,107224,1,0,0:0:0:0:
310,326,107292,1,0,0:0:0:0:
259,335,107361,1,4,1:0:0:0:
207,328,107429,1,0,0:0:0:0:
158,311,107498,2,0,L|112:294,1,43.8749986610413
12,186,107634,2,0,L|57:205,1,43.8749986610413,4|0,1:0|0:0,0:0:0:0:
164,144,107770,2,0,L|113:126,1,43.8749986610413
31,35,107907,2,0,L|77:53,1,43.8749986610413
185,48,108043,5,4,1:0:0:0:
223,50,108111,1,0,0:0:0:0:
260,55,108179,1,0,0:0:0:0:
297,64,108248,1,0,0:0:0:0:
335,76,108316,1,0,0:0:0:0:
369,91,108384,1,0,0:0:0:0:
403,108,108452,1,4,1:0:0:0:
435,128,108520,1,0,0:0:0:0:
467,150,108588,2,0,L|460:211,1,43.8749986610413
405,311,108725,2,0,L|404:248,1,43.8749986610413,4|0,1:0|0:0,0:0:0:0:
339,162,108861,2,0,L|336:216,1,43.8749986610413
241,291,108998,2,0,L|245:227,1,43.8749986610413
141,192,109134,5,4,1:0:0:0:
131,159,109202,1,0,0:0:0:0:
135,122,109270,1,0,0:0:0:0:
149,83,109338,1,0,0:0:0:0:
178,49,109407,1,0,0:0:0:0:
222,24,109475,1,0,0:0:0:0:
274,14,109543,1,4,1:0:0:0:
328,36,109611,1,0,0:0:0:0:
365,81,109679,2,0,P|376:110|399:134,7,48.75,0|0|4|0|0|0|0|0,0:0|0:0|1:0|0:0|0:0|0:0|0:0|0:0,0:0:0:0:
394,174,110225,5,4,1:0:0:0:
397,213,110293,1,0,0:0:0:0:
384,255,110361,1,0,0:0:0:0:
356,297,110429,1,0,0:0:0:0:
313,328,110498,1,0,0:0:0:0:
256,346,110566,1,0,0:0:0:0:
196,342,110634,1,4,1:0:0:0:
138,301,110702,1,0,0:0:0:0:
97,247,110770,2,0,P|80:222|73:199,7,48.75,0|0|4|0|0|0|0|0,0:0|0:0|1:0|0:0|0:0|0:0|0:0|0:0,0:0:0:0:
78,158,111316,5,4,1:0:0:0:
117,182,111384,1,0,0:0:0:0:
163,179,111452,1,0,0:0:0:0:
208,168,111520,1,0,0:0:0:0:
245,140,111588,1,0,0:0:0:0:
270,100,111657,1,0,0:0:0:0:
294,60,111725,1,4,1:0:0:0:
333,35,111793,1,0,0:0:0:0:
377,24,111861,5,0,0:0:0:0:
423,28,111929,1,0,0:0:0:0:
464,49,111997,1,4,1:0:0:0:
480,91,112065,1,0,0:0:0:0:
481,137,112133,1,0,0:0:0:0:
469,182,112201,1,0,0:0:0:0:
436,213,112270,1,0,0:0:0:0:
392,225,112338,1,0,0:0:0:0:
355,207,112407,5,4,1:0:0:0:
324,181,112475,1,0,0:0:0:0:
288,169,112543,1,0,0:0:0:0:
250,175,112611,1,0,0:0:0:0:
216,194,112679,1,0,0:0:0:0:
183,195,112748,1,0,0:0:0:0:
141,180,112816,1,4,1:0:0:0:
99,169,112884,1,0,0:0:0:0:
54,184,112952,5,0,0:0:0:0:
27,228,113020,1,0,0:0:0:0:
27,283,113088,1,4,1:0:0:0:
54,331,113156,1,0,0:0:0:0:
99,362,113224,1,0,0:0:0:0:
155,368,113292,1,0,0:0:0:0:
208,350,113361,1,0,0:0:0:0:
250,312,113429,1,0,0:0:0:0:
276,273,113498,5,4,1:0:0:0:
291,234,113566,1,0,0:0:0:0:
284,193,113634,1,0,0:0:0:0:
265,157,113702,1,0,0:0:0:0:
234,130,113770,1,0,0:0:0:0:
194,115,113838,1,0,0:0:0:0:
153,113,113907,1,4,1:0:0:0:
114,127,113975,1,0,0:0:0:0:
91,164,114043,2,0,P|83:181|72:206,7,43.8749986610413,0|0|4|0|0|0|0|0,0:0|0:0|1:0|0:0|0:0|0:0|0:0|0:0,0:0:0:0:
63,269,114588,5,4,1:0:0:0:
112,251,114657,1,0,0:0:0:0:
161,228,114725,1,0,0:0:0:0:
211,206,114793,1,0,0:0:0:0:
259,185,114861,1,0,0:0:0:0:
309,163,114929,1,0,0:0:0:0:
357,141,114998,1,4,1:0:0:0:
407,118,115066,1,0,0:0:0:0:
457,96,115134,2,0,B|443:65|443:65|418:43,7,58.4999982147217,0|0|4|0|0|0|0|0,0:0|0:0|1:0|0:0|0:0|0:0|0:0|0:0,0:0:0:0:
443,144,115679,5,4,1:0:0:0:
476,178,115748,1,0,0:0:0:0:
489,226,115816,1,0,0:0:0:0:
479,274,115884,1,0,0:0:0:0:
449,311,115952,1,0,0:0:0:0:
404,331,116020,1,0,0:0:0:0:
355,329,116088,1,4,1:0:0:0:
314,304,116157,1,0,0:0:0:0:
293,265,116225,5,0,0:0:0:0:
316,222,116293,1,0,0:0:0:0:
325,173,116361,1,4,1:0:0:0:
317,125,116429,1,0,0:0:0:0:
294,83,116497,1,0,0:0:0:0:
256,50,116565,1,0,0:0:0:0:
211,33,116634,1,0,0:0:0:0:
162,31,116702,1,0,0:0:0:0:
118,47,116770,5,4,1:0:0:0:
88,79,116838,1,0,0:0:0:0:
66,116,116906,1,0,0:0:0:0:
55,159,116974,1,0,0:0:0:0:
49,209,117043,1,0,0:0:0:0:
58,258,117111,1,0,0:0:0:0:
92,296,117179,1,4,1:0:0:0:
139,311,117247,1,0,0:0:0:0:
188,312,117316,5,0,0:0:0:0:
177,267,117384,1,0,0:0:0:0:
179,221,117452,1,4,1:0:0:0:
198,179,117520,1,0,0:0:0:0:
231,148,117588,1,0,0:0:0:0:
273,130,117656,1,0,0:0:0:0:
319,131,117725,1,0,0:0:0:0:
368,136,117793,1,0,0:0:0:0:
412,156,117861,5,4,1:0:0:0:
393,110,117929,1,0,0:0:0:0:
349,91,117998,1,0,0:0:0:0:
303,107,118066,1,0,0:0:0:0:
282,151,118134,1,0,0:0:0:0:
294,197,118202,1,0,0:0:0:0:
336,222,118270,1,4,1:0:0:0:
383,211,118338,1,0,0:0:0:0:
412,174,118407,5,0,0:0:0:0:
453,159,118475,1,0,0:0:0:0:
493,177,118543,1,4,1:0:0:0:
512,216,118611,1,0,0:0:0:0:
500,258,118679,1,0,0:0:0:0:
462,281,118747,1,0,0:0:0:0:
419,273,118816,1,0,0:0:0:0:
392,239,118884,1,0,0:0:0:0:
357,192,118952,5,4,1:0:0:0:
305,168,119020,1,0,0:0:0:0:
249,184,119088,1,0,0:0:0:0:
214,229,119157,1,0,0:0:0:0:
217,286,119225,1,0,0:0:0:0:
254,330,119293,1,0,0:0:0:0:
310,341,119361,1,4,1:0:0:0:
361,315,119429,1,0,0:0:0:0:
390,273,119498,2,0,P|412:239|448:224,8,73.1250027894975,0|0|4|0|0|0|0|0|4,0:0|0:0|1:0|0:0|0:0|0:0|0:0|0:0|1:0,0:0:0:0:
478,111,120179,6,0,P|439:74|390:62,1,97.5,0|4,0:0|1:0,0:0:0:0:
401,141,120452,1,0,0:0:0:0:
223,313,120588,1,4,1:0:0:0:
188,221,120725,1,0,0:0:0:0:
94,194,120861,2,0,P|127:149|172:126,1,97.5,4|0,1:0|0:0,0:0:0:0:
285,58,121134,5,4,1:0:0:0:
438,102,121270,2,0,B|419:117|419:117|401:176|377:178,1,97.5,0|4,0:0|1:0,0:0:0:0:
294,282,121543,1,0,0:0:0:0:
240,166,121679,2,0,P|195:115|151:84,1,97.5,4|0,1:0|0:0,0:0:0:0:
60,50,121952,2,0,B|73:67|73:67|46:65|46:65|68:101|55:170,1,126.749994197846,4|0,1:0|0:0,0:0:0:0:
54,297,122225,5,4,1:0:0:0:
54,297,122361,1,0,0:0:0:0:
54,297,122498,2,0,P|108:292|174:274,1,107.25000327301,4|0,1:0|0:0,0:0:0:0:
87,191,122770,1,4,1:0:0:0:
384,226,122907,2,0,B|394:166|394:166|394:111,2,107.25000327301,0|4|0,0:0|1:0|0:0,0:0:0:0:
285,316,123316,1,4,1:0:0:0:
265,46,123452,5,0,0:0:0:0:
100,113,123588,1,4,1:0:0:0:
267,162,123725,1,0,0:0:0:0:
429,95,123861,2,0,L|449:209,1,107.25000327301,4|0,1:0|0:0,0:0:0:0:
418,332,124134,2,0,B|396:328|396:328|392:340|392:340|357:289|257:295,1,146.250005578995,4|0,1:0|0:0,0:0:0:0:
145,254,124407,5,4,1:0:0:0:
70,317,124543,1,0,0:0:0:0:
0,234,124679,2,0,L|114:150,1,107.25000327301,4|0,1:0|0:0,0:0:0:0:
383,230,124952,1,4,1:0:0:0:
383,230,125088,1,0,0:0:0:0:
383,230,125225,2,0,P|371:158|346:118,1,107.25000327301,4|0,1:0|0:0,0:0:0:0:
224,37,125498,1,4,1:0:0:0:
153,121,125634,1,0,0:0:0:0:
63,103,125770,2,0,P|71:160|114:204,1,107.25000327301,4|0,1:0|0:0,0:0:0:0:
201,267,126043,1,4,1:0:0:0:
343,111,126179,1,0,0:0:0:0:
278,338,126316,1,4,1:0:0:0:
252,117,126452,1,0,0:0:0:0:
110,118,126588,6,0,B|84:153|103:189|103:189|82:234,1,107.25000327301,4|0,1:0|0:0,0:0:0:0:
94,336,126861,2,0,P|136:354|241:346,1,107.25000327301,4|0,1:0|0:0,0:0:0:0:
309,327,127134,1,4,1:0:0:0:
406,288,127270,1,0,0:0:0:0:
461,205,127407,2,0,P|405:193|326:200,1,107.25000327301,4|0,1:0|0:0,0:0:0:0:
134,204,127679,5,4,1:0:0:0:
241,120,127816,1,0,0:0:0:0:
295,113,127884,1,4,1:0:0:0:
352,130,127952,1,4,1:0:0:0:
425,51,128088,1,4,1:0:0:0:
365,40,128157,1,4,1:0:0:0:
304,34,128225,1,0,1:0:0:0:
243,34,128293,1,0,1:0:0:0:
182,39,128361,1,0,1:0:0:0:
61,82,128498,1,4,1:0:0:0:
70,120,128566,1,4,1:0:0:0:
81,155,128634,2,0,P|92:180|117:198,1,53.6250016365052,4|0,0:0|0:0,0:0:0:0:
229,238,128770,5,4,1:0:0:0:
461,229,129179,1,4,1:0:0:0:
114,100,129588,1,4,1:0:0:0:
414,58,129998,6,0,L|360:170,1,107.25000327301,4|0,0:0|0:0,0:0:0:0:
292,300,130270,2,0,P|239:287|176:241,1,107.25000327301
93,118,130543,1,4,0:0:0:0:
93,118,130611,1,4,0:0:0:0:
93,118,130679,2,0,P|140:77|217:60,1,107.25000327301,12|0,0:0|0:0,0:0:0:0:
321,44,130952,1,4,0:0:0:0:
331,152,131088,5,0,0:0:0:0:
414,168,131225,1,0,0:0:0:0:
381,242,131361,1,4,0:0:0:0:
304,133,131634,5,0,0:0:0:0:
440,142,131770,1,4,0:0:0:0:
383,276,131907,1,0,0:0:0:0:
166,143,132179,5,4,0:0:0:0:
341,114,132316,1,0,0:0:0:0:
365,246,132452,1,0,0:0:0:0:
286,52,132588,1,4,0:0:0:0:
172,304,132725,1,0,0:0:0:0:
136,284,132793,1,0,0:0:0:0:
108,252,132861,1,0,0:0:0:0:
60,86,132998,1,0,0:0:0:0:
224,64,133134,6,0,L|301:102,5,53.6250016365052,4|0|0|0|0|0,0:0|0:0|0:0|0:0|0:0|0:0,0:0:0:0:
360,176,133543,2,0,L|355:242,5,53.6250016365052,4|0|0|0|0|0,0:0|0:0|0:0|0:0|0:0|0:0,0:0:0:0:
271,306,133952,2,0,L|250:236,5,53.6250016365052,4|0|0|0|0|0,0:0|0:0|0:0|0:0|0:0|0:0,0:0:0:0:
166,153,134361,2,0,L|153:220,5,53.6250016365052,4|0|0|0|0|0,0:0|0:0|0:0|0:0|0:0|0:0,0:0:0:0:
68,305,134770,2,0,L|52:244,1,53.6250016365052,4|0,0:0|0:0,0:0:0:0:
24,137,134907,1,4,0:0:0:0:
24,137,134975,1,4,0:0:0:0:
24,137,135043,2,0,P|73:112|142:103,1,107.25000327301,4|0,0:0|0:0,0:0:0:0:
221,70,135316,5,4,0:0:0:0:
256,60,135384,1,0,0:0:0:0:
292,60,135452,1,0,0:0:0:0:
328,68,135520,1,0,0:0:0:0:
360,85,135588,1,0,0:0:0:0:
387,110,135657,1,0,0:0:0:0:
407,140,135725,1,4,0:0:0:0:
419,174,135793,1,0,0:0:0:0:
423,211,135861,1,0,0:0:0:0:
417,247,135929,1,0,0:0:0:0:
403,280,135998,1,0,0:0:0:0:
381,309,136066,1,0,0:0:0:0:
352,332,136134,2,0,L|246:326,1,97.5,4|0,0:0|0:0,0:0:0:0:
106,290,136407,5,4,0:0:0:0:
92,256,136475,1,0,0:0:0:0:
79,221,136543,2,0,L|56:160,1,48.75
199,216,136679,1,4,0:0:0:0:
185,182,136748,1,0,0:0:0:0:
172,147,136816,2,0,L|149:86,1,48.75
287,140,136952,1,4,0:0:0:0:
273,106,137020,1,0,0:0:0:0:
260,71,137088,2,0,L|237:10,1,48.75
407,140,137225,2,0,P|419:197|398:251,1,97.5,4|0,0:0|0:0,0:0:0:0:
106,290,137498,5,4,1:0:0:0:
56,158,137634,1,0,0:0:0:0:
96,151,137702,1,0,0:0:0:0:
137,157,137770,1,0,0:0:0:0:
174,174,137838,1,0,0:0:0:0:
207,150,137907,1,0,0:0:0:0:
248,142,137975,1,0,0:0:0:0:
282,144,138043,2,0,L|306:76,1,41.4375007903576
394,105,138179,2,0,L|413:40,1,41.4375007903576
334,240,138316,2,0,L|350:186,1,41.4375007903576
419,323,138452,2,0,L|437:279,1,41.4375007903576
476,189,138588,6,0,B|432:184|432:184|416:224|387:236|328:218,1,146.25
316,244,139066,1,0,0:0:0:0:
280,271,139134,1,0,0:0:0:0:
241,291,139202,1,0,0:0:0:0:
198,303,139270,1,0,0:0:0:0:
155,306,139338,1,0,0:0:0:0:
110,302,139407,1,0,0:0:0:0:
63,198,139543,1,0,0:0:0:0:
93,93,139679,6,0,L|73:44,1,48.75,4|0,1:0|0:0,0:0:0:0:
133,99,139816,2,0,L|112:50,1,48.75
171,107,139952,2,0,P|227:113|293:100,1,97.5
370,81,140225,1,0,0:0:0:0:
430,178,140361,1,0,0:0:0:0:
430,178,140407,1,0,0:0:0:0:
430,178,140452,1,0,0:0:0:0:
430,178,140498,2,0,P|410:230|374:284,1,97.5
172,289,140770,6,0,P|135:201|126:70,3,195
288,100,141793,1,0,0:0:0:0:
315,115,141861,1,4,1:0:0:0:
50,140,143634,5,0,0:0:0:0:
170,211,143770,1,0,0:0:0:0:
226,334,143907,1,0,0:0:0:0:
447,170,144043,5,4,1:0:0:0:
336,222,144179,1,0,0:0:0:0:
228,158,144316,1,0,0:0:0:0:
96,180,144452,1,0,0:0:0:0:
151,57,144588,5,0,0:0:0:0:
282,82,144725,2,0,L|310:39,2,48.75
376,169,144998,1,0,0:0:0:0:
390,317,145134,5,4,1:0:0:0:
390,317,145270,1,4,1:0:0:0:
104,232,145407,1,4,1:0:0:0:
104,232,145543,1,4,1:0:0:0:
254,38,145679,1,4,1:0:0:0:
305,182,145816,1,4,1:0:0:0:
376,271,146225,5,0,0:0:0:0:
393,126,146361,2,0,L|442:122,2,48.75,0|0|8,0:0|0:0|1:0,0:0:0:0:
349,134,146566,1,0,0:0:0:0:
314,168,146634,1,0,0:0:0:0:
266,171,146702,1,0,0:0:0:0:
228,143,146770,1,0,0:0:0:0:
216,97,146838,1,0,0:0:0:0:
178,67,146907,1,4,1:0:0:0:
131,60,146975,1,0,0:0:0:0:
86,79,147043,1,0,0:0:0:0:
58,118,147111,1,0,0:0:0:0:
54,166,147179,1,0,0:0:0:0:
75,209,147248,1,0,0:0:0:0:
102,244,147316,6,0,L|188:333,1,121.875,4|0,1:0|0:0,0:0:0:0:
228,346,147725,1,0,0:0:0:0:
266,326,147793,1,0,0:0:0:0:
304,305,147861,1,0,0:0:0:0:
347,311,147929,1,0,0:0:0:0:
383,287,147998,1,4,1:0:0:0:
410,253,148066,1,0,0:0:0:0:
437,220,148134,2,4,B|430:139,1,48.75,4|4,1:0|1:0,1:0:0:0:
365,146,148270,2,4,L|332:88,1,48.75,4|4,1:0|1:0,1:0:0:0:
215,44,148407,5,4,1:0:0:0:
192,56,148475,1,0,0:0:0:0:
92,232,148611,1,4,1:0:0:0:
100,252,148679,1,0,0:0:0:0:
276,296,148816,1,4,1:0:0:0:
299,288,148884,1,0,0:0:0:0:
304,136,149020,1,4,1:0:0:0:
286,122,149088,1,0,0:0:0:0:
140,95,149225,2,0,B|179:138|195:179|166:207|141:192|138:174|146:160,1,146.250005578995,4|0,1:0|0:0,0:0:0:0:
97,282,149498,5,4,1:0:0:0:
153,292,149566,1,4,1:0:0:0:
208,273,149634,1,4,1:0:0:0:
254,241,149702,1,4,1:0:0:0:
310,228,149770,1,4,1:0:0:0:
447,179,149907,1,4,1:0:0:0:
419,121,149975,1,4,1:0:0:0:
389,65,150043,1,4,1:0:0:0:
288,48,150179,1,4,1:0:0:0:
266,89,150248,1,4,1:0:0:0:
243,127,150316,1,4,1:0:0:0:
255,81,150588,5,4,1:0:0:0:
354,116,150725,1,4,1:0:0:0:
189,281,150861,1,4,1:0:0:0:
156,166,150998,1,4,1:0:0:0:
346,236,151134,5,4,1:0:0:0:
205,76,151270,1,4,1:0:0:0:
354,116,151407,1,4,1:0:0:0:
206,226,151543,1,4,1:0:0:0:
171,235,151611,1,4,1:0:0:0:
135,244,151679,5,4,1:0:0:0:
183,40,151816,1,4,1:0:0:0:
386,87,151952,1,4,1:0:0:0:
340,291,152088,1,4,1:0:0:0:
212,336,152225,5,4,1:0:0:0:
88,124,152362,1,4,1:0:0:0:
300,0,152498,1,4,1:0:0:0:
421,213,152634,1,4,1:0:0:0:
232,84,152770,5,4,1:0:0:0:
293,74,152838,1,4,1:0:0:0:
355,91,152907,1,4,1:0:0:0:
400,135,152975,1,4,1:0:0:0:
424,193,153043,1,4,1:0:0:0:
432,255,153111,1,4,1:0:0:0:
424,304,153179,2,4,L|335:294,1,73.1250027894975,4|4,1:0|1:0,1:0:0:0:
100,256,153316,2,4,L|188:245,1,73.1250027894975,4|4,1:0|1:0,1:0:0:0:
449,190,153452,2,4,L|367:185,1,73.1250027894975,4|4,1:0|1:0,1:0:0:0:
87,148,153588,2,4,L|159:139,1,73.1250027894975,4|4,1:0|1:0,1:0:0:0:
441,96,153725,2,4,L|367:89,1,73.1250027894975,4|4,1:0|1:0,1:0:0:0:
256,86,153861,6,0,L|254:136,31,36.5625013947487
256,86,154952,6,0,L|202:206,1,121.875,4|0,1:0|0:0,0:0:0:0:
75,324,155225,1,4,1:0:0:0:
155,350,155361,1,0,0:0:0:0:
234,318,155498,1,4,1:0:0:0:
315,341,155634,1,0,0:0:0:0:
410,305,155770,2,0,B|418:233|418:233|407:341,1,146.250005578995,4|0,1:0|0:0,0:0:0:0:
329,186,156043,5,4,1:0:0:0:
245,168,156179,1,0,0:0:0:0:
169,208,156316,1,4,1:0:0:0:
85,194,156452,1,0,0:0:0:0:
38,122,156588,1,4,1:0:0:0:
107,71,156725,1,0,0:0:0:0:
190,86,156861,1,4,1:0:0:0:
270,57,156998,1,0,0:0:0:0:
368,48,157134,6,0,B|390:86|390:86|365:80|365:80|403:104|403:104|378:109|378:109|388:127,1,146.250005578995,4|0,1:0|0:0,0:0:0:0:
395,215,157406,1,4,1:0:0:0:
309,271,157543,1,0,0:0:0:0:
222,216,157679,1,4,1:0:0:0:
183,186,157747,1,0,1:0:0:0:
144,157,157815,1,0,1:0:0:0:
105,127,157883,1,0,1:0:0:0:
67,92,157952,5,4,1:0:0:0:
160,50,158088,1,0,0:0:0:0:
255,87,158224,1,4,1:0:0:0:
347,41,158361,1,0,0:0:0:0:
443,74,158497,1,4,1:0:0:0:
459,119,158565,1,0,1:0:0:0:
461,168,158633,1,0,1:0:0:0:
448,215,158701,1,0,1:0:0:0:
423,261,158770,6,0,P|388:282|342:295,1,73.1250027894975,4|0,1:0|0:0,0:0:0:0:
202,298,158906,2,0,P|232:278|267:266,1,73.1250027894975,4|0,1:0|0:0,0:0:0:0:
360,175,159043,1,0,0:0:0:0:
267,265,159179,1,0,0:0:0:0:
160,176,159315,1,0,0:0:0:0:
339,108,159452,2,0,L|267:122,1,73.1250027894975,4|0,1:0|0:0,0:0:0:0:
147,67,159588,2,0,L|237:49,1,73.1250027894975,4|0,1:0|0:0,0:0:0:0:
379,30,159724,5,0,0:0:0:0:
424,162,159861,2,0,P|428:206|398:275,1,97.5
293,320,160134,6,0,L|241:341,1,48.75,4|0,0:0|0:0,0:0:0:0:
287,301,160202,2,0,L|225:316,1,48.75,4|0,0:0|0:0,0:0:0:0:
283,280,160270,2,0,L|221:287,1,48.75,4|0,0:0|0:0,0:0:0:0:
281,261,160338,2,0,L|208:265,1,48.75,4|0,0:0|0:0,0:0:0:0:
279,244,160406,2,0,L|223:245,1,48.75,4|0,0:0|0:0,0:0:0:0:
279,228,160474,2,0,L|217:221,1,48.75,4|0,0:0|0:0,0:0:0:0:
286,210,160543,2,0,L|230:198,1,48.75,4|0,0:0|0:0,0:0:0:0:
292,194,160611,2,0,L|238:172,1,48.75,4|0,0:0|0:0,0:0:0:0:
302,172,160679,6,0,L|169:131,1,97.5,4|0,0:0|2:0,0:0:0:0:
95,57,160951,2,0,P|64:91|32:149,1,97.5,4|0,0:0|2:0,0:0:0:0:
78,271,161224,2,0,P|128:258|193:255,1,97.5,4|0,0:0|2:0,0:0:0:0:
412,251,161497,2,0,P|388:198|357:159,1,97.5,4|0,0:0|2:0,0:0:0:0:
243,40,161769,2,0,L|199:148,1,97.5,4|0,0:0|2:0,0:0:0:0:
48,341,162042,2,0,B|91:298|91:298|140:272,1,97.5,4|0,0:0|2:0,0:0:0:0:
229,233,162315,5,4,1:0:0:0:
209,141,162451,1,0,2:0:0:0:
298,166,162588,1,4,0:0:0:0:
212,241,162724,5,0,2:0:0:0:
209,120,162860,1,4,0:0:0:0:
316,172,162997,1,0,2:0:0:0:
188,250,163133,5,4,0:0:0:0:
212,95,163269,1,0,2:0:0:0:
338,186,163406,1,4,0:0:0:0:
157,255,163542,5,0,2:0:0:0:
222,63,163679,1,4,0:0:0:0:
357,203,163815,1,0,2:0:0:0:
269,296,163951,6,4,B|280:303|280:303|308:262|341:260,1,73.1250027894975
419,218,164088,2,4,L|384:129,1,73.1250027894975
334,51,164224,2,4,B|323:64|323:64|327:87|282:123,1,73.1250027894975
199,191,164360,2,4,L|158:106,1,73.1250027894975
97,36,164497,2,4,B|68:57|68:57|41:105,1,73.1250027894975
26,191,164633,2,4,L|62:271,1,73.1250027894975
111,322,164769,5,4,0:0:0:0:
166,299,164837,1,4,0:0:0:0:
222,285,164905,1,4,0:0:0:0:
282,282,164973,1,4,0:0:0:0:
341,289,165041,1,4,0:0:0:0:
399,303,165109,1,4,0:0:0:0:
451,278,165178,1,4,0:0:0:0:
471,223,165246,1,4,0:0:0:0:
463,165,165314,1,4,0:0:0:0:
427,119,165382,1,4,0:0:0:0:
372,98,165450,1,4,0:0:0:0:
313,95,165519,1,4,0:0:0:0:
256,104,165588,1,4,0:0:0:0:
256,192,165656,12,0,168315,0:0:0:0:
240,124,177042,5,4,1:0:0:0:
288,56,177178,1,0,2:0:0:0:
368,73,177315,2,0,P|410:109|437:180,1,97.5,8|0,0:0|2:0,0:0:0:0:
348,160,177587,1,0,2:0:0:0:
376,312,177724,2,0,P|316:284|252:272,1,97.5,4|8,0:0|0:0,0:0:0:0:
136,264,177996,1,0,2:0:0:0:
96,344,178133,6,0,P|56:312|36:256,1,97.5,4|0,0:0|2:0,0:0:0:0:
24,160,178405,1,8,0:0:0:0:
108,92,178542,1,0,2:0:0:0:
232,120,178678,2,0,P|280:140|312:192,1,97.5,0|4,2:0|0:0,0:0:0:0:
228,200,178951,1,10,0:0:0:0:
387,204,179087,1,0,2:0:0:0:
416,356,179224,6,0,P|344:320|252:232,1,195,4|8,0:0|0:0,0:0:0:0:
304,104,179633,1,0,2:0:0:0:
172,56,179769,2,0,P|92:148|104:256,1,195,0|8,0:0|0:0,0:0:0:0:
92,324,180178,1,0,2:0:0:0:
204,344,180315,5,4,0:0:0:0:
184,240,180451,2,0,P|236:244|280:276,1,97.5,0|8,2:0|0:0,0:0:0:0:
342,344,180724,1,0,2:0:0:0:
362,240,180860,2,0,P|310:244|266:276,1,97.5,0|4,2:0|1:0,0:0:0:0:
204,344,181133,5,8,1:0:0:0:
189,298,181201,1,8,1:0:0:0:
175,251,181269,1,8,1:0:0:0:
161,204,181337,1,8,1:0:0:0:
147,158,181405,5,4,1:0:0:0:
352,176,181678,1,4,0:0:0:0:
240,252,181951,1,4,0:0:0:0:
284,52,182224,1,4,0:0:0:0:
116,80,182496,5,4,0:0:0:0:
144,240,182633,1,4,0:0:0:0:
240,40,182769,1,4,0:0:0:0:
48,212,182905,1,4,0:0:0:0:
244,256,183042,1,4,0:0:0:0:
180,64,183178,1,4,0:0:0:0:
344,276,183315,1,4,0:0:0:0:
340,116,183451,1,4,0:0:0:0:
464,184,183587,5,4,0:0:0:0:
454,137,183655,1,4,0:0:0:0:
432,94,183724,1,4,0:0:0:0:
399,58,183792,1,4,0:0:0:0:
357,34,183860,1,4,0:0:0:0:
309,23,183928,1,4,0:0:0:0:
261,26,183996,1,4,0:0:0:0:
215,43,184065,1,4,0:0:0:0:
176,71,184133,5,4,0:0:0:0:
147,110,184201,1,4,0:0:0:0:
130,156,184269,1,4,0:0:0:0:
128,204,184337,1,4,0:0:0:0:
137,251,184405,1,4,0:0:0:0:
160,294,184474,1,4,0:0:0:0:
195,328,184542,1,4,0:0:0:0:
238,351,184610,1,4,0:0:0:0:
285,360,184678,5,0,2:0:0:0:
285,360,184746,1,0,2:0:0:0:
285,360,184815,2,0,L|312:300,1,48.75,0|0,2:0|2:0,2:0:0:0:
372,196,184951,1,0,2:0:0:0:
340,180,185019,1,0,2:0:0:0:
308,176,185087,2,0,P|268:188|244:208,1,48.75,0|0,2:0|2:0,2:0:0:0:
136,276,185224,1,0,2:0:0:0:
96,256,185292,1,0,2:0:0:0:
80,228,185360,2,0,P|72:204|72:180,1,48.75,0|0,2:0|2:0,2:0:0:0:
80,48,185496,1,0,2:0:0:0:
112,60,185565,2,0,L|164:88,1,48.75,0|0,2:0|2:0,2:0:0:0:
160,308,187678,6,0,L|283:276,1,97.5,0|2,0:0|0:0,0:0:0:0:
391,230,187951,2,0,P|391:194|379:155,1,60.9375,6|0,0:0|0:0,0:0:0:0:
358,89,188087,1,0,0:0:0:0:
304,71,188155,1,0,0:0:0:0:
248,62,188223,1,0,0:0:0:0:
191,60,188291,1,0,0:0:0:0:
136,67,188360,2,0,P|116:81|93:121,1,60.9375,6|0,0:0|0:0,0:0:0:0:
99,228,188496,5,0,0:0:0:0:
151,206,188564,1,0,0:0:0:0:
204,185,188632,1,0,0:0:0:0:
256,164,188700,1,0,0:0:0:0:
310,143,188769,2,0,P|342:143|393:163,1,60.9375,6|0,0:0|0:0,0:0:0:0:
453,213,188905,1,0,0:0:0:0:
440,268,188973,1,0,0:0:0:0:
407,313,189041,1,0,0:0:0:0:
357,339,189109,1,0,0:0:0:0:
306,340,189178,2,0,L|251:312,1,60.9375,6|0,0:0|0:0,0:0:0:0:
163,261,189315,5,0,0:0:0:0:
158,204,189383,1,0,0:0:0:0:
155,147,189451,1,0,0:0:0:0:
191,108,189519,1,0,0:0:0:0:
237,74,189587,2,0,L|303:84,1,60.9375,6|0,0:0|0:0,0:0:0:0:
457,111,189724,1,0,0:0:0:0:
429,160,189792,1,0,0:0:0:0:
379,186,189860,2,0,P|343:189|301:178,1,60.9375,6|0,0:0|0:0,0:0:0:0:
163,158,189996,5,0,0:0:0:0:
89,156,190065,1,0,0:0:0:0:
34,196,190133,6,0,P|138:234|128:375,1,243.75,6|4,0:0|0:0,0:0:0:0:
63,286,190542,1,0,0:0:0:0:
81,86,190678,2,0,P|142:86|190:49,1,121.875,4|0,0:0|0:0,0:0:0:0:
474,130,190951,2,0,L|340:155,1,121.875,4|0,0:0|0:0,0:0:0:0:
217,73,191224,2,0,B|244:135|244:135|129:198|184:282,1,243.75,4|4,0:0|0:0,0:0:0:0:
390,241,191633,1,0,0:0:0:0:
485,223,191769,2,0,P|383:329|297:271,1,243.75,4|4,0:0|0:0,0:0:0:0:
274,132,192178,5,0,0:0:0:0:
250,100,192246,1,0,0:0:0:0:
217,73,192315,2,0,P|209:132|162:177,1,121.875,4|0,0:0|0:0,0:0:0:0:
123,89,192587,1,6,0:0:0:0:
67,269,192724,1,0,0:0:0:0:
250,319,192860,2,0,P|329:225|234:303,1,365.625,4|0,0:0|0:0,0:0:0:0:
234,303,193405,2,0,P|342:249|407:113,1,243.75,4|4,0:0|0:0,0:0:0:0:
279,183,193815,1,0,0:0:0:0:
111,215,193951,6,0,B|121:178|121:178|168:188|193:130,1,121.875,4|0,0:0|0:0,0:0:0:0:
259,52,194224,1,4,0:0:0:0:
376,68,194360,1,0,0:0:0:0:
439,182,194496,1,0,0:0:0:0:
433,200,194769,1,0,0:0:0:0:
427,218,195042,1,0,0:0:0:0:
421,236,195315,1,0,0:0:0:0:
338,331,195451,5,8,0:0:0:0:
338,331,195519,1,8,0:0:0:0:
338,331,195587,1,12,0:0:0:0:
318,66,195860,2,0,L|304:200,1,121.875,4|0,0:0|0:0,0:0:0:0:
177,56,196133,2,0,L|163:188,1,121.875,4|0,0:0|0:0,0:0:0:0:
59,71,196405,5,4,0:0:0:0:
12,206,196542,1,0,0:0:0:0:
100,348,196678,2,0,P|172:318|217:262,1,121.875,4|0,0:0|0:0,0:0:0:0:
272,118,196951,2,0,P|212:142|170:179,1,121.875,4|0,0:0|0:0,0:0:0:0:
436,80,197224,2,0,L|377:323,1,243.75,4|4,0:0|0:0,0:0:0:0:
283,347,197633,5,0,0:0:0:0:
159,314,197769,2,0,P|118:264|120:206,1,121.875,4|0,0:0|0:0,0:0:0:0:
232,160,198042,1,4,0:0:0:0:
157,45,198178,1,0,0:0:0:0:
408,251,198315,1,4,0:0:0:0:
424,128,198451,1,0,0:0:0:0:
217,284,198587,1,4,0:0:0:0:
91,222,198724,1,0,0:0:0:0:
62,109,198860,6,0,P|80:55|163:32,1,121.875,4|0,0:0|0:0,0:0:0:0:
149,108,199133,1,4,0:0:0:0:
315,228,199269,1,0,0:0:0:0:
282,65,199405,1,4,0:0:0:0:
173,312,199542,1,0,0:0:0:0:
317,156,199678,1,4,0:0:0:0:
91,222,199815,1,0,0:0:0:0:
204,245,199951,2,0,P|180:153|303:67,1,243.75,4|4,0:0|0:0,0:0:0:0:
271,169,200360,5,0,0:0:0:0:
411,215,200496,1,4,0:0:0:0:
303,315,200633,1,0,0:0:0:0:
170,346,200769,6,0,B|121:317|121:317|106:231,2,121.875,4|0|4,0:0|0:0|0:0,0:0:0:0:
208,193,201178,1,0,0:0:0:0:
110,82,201315,1,4,0:0:0:0:
295,50,201451,2,0,P|311:102|306:178,1,121.875,0|4,0:0|0:0,0:0:0:0:
222,310,201724,2,0,P|202:258|208:192,1,121.875,0|4,0:0|0:0,0:0:0:0:
351,211,201996,1,0,0:0:0:0:
425,320,202133,6,0,P|473:237|460:127,2,182.8125,4|0|0,0:0|0:0|0:0,0:0:0:0:
389,88,202678,2,0,P|296:53|195:56,1,182.8125,4|0,0:0|0:0,0:0:0:0:
213,52,202951,1,4,0:0:0:0:
47,151,203087,1,0,0:0:0:0:
121,280,203224,5,4,0:0:0:0:
278,108,203360,1,0,0:0:0:0:
455,43,203633,5,4,0:0:0:0:
316,224,203769,2,0,L|315:355,1,121.875
455,164,204042,2,0,L|454:33,1,121.875,4|0,0:0|0:0,0:0:0:0:
289,53,204315,2,0,P|207:44|159:69,1,121.875,4|0,0:0|0:0,0:0:0:0:
118,255,204587,1,4,0:0:0:0:
235,115,204724,1,0,0:0:0:0:
447,99,204860,5,4,0:0:0:0:
416,136,204928,1,4,0:0:0:0:
371,152,204996,1,4,0:0:0:0:
325,138,205064,1,4,0:0:0:0:
318,178,205132,1,4,0:0:0:0:
309,226,205200,1,4,0:0:0:0:
283,266,205269,1,4,0:0:0:0:
237,281,205337,1,4,0:0:0:0:
189,274,205405,6,0,B|163:262|163:262|176:211|134:157,1,121.875,4|0,0:0|0:0,0:0:0:0:
50,110,205678,2,0,P|91:64|157:56,1,121.875,4|0,0:0|0:0,0:0:0:0:
303,60,205951,2,0,P|345:94|407:156,1,121.875,4|0,0:0|0:0,0:0:0:0:
406,286,206224,2,0,B|349:247|292:253|278:236,1,121.875,4|0,0:0|0:0,0:0:0:0:
92,273,206496,5,4,0:0:0:0:
26,157,206633,1,0,0:0:0:0:
215,209,206769,1,4,0:0:0:0:
160,92,206905,1,0,0:0:0:0:
319,28,207042,5,4,0:0:0:0:
461,228,207178,1,0,0:0:0:0:
455,76,207315,1,4,0:0:0:0:
341,320,207451,1,0,0:0:0:0:
121,178,207587,6,0,L|108:225,1,48.75,0|0,1:0|0:0,0:0:0:0:
207,169,207860,2,0,L|197:216,1,48.75,0|0,1:0|0:0,0:0:0:0:
300,160,208133,1,0,1:0:0:0:
341,320,208269,1,0,0:0:0:0:
341,320,208405,2,0,L|358:259,1,48.75,0|0,1:0|0:0,0:0:0:0:
406,49,208815,5,0,0:0:0:0:
300,160,208951,1,0,1:0:0:0:
300,160,209087,1,0,0:0:0:0:
208,169,209224,1,0,1:0:0:0:
39,158,209360,1,0,0:0:0:0:
70,115,209428,1,0,0:0:0:0:
102,70,209496,1,0,1:0:0:0:
177,129,209633,1,0,0:0:0:0:
208,86,209701,1,0,0:0:0:0:
240,41,209769,5,4,1:0:0:0:
365,67,209905,1,0,0:0:0:0:
464,161,210042,2,0,P|463:225|436:291,1,121.875,4|0,0:0|0:0,0:0:0:0:
363,198,210315,1,4,0:0:0:0:
221,310,210451,1,0,0:0:0:0:
344,336,210587,1,4,0:0:0:0:
239,174,210724,1,0,0:0:0:0:
102,70,210860,5,4,0:0:0:0:
92,130,210928,1,4,0:0:0:0:
82,190,210996,1,4,0:0:0:0:
73,250,211064,1,4,0:0:0:0:
63,310,211133,2,0,L|200:301,1,121.875,4|0,0:0|0:0,0:0:0:0:
472,232,211405,2,0,L|335:225,1,121.875,4|0,0:0|0:0,0:0:0:0:
82,190,211678,2,0,L|210:177,1,121.875,4|0,0:0|0:0,0:0:0:0:
405,98,211951,5,0,0:0:0:0:
316,109,212087,1,0,0:0:0:0:
229,94,212224,2,0,L|180:80,1,48.75
164,323,212632,5,0,0:0:0:0:
265,292,212769,2,4,L|266:267,1,24.375,4|4,1:0|1:0,1:0:0:0:
366,223,212905,2,4,L|363:248,1,24.375,4|4,1:0|1:0,1:0:0:0:
358,328,213042,1,0,0:0:0:0:
463,273,213178,5,0,0:0:0:0:
400,197,213315,1,0,0:0:0:0:
325,259,213451,1,0,0:0:0:0:
257,188,213587,1,0,0:0:0:0:
203,269,213724,1,0,0:0:0:0:
145,190,213860,1,0,0:0:0:0:
96,283,213996,1,0,0:0:0:0:
38,168,214133,6,0,B|52:143|52:143|101:160|159:123,1,121.875,4|0,0:0|0:0,0:0:0:0:
213,43,214406,2,0,P|255:87|257:154,1,121.875,4|0,0:0|0:0,0:0:0:0:
474,216,214678,2,0,B|459:240|459:240|410:223|352:260,1,121.875,4|0,0:0|0:0,0:0:0:0:
299,341,214951,2,0,P|256:296|254:229,1,121.875,4|0,0:0|0:0,0:0:0:0:
357,93,215224,6,0,P|301:69|221:75,1,121.875,4|0,0:0|0:0,0:0:0:0:
277,160,215496,1,4,0:0:0:0:
51,216,215633,1,0,0:0:0:0:
162,285,215769,1,4,0:0:0:0:
235,224,215905,1,0,0:0:0:0:
461,168,216042,1,4,0:0:0:0:
350,99,216178,1,0,0:0:0:0:
391,206,216315,6,0,L|404:159,1,48.75,4|0,2:0|2:0,2:0:0:0:
305,215,216588,2,0,L|315:168,1,48.75,4|0,2:0|2:0,2:0:0:0:
212,224,216861,1,4,2:0:0:0:
171,64,216997,1,0,2:0:0:0:
171,64,217133,2,0,L|154:125,1,48.75,4|0,2:0|2:0,2:0:0:0:
106,335,217543,5,0,2:0:0:0:
212,224,217679,1,4,2:0:0:0:
212,224,217815,1,0,2:0:0:0:
304,215,217952,1,4,2:0:0:0:
473,226,218088,1,0,2:0:0:0:
442,269,218156,1,0,2:0:0:0:
410,314,218224,1,4,2:0:0:0:
332,266,218361,1,0,2:0:0:0:
301,309,218429,1,0,2:0:0:0:
272,343,218496,5,0,0:0:0:0:
240,361,218564,1,0,0:0:0:0:
204,367,218632,1,0,0:0:0:0:
168,360,218700,1,0,0:0:0:0:
137,342,218768,1,0,0:0:0:0:
114,314,218836,1,0,0:0:0:0:
102,280,218905,1,0,0:0:0:0:
102,243,218973,1,0,0:0:0:0:
115,209,219041,1,0,0:0:0:0:
139,182,219109,1,0,0:0:0:0:
171,165,219177,1,0,0:0:0:0:
207,159,219246,1,0,0:0:0:0:
243,166,219315,2,4,L|310:167,1,60.9375
440,245,219451,2,4,L|379:245,1,60.9375
240,309,219587,6,4,L|304:308,1,48.75
460,160,219792,2,4,P|428:152|392:132,1,48.75
192,24,219996,2,4,B|180:36|180:36|180:56|164:72,1,48.75
140,352,220133,2,4,B|140:344|140:344|112:304,1,48.75
16,192,220337,2,4,P|36:176|64:164,1,48.75
352,184,220542,2,4,P|332:168|304:156,1,48.75
188,76,220678,6,4,L|260:88,1,60.9375
408,96,220883,2,4,B|416:88|416:88|408:48|428:32,1,60.9375
352,340,221087,2,4,P|328:312|308:296,1,60.9375
112,124,221224,2,4,P|100:156|116:204,1,60.9375
140,348,221428,2,4,L|176:300,1,60.9375
392,60,221633,2,4,L|403:140,1,60.9375
417,284,221769,5,4,1:0:0:0:
360,294,221837,1,4,1:0:0:0:
304,275,221905,1,4,1:0:0:0:
257,242,221973,1,4,1:0:0:0:
200,229,222041,1,4,1:0:0:0:
65,179,222178,1,4,1:0:0:0:
93,121,222246,1,4,1:0:0:0:
123,65,222314,1,4,1:0:0:0:
224,48,222450,1,4,1:0:0:0:
246,89,222519,1,4,1:0:0:0:
269,127,222587,1,4,1:0:0:0:
392,172,222724,1,4,0:0:0:0:
404,132,222792,1,4,0:0:0:0:
408,96,222860,6,0,P|312:116|308:168,1,146.25
352,216,223405,2,0,B|264:244|264:244|232:144|128:172|116:232,1,292.5
40,132,224497,1,0,0:0:0:0:
152,72,224769,1,0,0:0:0:0:
236,152,224905,5,0,0:0:0:0:
236,152,224974,1,0,0:0:0:0:
236,152,225042,2,0,L|220:204,1,48.75
288,276,225315,2,0,L|304:224,1,48.75
336,128,225587,1,0,0:0:0:0:
404,232,225724,1,0,0:0:0:0:
404,232,225860,1,0,0:0:0:0:
432,96,225996,1,0,0:0:0:0:
432,96,226065,1,0,0:0:0:0:
432,96,226133,1,0,0:0:0:0:
324,48,226269,5,0,0:0:0:0:
206,52,226405,1,0,0:0:0:0:
116,117,226542,1,0,0:0:0:0:
77,204,226678,2,0,L|63:263,1,48.75
184,320,226951,2,0,L|212:264,1,48.75
205,276,227155,1,0,0:0:0:0:
205,276,227224,5,0,0:0:0:0:
300,300,227360,1,0,0:0:0:0:
396,308,227496,1,0,0:0:0:0:
484,264,227633,1,0,0:0:0:0:
400,216,227769,1,0,0:0:0:0:
304,212,227905,1,0,0:0:0:0:
212,180,228042,1,0,0:0:0:0:
116,204,228178,1,0,0:0:0:0:
116,204,228246,1,0,0:0:0:0:
116,204,228315,5,0,0:0:0:0:
48,136,228451,1,0,0:0:0:0:
136,96,228587,1,0,0:0:0:0:
232,100,228724,1,0,0:0:0:0:
320,56,228860,1,0,0:0:0:0:
412,84,228996,1,0,0:0:0:0:
472,160,229133,1,0,0:0:0:0:
376,180,229269,5,0,0:0:0:0:
352,171,229337,1,0,0:0:0:0:
329,163,229405,1,0,0:0:0:0:
306,155,229473,1,0,0:0:0:0:
285,159,229541,1,0,0:0:0:0:
269,177,229609,1,0,0:0:0:0:
259,199,229678,1,0,0:0:0:0:
252,222,229746,1,0,0:0:0:0:
240,243,229814,1,0,0:0:0:0:
222,260,229882,1,0,0:0:0:0:
201,272,229950,1,0,0:0:0:0:
177,279,230019,1,0,0:0:0:0:
153,282,230087,1,0,0:0:0:0:
129,280,230155,1,0,0:0:0:0:
105,275,230223,1,0,0:0:0:0:
84,264,230291,1,0,0:0:0:0:
67,246,230359,1,0,0:0:0:0:
61,223,230428,1,0,0:0:0:0:
65,199,230496,1,0,0:0:0:0:
256,192,230633,12,0,232951,0:0:0:0:
