osu file format v14

[General]
AudioFilename: Time Machine.mp3
AudioLeadIn: 0
PreviewTime: 85134
Countdown: 1
SampleSet: Soft
StackLeniency: 0.7
Mode: 0
LetterboxInBreaks: 1
WidescreenStoryboard: 1

[Editor]
DistanceSpacing: 1.2
BeatDivisor: 4
GridSize: 4
TimelineZoom: 1

[Metadata]
Title:Time Machine
TitleUnicode:Time Machine
Artist:Morimori Atsushi
ArtistUnicode:モリモリあつし
Creator:LexiaLovesU
Version:Hard
Source:
Tags:
BeatmapID:765843
BeatmapSetID:346718

[Difficulty]
HPDrainRate:5
CircleSize:3.5
OverallDifficulty:5
ApproachRate:6
SliderMultiplier:1.25
SliderTickRate:1

[Events]
//Background and Video events
0,0,"id ont.jpg",0,0
//Break Periods
2,82134,84043
2,137697,145134
2,168515,175992
2,184878,186901
//Storyboard Layer 0 (Background)
//Storyboard Layer 1 (Fail)
//Storyboard Layer 2 (Pass)
//Storyboard Layer 3 (Foreground)
//Storyboard Sound Samples

[TimingPoints]
6605,272.727272727273,4,2,1,80,1,0
6605,-100,4,2,1,80,0,0
15332,-100,4,2,1,80,0,0
24060,-100,4,1,1,80,0,0
32786,-100,4,1,1,50,0,0
45605,-100,4,1,1,50,0,0
45877,-100,4,1,1,50,0,0
50242,324.324324324324,3,2,1,80,1,0
64680,136.363636363636,3,1,1,80,1,0
64680,-200,3,1,1,80,0,0
65498,272.727272727273,4,1,1,80,1,0
85134,-100,4,1,1,80,0,1
91679,-133.333333333333,4,1,1,80,0,1
92498,-100,4,1,1,80,0,1
92770,-100,4,1,1,80,0,1
93861,-100,4,1,1,80,0,1
102588,-100,4,2,1,80,0,0
128770,-100,4,1,1,80,0,0
160134,136.363636363636,4,1,1,80,1,0
160134,-200,4,1,1,80,0,0
160679,272.727272727273,3,1,1,80,1,0
168315,272.727272727273,4,1,1,80,1,0
187951,-100,4,1,1,80,0,1
194496,-133.333333333333,4,1,1,80,0,1
195587,-100,4,1,1,80,0,1
222860,-100,4,2,1,80,0,0

[Colours]
Combo1 : 236,88,248
Combo2 : 0,255,255
Combo3 : 0,128,128
Combo4 : 145,29,214

[HitObjects]
60,72,6605,6,0,P|112:56|188:96,1,125
224,140,7014,2,0,P|268:192|332:204,1,125
396,196,7423,2,0,L|392:124,1,62.5
468,228,7695,2,0,P|472:328|460:352,1,125
388,340,8105,2,0,P|328:332|256:352,1,125
192,364,8514,2,0,L|192:292,1,62.5
236,240,8786,6,0,B|188:276|188:276|124:272,1,125
64,320,9195,2,0,P|92:228|68:180,1,125
44,140,9605,2,0,P|40:96|48:68,1,62.5
8,12,9877,6,0,P|80:36|140:16,1,125
200,20,10286,1,0,0:0:0:0:
348,44,10559,2,0,L|420:16,2,62.5
292,92,10968,2,0,P|288:132|340:220,1,125
392,232,11377,2,0,P|332:236|280:280,1,125
228,328,11786,2,0,P|180:336|152:328,1,62.5
100,368,12059,6,0,P|136:304|120:232,1,125
84,196,12468,2,0,P|64:144|96:60,1,125
132,24,12877,2,0,L|132:-8,2,31.25
188,72,13150,2,0,P|256:84|316:64,1,125
364,20,13559,2,0,P|344:56|372:140,1,125
404,196,13968,2,0,L|404:272,1,62.5
348,308,14241,6,0,P|436:280|516:332,2,187.5
280,340,15195,1,0,0:0:0:0:
208,316,15332,6,0,P|188:268|192:240,2,62.5
243,212,15741,2,0,P|186:233|126:221,1,125
28,108,16286,1,0,0:0:0:0:
28,108,16423,2,0,P|85:86|145:98,1,125
296,120,16968,2,0,L|280:40,2,62.5
392,236,17514,6,0,L|412:308,2,62.5
436,176,17923,2,0,P|360:212|316:196,1,125
176,176,18468,1,0,0:0:0:0:
176,176,18605,2,0,B|192:116|192:116|176:48,1,125
112,232,19150,2,0,P|93:206|89:176,2,62.5
248,292,19695,6,0,L|316:300,2,62.5
360,360,20105,2,0,P|340:288|372:236,1,125
456,128,20650,1,0,0:0:0:0:
456,128,20786,2,0,P|376:144|332:120,1,125
196,76,21332,2,0,L|196:8,2,62.5
116,204,21877,6,0,L|60:164,2,62.5
120,280,22286,2,0,P|169:326|224:364,1,125
292,344,22695,2,0,L|328:284,1,62.5
396,268,22968,2,0,P|336:264|300:212,1,125
252,72,23514,2,0,P|212:100|196:124,1,62.5
128,104,23786,2,0,P|140:152|160:172,1,62.5
60,184,24059,6,0,P|92:224|180:248,1,125
232,224,24468,2,0,P|296:200|364:220,1,125
412,256,24877,1,0,0:0:0:0:
412,256,25286,2,0,P|392:180|416:128,1,125
440,72,25695,1,0,0:0:0:0:
376,32,25832,2,0,L|384:-12,2,31.25
308,64,26105,1,0,0:0:0:0:
260,124,26241,6,0,P|200:160|132:156,1,125
104,100,26650,2,0,L|104:228,1,125
64,288,27059,1,0,0:0:0:0:
64,288,27468,2,0,P|112:264|204:288,1,125
244,312,27877,1,0,0:0:0:0:
320,308,28014,2,0,L|320:352,2,31.25
380,260,28286,1,0,0:0:0:0:
384,184,28423,6,0,P|372:136|400:60,1,125
448,12,28832,2,0,P|380:36|312:16,1,125
256,20,29241,1,0,0:0:0:0:
32,48,29650,2,0,P|24:124|56:168,1,125
100,220,30059,1,0,0:0:0:0:
96,296,30195,2,0,L|56:296,2,31.25
160,340,30468,1,0,0:0:0:0:
232,324,30605,6,0,P|300:304|360:324,1,125
396,380,31014,2,0,L|396:248,1,125
412,180,31423,2,0,L|448:196,2,31.25
356,132,31695,2,0,P|304:92|280:32,1,125
204,28,32105,2,0,P|184:60|144:92,2,62.5
88,84,32514,2,0,P|96:128|108:156,1,62.5
168,192,32786,6,0,P|144:236|80:292,1,125
236,316,33332,1,0,0:0:0:0:
300,276,33468,2,0,P|356:268|380:272,1,62.5
508,292,33877,2,0,P|476:232|464:152,1,125
364,64,34423,2,0,L|412:16,2,62.5
216,100,34968,6,0,P|164:104|88:72,1,125
28,44,35377,1,0,0:0:0:0:
20,120,35514,2,0,P|12:176|24:248,1,125
64,308,35923,1,0,0:0:0:0:
140,304,36059,2,0,P|196:292|264:312,1,125
404,352,36605,2,0,P|416:288|388:224,1,125
360,164,37014,1,0,0:0:0:0:
392,96,37150,6,0,P|344:132|256:124,1,125
212,104,37559,2,0,P|148:80|84:88,1,125
24,116,37968,2,0,L|20:196,1,62.5
16,252,38241,2,0,P|56:280|152:284,1,125
256,204,38786,1,0,0:0:0:0:
392,268,39059,1,0,0:0:0:0:
460,136,39332,6,0,L|500:80,2,62.5
392,168,39741,2,0,P|356:168|276:96,1,125
220,80,40150,2,0,L|224:44,2,31.25
156,120,40423,2,0,P|100:160|80:164,1,62.5
52,208,40695,2,0,P|120:200|188:240,1,125
232,264,41105,1,0,0:0:0:0:
308,260,41241,2,0,L|296:312,2,31.25
340,192,41514,6,0,P|348:112|400:72,1,125
448,64,41923,2,0,L|452:-8,2,62.5
472,136,42332,1,0,0:0:0:0:
444,284,42605,2,0,P|396:324|316:324,1,125
196,272,43150,2,0,L|180:344,2,62.5
276,144,43695,6,0,P|216:148|156:116,1,125
92,84,44105,1,0,0:0:0:0:
36,132,44241,2,0,P|20:172|20:192,1,62.5
76,244,44514,2,0,P|76:280|68:312,1,62.5
16,356,44786,2,0,P|84:328|156:352,1,125
276,380,45332,1,0,0:0:0:0:
408,312,45605,1,0,0:0:0:0:
336,180,45877,6,0,P|324:120|348:52,1,125
404,16,46286,2,0,P|332:28|268:0,1,125
208,12,46695,1,0,0:0:0:0:
92,104,46968,2,0,L|44:48,2,62.5
132,168,47377,2,0,P|184:152|260:176,1,125
308,220,47786,2,0,P|368:208|380:200,1,62.5
400,140,48059,6,0,P|404:220|448:268,1,125
464,320,48468,2,0,L|496:296,2,31.25
392,336,48741,2,0,L|408:372,2,31.25
328,296,49014,1,0,0:0:0:0:
280,240,49150,2,0,B|232:208|220:136|220:136|156:176|76:136,1,250
76,116,49764,1,0,0:0:0:0:
72,80,49832,1,0,0:0:0:0:
136,40,49968,2,0,P|176:48|220:36,1,62.5
272,32,50242,6,0,P|348:40|400:72,1,125
448,176,50890,1,0,0:0:0:0:
420,296,51214,2,0,B|396:296|372:280|372:280|340:280|288:296,1,125
180,328,51863,1,0,0:0:0:0:
64,284,52187,6,0,P|40:240|60:164,1,125
164,108,52836,1,0,0:0:0:0:
284,72,53160,2,0,B|324:80|344:92|344:92|372:88|412:64,1,125
488,160,53809,1,0,0:0:0:0:
424,268,54133,6,0,P|376:260|288:276,1,125
188,328,54782,1,0,0:0:0:0:
144,212,55106,2,0,P|160:148|152:88,2,125
92,40,56079,6,0,P|156:56|228:32,1,125
336,32,56728,1,0,0:0:0:0:
436,108,57052,2,0,B|460:164|460:164|436:236,1,125
332,292,57701,1,0,0:0:0:0:
208,268,58025,6,0,P|152:244|76:272,1,125
28,312,58512,1,0,0:0:0:0:
16,232,58674,2,0,L|16:172,3,31.25
20,160,58998,2,0,P|88:152|144:92,1,125
196,72,59485,2,0,L|196:12,2,31.25
268,112,59809,1,0,0:0:0:0:
324,56,59971,6,0,P|308:104|340:184,1,125
388,228,60458,1,0,0:0:0:0:
396,308,60620,2,0,L|356:336,1,31.25
332,316,60782,2,0,L|284:316,1,31.25
276,348,60944,2,0,P|228:308|152:280,1,125
92,268,61431,2,0,L|88:328,2,31.25
112,188,61755,1,0,0:0:0:0:
68,120,61917,6,0,P|132:52|280:84,1,250
320,200,62890,2,0,P|392:152|376:-4,1,250
232,232,63863,2,0,P|324:208|432:316,1,250
364,344,64680,6,0,P|456:300|512:320,2,156.25
304,364,65498,6,0,P|240:368|180:328,1,125
156,272,65907,2,0,P|136:216|56:180,1,125
8,188,66316,1,0,0:0:0:0:
200,72,66725,2,0,P|256:92|324:76,1,125
360,16,67134,2,0,P|352:76|396:140,1,125
476,248,67679,6,0,P|384:248|348:268,1,125
292,300,68088,2,0,P|248:304|168:252,1,125
136,204,68498,1,0,0:0:0:0:
304,52,68907,2,0,L|432:52,1,125
400,132,69316,2,0,L|260:132,1,125
140,64,69861,6,0,P|152:120|120:200,1,125
64,216,70270,2,0,P|56:264|88:332,1,125
160,352,70679,1,0,0:0:0:0:
384,336,71088,2,0,B|408:280|408:280|388:200,1,125
340,164,71498,2,0,P|400:180|472:152,1,125
356,56,72043,6,0,P|296:40|224:68,1,125
116,148,72588,1,0,0:0:0:0:
132,296,72861,1,0,0:0:0:0:
276,256,73134,2,0,B|312:236|320:200|320:200|368:304|472:328,1,250
504,184,73952,1,0,0:0:0:0:
424,60,74225,6,0,P|336:72|276:68,1,125
152,64,74770,2,0,L|128:4,2,62.5
256,172,75316,2,0,P|224:204|136:200,1,125
40,104,75861,2,0,L|-4:48,2,62.5
76,248,76407,6,0,P|148:320|192:328,1,125
312,292,76952,1,0,0:0:0:0:
456,332,77225,1,0,0:0:0:0:
452,180,77498,2,0,P|432:136|452:64,2,125
488,324,78316,2,0,L|508:300,2,31.25
416,344,78588,6,0,P|344:352|288:328,1,125
232,196,79134,2,0,P|180:180|116:204,1,125
20,320,79679,2,0,L|-16:244,1,62.5
36,200,79952,2,0,L|52:116,1,62.5
24,68,80225,2,0,P|100:100|128:96,2,93.75
172,60,80770,6,0,L|160:16,2,31.25
232,108,81043,2,0,L|248:76,2,31.25
200,176,81316,2,0,L|156:144,2,31.25
252,228,81588,2,0,L|280:188,2,31.25
200,284,81861,1,0,0:0:0:0:
156,304,85134,6,0,P|204:288|288:284,1,125
428,296,85679,2,0,L|460:360,2,62.5
380,152,86225,2,0,B|368:96|368:96|300:72,1,125
232,56,86634,2,0,P|180:68|152:64,1,62.5
100,40,86907,2,0,P|48:48|20:72,1,62.5
48,204,87316,6,0,P|80:280|140:308,2,125
184,264,88134,2,0,P|224:256|252:256,1,62.5
292,316,88407,2,0,P|352:324|424:324,1,125
480,364,88816,2,0,P|452:316|472:240,1,125
484,176,89225,2,0,P|484:136|468:108,1,62.5
420,64,89498,6,0,P|344:100|280:96,1,125
156,80,90043,1,0,0:0:0:0:
48,184,90316,2,0,P|56:244|40:268,1,62.5
16,308,90588,2,0,P|72:272|148:296,1,125
272,316,91134,2,0,L|264:384,2,62.5
308,248,91543,1,0,0:0:0:0:
380,228,91679,6,0,P|296:228|304:60,1,281.250010728836
420,160,92770,6,0,P|456:216|440:276,1,125
316,348,93316,2,0,P|272:344|236:332,1,62.5
192,296,93588,1,0,0:0:0:0:
116,300,93725,1,0,0:0:0:0:
56,344,93861,6,0,P|84:276|56:216,1,125
40,160,94270,1,0,0:0:0:0:
52,84,94407,2,0,P|120:96|180:80,1,125
320,48,94952,2,0,B|380:36|380:36|404:104,1,125
336,232,95498,2,0,P|340:272|368:308,2,62.5
380,172,95907,1,0,0:0:0:0:
380,172,96043,6,0,P|336:192|244:164,1,125
200,136,96452,1,0,0:0:0:0:
164,72,96588,2,0,L|160:208,1,125
100,336,97134,2,0,P|164:356|228:324,1,125
272,284,97543,1,0,0:0:0:0:
340,312,97679,2,0,P|308:256|344:184,1,125
368,140,98088,1,0,0:0:0:0:
408,76,98225,6,0,P|340:96|208:76,1,187.5
164,40,98770,2,0,P|108:32|80:40,1,62.5
36,64,99043,2,0,P|40:96|36:132,1,62.5
32,200,99316,2,0,P|24:256|60:320,1,125
128,304,99725,2,0,P|156:300|204:304,1,62.5
332,348,100134,1,0,0:0:0:0:
444,248,100407,6,0,P|424:196|436:120,1,125
480,68,100816,2,0,P|400:100|340:76,1,125
304,48,101225,1,0,0:0:0:0:
164,96,101498,2,0,L|136:36,2,62.5
200,160,101907,1,0,0:0:0:0:
192,236,102043,2,0,L|140:248,7,31.25
128,256,102588,6,0,P|200:264|264:304,1,125
312,320,102998,2,0,P|396:328|440:308,1,125
472,252,103407,1,0,0:0:0:0:
472,104,103679,2,0,B|416:68|416:68|332:88,1,125
288,104,104088,2,0,P|224:112|152:80,1,125
108,44,104498,1,0,0:0:0:0:
36,176,104770,6,0,P|44:256|92:288,1,125
152,280,105179,2,0,P|220:264|280:300,1,125
336,320,105588,1,0,0:0:0:0:
464,240,105861,2,0,P|484:304|472:372,1,125
388,224,106270,2,0,P|376:168|392:96,1,125
448,56,106679,1,0,0:0:0:0:
300,76,106952,6,0,L|160:76,1,125
124,20,107361,2,0,P|140:84|112:160,1,125
68,192,107770,2,0,P|68:244|88:268,1,62.5
104,320,108043,2,0,P|60:328|20:308,2,62.5
160,268,108452,2,0,B|220:248|220:248|288:268,1,125
348,300,108861,1,0,0:0:0:0:
420,284,108998,1,0,0:0:0:0:
480,328,109134,6,0,P|456:284|472:196,1,125
500,148,109543,2,0,P|460:172|360:168,1,125
316,144,109952,1,0,0:0:0:0:
180,212,110225,2,0,P|144:160|156:84,1,125
200,44,110634,2,0,P|144:72|80:60,1,125
8,72,111043,2,0,P|0:128|8:148,1,62.5
52,188,111316,6,0,P|68:244|44:328,1,125
12,372,111725,2,0,P|80:340|144:352,1,125
204,348,112134,1,0,0:0:0:0:
352,368,112407,2,0,P|316:316|324:232,1,125
343,188,112816,2,0,P|347:126|323:68,1,125
256,32,113225,1,0,0:0:0:0:
108,64,113498,6,0,P|84:121|87:183,1,125
28,228,113907,2,0,L|168:224,1,125
224,248,114316,1,0,0:0:0:0:
356,320,114588,2,0,P|372:272|344:188,1,125
299,147,114998,2,0,P|355:172|414:153,1,125
460,92,115407,1,0,0:0:0:0:
316,52,115679,6,0,P|257:33|201:57,1,125
168,124,116088,2,0,P|128:180|116:184,1,62.5
60,180,116361,2,0,P|32:224|32:248,1,62.5
120,356,116770,2,0,P|196:324|240:336,1,125
308,352,117179,2,0,B|368:372|368:372|432:344,1,125
472,288,117588,1,0,0:0:0:0:
444,216,117725,1,0,0:0:0:0:
464,144,117861,6,0,P|468:80|416:36,1,125
396,108,118270,2,0,P|344:128|256:116,1,125
216,76,118679,2,0,P|176:72|156:80,1,62.5
100,132,118952,2,0,P|120:180|92:248,1,125
44,300,119361,2,0,P|104:280|180:304,1,125
232,324,119770,1,0,0:0:0:0:
308,332,119907,1,0,0:0:0:0:
380,320,120043,6,0,B|400:260|400:260|384:200,1,125
304,72,120588,2,0,P|236:92|168:76,1,125
112,56,120998,1,0,0:0:0:0:
52,100,121134,2,0,P|68:168|40:224,1,125
152,324,121679,2,0,P|184:308|224:304,1,62.5
280,332,121952,2,0,P|332:336|352:332,1,62.5
412,308,122225,6,0,P|448:248|432:180,1,125
396,136,122634,1,0,0:0:0:0:
248,128,122907,2,0,B|188:152|188:152|116:116,1,125
88,68,123316,2,0,P|108:132|68:192,1,125
28,231,123725,2,0,P|16:264|21:292,1,62.5
92,272,123998,2,0,P|128:292|224:268,1,125
276,248,124407,6,0,P|372:220|408:232,1,125
460,260,124816,1,0,0:0:0:0:
456,112,125088,2,0,L|504:72,2,62.5
384,132,125498,2,0,P|292:152|256:144,1,125
196,116,125907,2,0,P|144:104|124:108,1,62.5
72,148,126179,2,0,P|60:104|64:80,2,62.5
116,208,126588,6,0,P|128:256|84:332,1,125
40,372,126998,2,0,P|112:356|176:380,1,125
232,348,127407,2,0,P|272:336|296:316,1,62.5
320,256,127679,2,0,P|336:196|400:156,1,125
472,36,128225,2,0,P|400:64|344:60,1,125
316,52,128566,1,0,0:0:0:0:
280,44,128634,1,0,0:0:0:0:
244,32,128702,1,0,0:0:0:0:
208,24,128770,6,0,P|168:16|56:120,1,187.5
56,248,129452,2,0,L|-16:264,2,62.5
204,220,129998,2,0,P|252:204|316:236,1,125
344,308,130407,2,0,P|344:248|392:200,1,125
464,76,130952,6,0,P|348:128|272:104,1,187.5
152,72,131634,2,0,L|168:0,2,62.5
48,180,132179,2,0,P|88:216|168:228,1,125
232,228,132588,2,0,P|292:220|356:256,1,125
452,356,133134,6,0,B|416:324|428:280|428:280|468:248|452:176,1,187.5
388,52,133816,2,0,L|452:28,2,62.5
244,88,134361,2,0,P|176:96|120:68,1,125
76,16,134770,2,0,P|92:80|60:156,1,125
40,200,135179,1,0,0:0:0:0:
36,276,135316,6,0,P|100:304|228:276,1,187.5
360,248,135998,2,0,L|360:312,2,62.5
352,172,136407,2,0,P|352:120|396:56,1,125
244,100,136952,2,0,P|280:32|320:0,2,125
80,296,146225,6,0,P|160:312|212:300,1,125
264,264,146634,1,0,0:0:0:0:
332,292,146770,2,0,P|312:248|340:152,1,125
392,40,147316,2,0,P|328:72|256:64,1,125
204,96,147725,2,0,P|200:64|216:24,2,62.5
220,168,148134,1,0,0:0:0:0:
252,316,148407,6,0,P|184:316|156:300,2,93.75
316,276,148952,2,0,P|372:268|416:280,2,93.75
252,316,149498,2,0,L|232:364,2,31.25
216,248,149770,2,0,L|184:256,2,31.25
236,176,150043,2,0,L|208:156,2,31.25
308,160,150316,2,0,L|304:120,2,31.25
372,200,150588,6,0,P|436:224|496:184,1,125
428,148,150998,2,0,P|428:108|440:76,1,62.5
488,36,151270,2,0,B|432:64|432:64|356:40,1,125
296,56,151679,2,0,L|232:44,1,62.5
172,88,151952,2,0,L|104:112,1,62.5
60,52,152225,2,0,P|76:96|48:180,1,125
40,244,152634,1,0,0:0:0:0:
76,308,152770,6,0,L|52:328,2,31.25
148,288,153043,2,0,L|148:332,2,31.25
188,224,153316,2,0,L|220:256,2,31.25
176,148,153588,2,0,L|220:148,2,31.25
108,112,153861,2,0,P|184:140|360:88,1,250
404,56,154543,1,0,0:0:0:0:
468,96,154679,2,0,P|464:152|472:172,1,62.5
480,232,154952,6,0,P|484:284|428:344,1,125
320,248,155498,2,0,P|276:228|196:256,1,125
72,320,156043,2,0,L|72:180,1,125
20,52,156588,1,0,0:0:0:0:
168,76,156861,1,0,0:0:0:0:
312,36,157134,6,0,P|364:24|436:52,1,125
360,179,157679,2,0,P|337:237|356:295,1,125
216,348,158225,1,0,0:0:0:0:
68,320,158498,2,0,P|86:261|64:204,1,125
4,160,158907,2,0,P|76:172|128:148,1,125
268,72,159452,1,0,0:0:0:0:
268,72,159588,2,0,P|328:56|392:72,1,125
440,128,159998,1,0,0:0:0:0:
456,200,160134,6,0,P|432:268|316:288,1,187.5
260,260,160679,6,0,P|200:240|120:276,1,125
28,352,161224,1,0,0:0:0:0:
72,208,161497,2,0,B|96:152|96:152|64:84,2,125
16,40,162315,6,0,P|68:60|140:52,1,125
284,24,162860,1,0,0:0:0:0:
412,104,163133,2,0,P|400:172|428:224,1,125
324,332,163679,1,0,0:0:0:0:
180,292,163951,6,0,L|168:264,3,31.25
196,236,164224,2,0,L|208:192,3,31.25
172,184,164497,2,0,L|160:140,3,31.25
192,128,164769,2,0,L|200:88,3,31.25
168,76,165042,2,0,L|156:40,3,31.25
192,32,165315,2,0,L|200:-8,4,31.25
256,192,165656,12,0,168315,0:0:0:0:
372,56,177042,6,0,P|360:112|396:172,1,125
468,172,177451,2,0,L|356:248,1,125
296,272,177860,1,0,0:0:0:0:
156,328,178133,2,0,P|168:268|128:216,1,125
72,260,178542,2,0,P|60:200|100:152,1,125
164,116,178951,1,0,0:0:0:0:
304,60,179224,6,0,B|356:88|356:88|412:48,1,125
476,96,179633,2,0,L|364:176,1,125
328,228,180042,1,0,0:0:0:0:
246,340,180315,2,0,B|192:316|192:316|180:252,1,125
236,200,180724,2,0,P|180:216|96:192,1,125
60,152,181133,2,0,P|48:168|40:188,2,31.25
116,100,181405,6,0,P|172:84|256:108,1,125
296,144,181815,2,0,L|428:144,1,125
496,140,182224,2,0,P|488:176|464:204,1,62.5
408,236,182496,2,0,P|368:276|360:288,1,62.5
316,336,182769,2,0,P|348:352|380:352,2,62.5
252,296,183178,2,0,P|240:328|248:368,2,62.5
252,220,183587,6,0,L|288:204,2,31.25
184,188,183860,2,0,L|200:160,2,31.25
116,216,184133,2,0,L|104:176,2,31.25
92,288,184405,2,0,L|60:268,2,31.25
140,344,184678,1,0,0:0:0:0:
424,252,187951,6,0,L|448:280,2,31.25
416,176,188224,2,0,L|456:180,2,31.25
356,128,188496,2,0,L|384:100,2,31.25
280,136,188769,2,0,L|280:88,2,31.25
232,196,189042,6,0,L|200:160,2,31.25
260,220,189246,2,0,L|272:180,2,31.25
276,256,189451,2,0,L|300:232,2,31.25
264,292,189655,2,0,L|308:292,2,31.25
240,320,189860,2,0,L|264:340,2,31.25
204,328,190065,1,0,0:0:0:0:
168,332,190133,6,0,P|104:344|44:312,1,125
44,244,190542,1,0,0:0:0:0:
84,180,190678,2,0,P|96:120|68:56,1,125
16,12,191087,1,0,0:0:0:0:
16,12,191224,2,0,P|108:28|156:0,1,125
208,32,191633,2,0,P|256:28|280:32,1,62.5
400,108,192042,2,0,L|424:76,2,31.25
348,164,192315,6,0,P|332:224|368:288,1,125
408,336,192724,1,0,0:0:0:0:
336,352,192860,2,0,P|268:360|192:344,1,125
72,300,193405,2,0,B|48:244|48:244|72:184,1,125
128,132,193815,2,0,L|204:160,1,62.5
236,96,194087,2,0,L|304:76,1,62.5
364,112,194360,1,0,0:0:0:0:
428,72,194496,6,0,P|392:104|448:300,1,281.250010728836
300,340,195587,6,0,P|244:344|216:328,1,62.5
192,284,195860,2,0,P|144:276|124:280,1,62.5
72,324,196133,2,0,P|100:276|72:192,1,125
76,176,196474,2,0,L|128:196,2,31.25
60,144,196678,6,0,P|48:76|84:20,1,125
204,100,197224,2,0,P|264:116|332:96,1,125
468,68,197769,2,0,L|492:8,2,62.5
372,184,198315,2,0,B|336:232|336:232|344:296,1,125
204,348,198860,6,0,P|168:296|104:268,1,125
40,136,199405,1,0,0:0:0:0:
80,72,199542,1,0,0:0:0:0:
156,68,199678,1,0,0:0:0:0:
264,172,199951,2,0,B|320:184|320:184|386:170,1,125
480,52,200496,2,0,B|424:40|424:40|357:53,1,125
284,60,200905,1,0,0:0:0:0:
212,76,201042,6,0,P|148:80|84:48,1,125
36,8,201451,2,0,P|56:68|20:140,1,125
16,196,201860,2,0,P|8:256|12:280,1,62.5
36,328,202133,2,0,B|96:300|96:300|151:319,1,125
276,236,202678,2,0,B|220:255|220:255|152:228,1,125
288,152,203224,6,0,P|336:176|360:248,1,125
368,316,203633,2,0,L|448:200,1,125
464,140,204042,2,0,P|464:96|448:72,1,62.5
396,36,204315,2,0,P|364:60|264:32,1,125
212,32,204724,1,0,0:0:0:0:
140,56,204860,2,0,L|112:16,2,31.25
172,124,205133,2,0,L|212:100,2,31.25
116,172,205405,6,0,P|100:216|136:292,1,125
276,324,205951,2,0,P|328:312|364:324,1,62.5
408,332,206224,2,0,P|460:336|488:324,1,62.5
440,264,206496,2,0,P|424:200|448:140,1,125
312,68,207042,2,0,L|328:0,2,62.5
200,168,207587,6,0,P|124:164|88:112,1,125
48,72,207996,2,0,P|56:40|48:4,2,62.5
16,140,208405,2,0,P|16:184|28:212,1,62.5
60,268,208678,2,0,L|40:304,2,31.25
136,272,208951,2,0,P|176:296|260:284,1,125
316,252,209360,1,0,0:0:0:0:
384,280,209496,2,0,L|384:320,2,31.25
376,204,209769,6,0,P|372:128|400:84,1,125
460,48,210178,2,0,P|412:56|336:24,1,125
268,16,210587,2,0,L|196:16,1,62.5
136,48,210860,2,0,P|128:32|128:0,2,31.25
184,108,211133,2,0,P|204:160|176:224,1,125
124,276,211542,2,0,P|76:288|56:304,2,62.5
196,296,211951,6,0,P|252:308|320:284,1,125
360,228,212360,2,0,P|388:268|392:292,2,62.5
296,188,212769,1,0,0:0:0:0:
292,112,212905,1,0,0:0:0:0:
344,56,213042,2,0,P|292:80|208:44,1,125
156,40,213451,1,0,0:0:0:0:
84,64,213587,2,0,P|56:104|52:136,1,62.5
100,176,213860,2,0,P|84:220|64:236,1,62.5
12,276,214133,6,0,P|88:252|228:344,1,250
296,364,214815,1,0,0:0:0:0:
364,332,214951,2,0,P|384:300|380:264,1,62.5
344,212,215224,2,0,P|444:252|472:240,2,125
304,148,215905,1,0,0:0:0:0:
236,112,216042,2,0,P|180:112|152:120,1,62.5
108,152,216315,6,0,P|144:104|132:32,1,125
32,172,216724,2,0,P|20:204|16:240,1,62.5
40,304,216996,2,0,P|68:312|108:312,1,62.5
172,288,217269,1,0,0:0:0:0:
236,252,217405,2,0,P|304:244|368:264,1,125
424,292,217815,2,0,P|432:244|420:220,1,62.5
448,160,218087,2,0,L|480:180,2,31.25
408,96,218360,1,0,0:0:0:0:
336,84,218496,6,0,P|276:80|212:44,1,125
148,28,218905,1,0,0:0:0:0:
75,7,219042,2,0,P|74:38|84:68,1,62.5
128,128,219315,2,0,L|156:100,2,31.25
72,176,219587,2,0,P|52:228|64:272,1,93.75
144,340,219996,2,0,L|216:348,1,62.5
308,288,220337,2,0,L|412:304|412:304,1,93.75
468,264,220678,6,0,P|480:316|464:352,2,93.75
416,208,221224,2,0,P|372:140|368:116,1,93.75
292,44,221633,1,0,0:0:0:0:
232,88,221769,2,0,L|208:40,3,31.25
196,32,222042,2,0,P|200:96|84:232,1,250
16,256,222724,1,0,0:0:0:0:
16,256,222792,1,0,0:0:0:0:
16,256,222860,1,0,0:0:0:0:
256,192,222928,12,0,225042,0:0:0:0:
