osu file format v14

[General]
AudioFilename: Morimori Atsushi - Paradigm Shift.mp3
AudioLeadIn: 0
PreviewTime: 72208
Countdown: 0
SampleSet: Normal
StackLeniency: 0.7
Mode: 1
LetterboxInBreaks: 0
WidescreenStoryboard: 0

[Editor]
DistanceSpacing: 1.3
BeatDivisor: 4
GridSize: 32
TimelineZoom: 2.6

[Metadata]
Title:Paradigm Shift
TitleUnicode:Paradigm Shift
Artist:Morimori Atsushi
ArtistUnicode:モリモリあつし
Creator:aabc271
Version:Inner Oni
Source:
Tags:Taiko K-Shoot MANIA kshootmania ksm starter pack Sound Voltex sdvx Tech Dance Charlotte
BeatmapID:1412804
BeatmapSetID:667736

[Difficulty]
HPDrainRate:5
CircleSize:5
OverallDifficulty:6
ApproachRate:7
SliderMultiplier:1.4
SliderTickRate:1

[Events]
//Background and Video events
0,0,"BG.png",0,75
//Break Periods
//Storyboard Layer 0 (Background)
//Storyboard Layer 1 (Fail)
//Storyboard Layer 2 (Pass)
//Storyboard Layer 3 (Foreground)
//Storyboard Sound Samples

[TimingPoints]
1140,413.793103448276,4,1,0,80,1,0
1140,-106.382978723404,4,1,0,80,0,0
9415,-103.092783505155,4,1,0,84,0,0
9622,-102.564102564103,4,1,0,84,0,0
9829,-102.040816326531,4,1,0,84,0,0
10036,-101.522842639594,4,1,0,84,0,0
10140,-101.26582278481,4,1,0,84,0,0
10243,-101.010101010101,4,1,0,84,0,0
10450,-100.502512562814,4,1,0,84,0,0
10553,-100.250626566416,4,1,0,84,0,0
10657,-100,4,1,0,84,0,0
10864,-99.5024875621891,4,1,0,84,0,0
11071,-96.1538461538461,4,1,0,88,0,0
11277,-95.6937799043062,4,1,0,88,0,0
11484,-95.2380952380953,4,1,0,88,0,0
11691,-94.7867298578199,4,1,0,88,0,0
11795,-94.5626477541371,4,1,0,88,0,0
11898,-94.3396226415094,4,1,0,88,0,0
12105,-93.8967136150235,4,1,0,88,0,0
12208,-93.6768149882904,4,1,0,88,0,0
12312,-93.4579439252337,4,1,0,88,0,0
12415,-93.2400932400933,4,1,0,88,0,0
12519,-93.0232558139536,4,1,0,88,0,0
12726,-90.0900900900901,4,1,0,92,0,0
12829,-89.8876404494382,4,1,0,92,0,0
12933,-89.6860986547085,4,1,0,92,0,0
13036,-89.4854586129754,4,1,0,92,0,0
13140,-89.2857142857143,4,1,0,92,0,0
13243,-89.086859688196,4,1,0,92,0,0
13346,-88.8888888888889,4,1,0,92,0,0
13450,-88.6917960088692,4,1,0,92,0,0
13553,-88.495575221239,4,1,0,92,0,0
13657,-88.3002207505519,4,1,0,92,0,0
13760,-88.1057268722467,4,1,0,92,0,0
13864,-87.912087912088,4,1,0,92,0,0
13967,-87.7192982456141,4,1,0,92,0,0
14071,-87.527352297593,4,1,0,92,0,0
14174,-87.3362445414848,4,1,0,92,0,0
14277,-87.1459694989107,4,1,0,92,0,0
14381,-86.9565217391305,4,1,0,92,0,0
14484,-86.767895878525,4,1,0,92,0,0
14588,-86.5800865800866,4,1,0,92,0,0
14691,-86.3930885529158,4,1,0,92,0,0
14795,-86.2068965517242,4,1,0,92,0,0
14864,-86.0832137733142,4,1,0,92,0,0
14933,-85.9598853868195,4,1,0,92,0,0
15002,-85.8369098712447,4,1,0,92,0,0
15208,-85.4700854700856,4,1,0,92,0,0
15519,-84.9256900212315,4,1,0,92,0,0
15829,-84.3881856540086,4,1,0,92,0,0
16036,-84.0336134453783,4,1,0,92,0,0
16450,-72.463768115942,4,1,0,92,0,0
16864,-100,4,1,0,88,0,0
35898,-97.0873786407767,4,1,0,89,0,0
36105,-96.6183574879227,4,1,0,89,0,0
36208,-96.3855421686747,4,1,0,89,0,0
36312,-96.1538461538462,4,1,0,89,0,0
36519,-95.6937799043063,4,1,0,89,0,0
36726,-95.2380952380953,4,1,0,89,0,0
36933,-94.7867298578199,4,1,0,89,0,0
37140,-94.3396226415095,4,1,0,89,0,0
37243,-94.1176470588236,4,1,0,89,0,0
37346,-93.8967136150235,4,1,0,89,0,0
37450,-93.6768149882905,4,1,0,89,0,0
37553,-93.4579439252337,4,1,0,89,0,0
37760,-90.4977375565611,4,1,0,90,0,0
37864,-90.0900900900901,4,1,0,90,0,0
37967,-90.0900900900901,4,1,0,90,0,0
38174,-89.6860986547085,4,1,0,90,0,0
38381,-89.2857142857143,4,1,0,90,0,0
38588,-88.8888888888889,4,1,0,90,0,0
38795,-88.495575221239,4,1,0,90,0,0
38898,-88.3002207505519,4,1,0,90,0,0
39002,-88.1057268722467,4,1,0,90,0,0
39208,-85.4700854700855,4,1,0,91,0,0
39312,-85.2878464818763,4,1,0,91,0,0
39415,-85.1063829787234,4,1,0,91,0,0
39519,-84.9256900212314,4,1,0,91,0,0
39622,-84.7457627118644,4,1,0,91,0,0
39726,-84.5665961945032,4,1,0,91,0,0
39829,-84.3881856540085,4,1,0,91,0,0
39933,-84.2105263157895,4,1,0,91,0,0
40036,-84.0336134453782,4,1,0,91,0,0
40140,-83.8574423480084,4,1,0,91,0,0
40243,-83.6820083682009,4,1,0,91,0,0
40312,-83.5654596100279,4,1,0,91,0,0
40381,-83.4492350486787,4,1,0,91,0,0
40450,-83.3333333333333,4,1,0,91,0,0
40553,-83.1600831600832,4,1,0,91,0,0
40657,-82.98755186722,4,1,0,91,0,0
40864,-80.6451612903226,4,1,0,92,0,0
41071,-80.3212851405623,4,1,0,92,0,0
41277,-80,4,1,0,92,0,0
41484,-79.6812749003984,4,1,0,92,0,0
41588,-79.5228628230617,4,1,0,92,0,0
41795,-79.2079207920792,4,1,0,92,0,0
41898,-79.0513833992095,4,1,0,92,0,0
42002,-78.8954635108482,4,1,0,92,0,0
42105,-78.740157480315,4,1,0,92,0,0
42312,-78.4313725490197,4,1,0,92,0,0
42519,-78.125,4,1,0,92,0,0
42933,-114.942528735632,4,1,0,80,0,0
49140,-111.111111111111,4,1,0,82,0,0
49450,-110.192837465565,4,1,0,82,0,0
49553,-109.89010989011,4,1,0,82,0,0
49760,-109.289617486339,4,1,0,82,0,0
49967,-108.695652173913,4,1,0,82,0,0
50277,-107.816711590297,4,1,0,82,0,0
50588,-106.951871657754,4,1,0,82,0,0
50795,-103.092783505155,4,1,0,84,0,0
51105,-102.30179028133,4,1,0,84,0,0
51208,-102.040816326531,4,1,0,84,0,0
51415,-101.522842639594,4,1,0,84,0,0
51622,-101.010101010101,4,1,0,84,0,0
51933,-100.250626566416,4,1,0,84,0,0
52243,-99.5024875621891,4,1,0,84,0,0
52450,-96.1538461538461,4,1,0,86,0,0
52657,-95.6937799043062,4,1,0,86,0,0
52864,-95.2380952380953,4,1,0,86,0,0
53071,-94.7867298578199,4,1,0,86,0,0
53277,-94.3396226415095,4,1,0,86,0,0
53484,-93.8967136150235,4,1,0,86,0,0
53553,-93.75,4,1,0,86,0,0
53622,-93.603744149766,4,1,0,86,0,0
53691,-93.4579439252337,4,1,0,86,0,0
53898,-93.0232558139536,4,1,0,86,0,0
54105,-90.0900900900901,4,1,0,88,0,0
54174,-89.9550224887556,4,1,0,88,0,0
54243,-89.8203592814371,4,1,0,88,0,0
54312,-89.6860986547085,4,1,0,88,0,0
54415,-89.4854586129754,4,1,0,88,0,0
54519,-89.2857142857143,4,1,0,88,0,0
54933,-88.495575221239,4,1,0,88,0,0
55346,-87.7192982456141,4,1,0,88,0,0
55760,-76.9230769230769,4,1,0,92,0,0
56588,-100,4,1,0,88,0,0
57415,-74.6268656716418,4,1,0,92,0,0
58243,-98.0392156862745,4,1,0,88,0,0
59071,-72.463768115942,4,1,0,92,0,0
59898,-96.1538461538461,4,1,0,88,0,0
60726,-70.4225352112676,4,1,0,92,0,0
61553,-94.3396226415094,4,1,0,88,0,0
62381,-91.743119266055,4,1,0,88,0,0
62588,-91.324200913242,4,1,0,88,0,0
62691,-91.1161731207289,4,1,0,88,0,0
62898,-90.702947845805,4,1,0,88,0,0
63002,-90.4977375565611,4,1,0,88,0,0
63208,-90.0900900900901,4,1,0,88,0,0
63312,-89.8876404494382,4,1,0,88,0,0
63519,-89.4854586129754,4,1,0,88,0,0
63622,-89.2857142857143,4,1,0,88,0,0
63829,-88.8888888888889,4,1,0,88,0,0
63933,-88.6917960088692,4,1,0,88,0,0
64036,-88.495575221239,4,1,0,89,0,0
64140,-88.3002207505519,4,1,0,89,0,0
64243,-88.1057268722467,4,1,0,89,0,0
64450,-87.7192982456141,4,1,0,89,0,0
64553,-87.527352297593,4,1,0,89,0,0
64760,-87.1459694989107,4,1,0,89,0,0
64864,-86.9565217391305,4,1,0,89,0,0
64967,-86.767895878525,4,1,0,89,0,0
65071,-86.5800865800866,4,1,0,89,0,0
65174,-86.3930885529158,4,1,0,89,0,0
65277,-86.2068965517242,4,1,0,89,0,0
65381,-86.0215053763442,4,1,0,89,0,0
65484,-85.8369098712447,4,1,0,89,0,0
65691,-85.4700854700855,4,1,0,90,0,0
65898,-85.1063829787234,4,1,0,90,0,0
66002,-84.9256900212314,4,1,0,90,0,0
66105,-84.7457627118644,4,1,0,90,0,0
66312,-84.3881856540085,4,1,0,90,0,0
66415,-84.2105263157895,4,1,0,90,0,0
66519,-84.0336134453782,4,1,0,90,0,0
66726,-83.6820083682009,4,1,0,90,0,0
66829,-83.5073068893529,4,1,0,90,0,0
66933,-83.3333333333333,4,1,0,90,0,0
67036,-83.1600831600832,4,1,0,90,0,0
67140,-82.98755186722,4,1,0,90,0,0
67346,-82.6446280991736,4,1,0,91,0,0
67553,-82.3045267489712,4,1,0,91,0,0
67760,-81.9672131147541,4,1,0,91,0,0
67967,-81.6326530612245,4,1,0,91,0,0
68174,-81.3008130081301,4,1,0,91,0,0
68277,-81.1359026369169,4,1,0,91,0,0
68381,-80.9716599190284,4,1,0,91,0,0
68484,-80.8080808080808,4,1,0,91,0,0
68588,-80.6451612903226,4,1,0,91,0,0
68657,-80.5369127516779,4,1,0,91,0,0
68726,-80.4289544235925,4,1,0,91,0,0
68795,-80.3212851405623,4,1,0,91,0,0
68864,-80.2139037433155,4,1,0,91,0,0
68933,-80.1068090787717,4,1,0,91,0,0
69002,-80,4,1,0,91,0,0
69415,-200,4,1,0,80,0,0
71898,-76.9230769230769,4,1,0,88,0,0
72312,-94.3396226415094,4,1,0,92,0,1
84726,-94.3396226415094,4,1,0,88,0,0
85553,-92.5925925925926,4,1,0,92,0,1
92174,-92.5925925925926,4,1,0,88,0,0
92588,-92.5925925925926,4,1,0,92,0,1
98795,-92.5925925925926,4,1,0,92,0,0
99208,-114.942528735632,4,1,0,80,0,0
102519,-114.942528735632,4,1,0,76,0,0
105829,-114.942528735632,4,1,0,72,0,0

[HitObjects]
256,192,2795,5,12,0:0:0:0:
256,192,3105,5,0,0:0:0:0:
256,192,3208,5,8,0:0:0:0:
256,192,3415,1,8,0:0:0:0:
256,192,3622,5,0,0:0:0:0:
256,192,3726,5,8,0:0:0:0:
256,192,4036,1,8,0:0:0:0:
256,192,4450,5,0,0:0:0:0:
256,192,4760,1,0,0:0:0:0:
256,192,4864,1,0,0:0:0:0:
256,192,5071,1,0,0:0:0:0:
256,192,5277,5,8,0:0:0:0:
256,192,5381,1,8,0:0:0:0:
256,192,5691,1,8,0:0:0:0:
256,192,6105,5,0,0:0:0:0:
256,192,6415,5,8,0:0:0:0:
256,192,6622,1,8,0:0:0:0:
256,192,6933,1,8,0:0:0:0:
256,192,7036,5,0,0:0:0:0:
256,192,7243,5,8,0:0:0:0:
256,192,7553,1,8,0:0:0:0:
256,192,7760,5,0,0:0:0:0:
256,192,8071,1,0,0:0:0:0:
256,192,8381,1,0,0:0:0:0:
256,192,8588,5,8,0:0:0:0:
256,192,8795,5,0,0:0:0:0:
256,192,8898,5,8,0:0:0:0:
256,192,9208,1,8,0:0:0:0:
256,192,9415,1,12,0:0:0:0:
256,192,9622,5,0,0:0:0:0:
256,192,9829,5,8,0:0:0:0:
256,192,10036,5,0,0:0:0:0:
256,192,10140,1,0,0:0:0:0:
256,192,10243,5,8,0:0:0:0:
256,192,10450,5,0,0:0:0:0:
256,192,10553,1,0,0:0:0:0:
256,192,10657,5,8,0:0:0:0:
256,192,10864,1,8,0:0:0:0:
256,192,11071,1,12,0:0:0:0:
256,192,11277,5,0,0:0:0:0:
256,192,11484,5,8,0:0:0:0:
256,192,11691,5,0,0:0:0:0:
256,192,11795,1,0,0:0:0:0:
256,192,11898,5,8,0:0:0:0:
256,192,12105,5,0,0:0:0:0:
256,192,12208,1,0,0:0:0:0:
256,192,12312,5,8,0:0:0:0:
256,192,12415,5,0,0:0:0:0:
256,192,12519,5,8,0:0:0:0:
256,192,12726,1,8,0:0:0:0:
256,192,12829,5,0,0:0:0:0:
256,192,12933,5,8,0:0:0:0:
256,192,13036,5,0,0:0:0:0:
256,192,13140,5,8,0:0:0:0:
256,192,13243,1,8,0:0:0:0:
256,192,13346,5,0,0:0:0:0:
256,192,13450,1,0,0:0:0:0:
256,192,13553,5,8,0:0:0:0:
256,192,13657,5,0,0:0:0:0:
256,192,13760,5,8,0:0:0:0:
256,192,13864,5,0,0:0:0:0:
256,192,13967,5,8,0:0:0:0:
256,192,14071,1,8,0:0:0:0:
256,192,14174,5,0,0:0:0:0:
256,192,14277,5,8,0:0:0:0:
256,192,14381,1,8,0:0:0:0:
256,192,14484,1,8,0:0:0:0:
256,192,14588,5,0,0:0:0:0:
256,192,14691,1,0,0:0:0:0:
256,192,14795,5,8,0:0:0:0:
256,192,14864,1,8,0:0:0:0:
256,192,14933,1,8,0:0:0:0:
256,192,15002,5,0,0:0:0:0:
256,192,15208,1,0,0:0:0:0:
256,192,15519,1,0,0:0:0:0:
256,192,15829,5,8,0:0:0:0:
256,192,16450,1,12,0:0:0:0:
256,192,16864,5,0,0:0:0:0:
256,192,17071,1,0,0:0:0:0:
256,192,17174,1,0,0:0:0:0:
256,192,17277,5,8,0:0:0:0:
256,192,17484,1,8,0:0:0:0:
256,192,17691,1,8,0:0:0:0:
256,192,17898,5,0,0:0:0:0:
256,192,18002,5,8,0:0:0:0:
256,192,18105,1,8,0:0:0:0:
256,192,18312,1,8,0:0:0:0:
256,192,18415,1,8,0:0:0:0:
256,192,18519,5,0,0:0:0:0:
256,192,18726,1,0,0:0:0:0:
256,192,18829,1,0,0:0:0:0:
256,192,18933,5,8,0:0:0:0:
256,192,19140,1,8,0:0:0:0:
256,192,19346,1,8,0:0:0:0:
256,192,19553,5,0,0:0:0:0:
256,192,19657,5,8,0:0:0:0:
256,192,19864,1,8,0:0:0:0:
256,192,19967,1,8,0:0:0:0:
256,192,20174,5,0,0:0:0:0:
256,192,20381,5,8,0:0:0:0:
256,192,20588,1,8,0:0:0:0:
256,192,20691,5,0,0:0:0:0:
256,192,20795,5,8,0:0:0:0:
256,192,21002,5,0,0:0:0:0:
256,192,21208,1,0,0:0:0:0:
256,192,21312,1,0,0:0:0:0:
256,192,21415,5,8,0:0:0:0:
256,192,21519,5,0,0:0:0:0:
256,192,21622,5,8,0:0:0:0:
256,192,21829,5,0,0:0:0:0:
256,192,22036,5,8,0:0:0:0:
256,192,22140,1,8,0:0:0:0:
256,192,22243,5,0,0:0:0:0:
256,192,22450,5,12,0:0:0:0:
256,192,22657,5,0,0:0:0:0:
256,192,23071,5,8,0:0:0:0:
256,192,23277,5,0,0:0:0:0:
256,192,23381,1,0,0:0:0:0:
256,192,23484,5,8,0:0:0:0:
256,192,23691,5,0,0:0:0:0:
256,192,23795,1,0,0:0:0:0:
256,192,23898,5,8,0:0:0:0:
256,192,24105,1,8,0:0:0:0:
256,192,24312,1,8,0:0:0:0:
256,192,24519,5,0,0:0:0:0:
256,192,24622,5,8,0:0:0:0:
256,192,24726,1,8,0:0:0:0:
256,192,24933,1,8,0:0:0:0:
256,192,25036,1,8,0:0:0:0:
256,192,25140,5,0,0:0:0:0:
256,192,25346,1,0,0:0:0:0:
256,192,25450,1,0,0:0:0:0:
256,192,25553,5,8,0:0:0:0:
256,192,25760,1,8,0:0:0:0:
256,192,25967,1,8,0:0:0:0:
256,192,26174,5,0,0:0:0:0:
256,192,26277,5,8,0:0:0:0:
256,192,26484,1,8,0:0:0:0:
256,192,26588,1,8,0:0:0:0:
256,192,26795,5,0,0:0:0:0:
256,192,27002,5,8,0:0:0:0:
256,192,27208,1,8,0:0:0:0:
256,192,27312,5,0,0:0:0:0:
256,192,27415,5,8,0:0:0:0:
256,192,27622,5,0,0:0:0:0:
256,192,27829,1,0,0:0:0:0:
256,192,27933,1,0,0:0:0:0:
256,192,28036,5,8,0:0:0:0:
256,192,28140,1,8,0:0:0:0:
256,192,28243,1,8,0:0:0:0:
256,192,28450,5,0,0:0:0:0:
256,192,28657,5,8,0:0:0:0:
256,192,28760,1,8,0:0:0:0:
256,192,28864,5,0,0:0:0:0:
256,192,29071,5,8,0:0:0:0:
256,192,29277,5,4,0:0:0:0:
256,192,29484,1,0,0:0:0:0:
256,192,29588,1,0,0:0:0:0:
256,192,29691,5,8,0:0:0:0:
256,192,29898,5,0,0:0:0:0:
256,192,30105,5,8,0:0:0:0:
256,192,30312,5,0,0:0:0:0:
256,192,30519,5,12,0:0:0:0:
256,192,30726,1,12,0:0:0:0:
256,192,30933,1,8,0:0:0:0:
256,192,31140,5,0,0:0:0:0:
256,192,31243,5,8,0:0:0:0:
256,192,31346,1,8,0:0:0:0:
256,192,31553,1,8,0:0:0:0:
256,192,31657,1,8,0:0:0:0:
256,192,31760,5,0,0:0:0:0:
256,192,31864,1,0,0:0:0:0:
256,192,31967,1,0,0:0:0:0:
256,192,32071,1,0,0:0:0:0:
256,192,32174,1,0,0:0:0:0:
256,192,32588,5,12,0:0:0:0:
256,192,32795,5,0,0:0:0:0:
256,192,32898,5,8,0:0:0:0:
256,192,33002,1,8,0:0:0:0:
256,192,33208,1,8,0:0:0:0:
256,192,33415,1,0,0:0:0:0:
256,192,33622,5,8,0:0:0:0:
256,192,33829,5,0,0:0:0:0:
256,192,33933,1,0,0:0:0:0:
256,192,34036,5,8,0:0:0:0:
256,192,34243,1,12,0:0:0:0:
256,192,34450,5,0,0:0:0:0:
256,192,34657,5,12,0:0:0:0:
256,192,34864,5,0,0:0:0:0:
256,192,35071,1,0,0:0:0:0:
256,192,35381,1,0,0:0:0:0:
256,192,35691,1,0,0:0:0:0:
256,192,35898,1,0,0:0:0:0:
256,192,36105,1,0,0:0:0:0:
256,192,36208,1,0,0:0:0:0:
256,192,36312,5,8,0:0:0:0:
256,192,36519,5,0,0:0:0:0:
256,192,36726,5,8,0:0:0:0:
256,192,36933,5,0,0:0:0:0:
256,192,37140,5,8,0:0:0:0:
256,192,37243,5,0,0:0:0:0:
256,192,37346,5,8,0:0:0:0:
256,192,37450,5,0,0:0:0:0:
256,192,37553,1,0,0:0:0:0:
256,192,37760,1,0,0:0:0:0:
256,192,37864,1,0,0:0:0:0:
256,192,37967,5,8,0:0:0:0:
256,192,38174,5,0,0:0:0:0:
256,192,38381,5,8,0:0:0:0:
256,192,38588,5,0,0:0:0:0:
256,192,38795,5,8,0:0:0:0:
256,192,38898,5,0,0:0:0:0:
256,192,39002,5,8,0:0:0:0:
256,192,39208,1,8,0:0:0:0:
256,192,39312,1,8,0:0:0:0:
256,192,39415,5,0,0:0:0:0:
256,192,39519,1,0,0:0:0:0:
256,192,39622,5,8,0:0:0:0:
256,192,39726,5,0,0:0:0:0:
256,192,39829,1,0,0:0:0:0:
256,192,39933,1,0,0:0:0:0:
256,192,40036,5,8,0:0:0:0:
256,192,40140,1,8,0:0:0:0:
256,192,40243,5,0,0:0:0:0:
256,192,40312,1,0,0:0:0:0:
256,192,40381,1,0,0:0:0:0:
256,192,40450,5,8,0:0:0:0:
256,192,40553,5,0,0:0:0:0:
256,192,40657,1,0,0:0:0:0:
256,192,40864,5,12,0:0:0:0:
256,192,41071,1,12,0:0:0:0:
256,192,41277,1,12,0:0:0:0:
256,192,41484,1,8,0:0:0:0:
256,192,41588,1,8,0:0:0:0:
256,192,41795,1,8,0:0:0:0:
256,192,41898,1,8,0:0:0:0:
256,192,42002,5,0,0:0:0:0:
256,192,42105,1,0,0:0:0:0:
256,192,42312,1,0,0:0:0:0:
256,192,42519,5,12,0:0:0:0:
256,192,43346,5,0,0:0:0:0:
256,192,43657,5,8,0:0:0:0:
256,192,43967,5,0,0:0:0:0:
256,192,44174,5,8,0:0:0:0:
256,192,45002,5,0,0:0:0:0:
256,192,45312,5,8,0:0:0:0:
256,192,45622,5,0,0:0:0:0:
256,192,45829,5,12,0:0:0:0:
256,192,46657,5,0,0:0:0:0:
256,192,46967,5,8,0:0:0:0:
256,192,47277,5,0,0:0:0:0:
256,192,47484,5,8,0:0:0:0:
256,192,47898,1,8,0:0:0:0:
256,192,48312,1,8,0:0:0:0:
256,192,48622,1,8,0:0:0:0:
256,192,48933,5,0,0:0:0:0:
256,192,49140,1,4,0:0:0:0:
256,192,49450,1,0,0:0:0:0:
256,192,49553,5,8,0:0:0:0:
256,192,49760,5,0,0:0:0:0:
256,192,49967,1,0,0:0:0:0:
256,192,50277,5,8,0:0:0:0:
256,192,50588,5,0,0:0:0:0:
256,192,50795,5,12,0:0:0:0:
256,192,51105,5,0,0:0:0:0:
256,192,51208,5,8,0:0:0:0:
256,192,51415,5,0,0:0:0:0:
256,192,51622,1,0,0:0:0:0:
256,192,51933,5,8,0:0:0:0:
256,192,52243,1,8,0:0:0:0:
256,192,52450,1,12,0:0:0:0:
256,192,52657,5,0,0:0:0:0:
256,192,52864,5,8,0:0:0:0:
256,192,53071,5,0,0:0:0:0:
256,192,53277,5,12,0:0:0:0:
256,192,53484,1,8,0:0:0:0:
256,192,53553,1,8,0:0:0:0:
256,192,53622,1,8,0:0:0:0:
256,192,53691,5,0,0:0:0:0:
256,192,53898,1,0,0:0:0:0:
256,192,54105,5,8,0:0:0:0:
256,192,54174,1,8,0:0:0:0:
256,192,54243,1,8,0:0:0:0:
256,192,54312,1,8,0:0:0:0:
256,192,54415,5,0,0:0:0:0:
256,192,54519,1,0,0:0:0:0:
256,192,54933,1,0,0:0:0:0:
256,192,55346,5,8,0:0:0:0:
256,192,55760,1,12,0:0:0:0:
256,192,56588,5,0,0:0:0:0:
256,192,56898,5,8,0:0:0:0:
256,192,57208,5,0,0:0:0:0:
256,192,57415,5,12,0:0:0:0:
256,192,58243,5,0,0:0:0:0:
256,192,58553,5,8,0:0:0:0:
256,192,58657,1,8,0:0:0:0:
256,192,58864,5,0,0:0:0:0:
256,192,59071,5,12,0:0:0:0:
256,192,59898,5,0,0:0:0:0:
256,192,60105,5,8,0:0:0:0:
256,192,60208,1,8,0:0:0:0:
256,192,60312,1,8,0:0:0:0:
256,192,60519,5,0,0:0:0:0:
256,192,60726,5,12,0:0:0:0:
256,192,61553,5,0,0:0:0:0:
256,192,61760,5,8,0:0:0:0:
256,192,61864,1,8,0:0:0:0:
256,192,61967,1,8,0:0:0:0:
256,192,62071,1,8,0:0:0:0:
256,192,62174,5,0,0:0:0:0:
256,192,62381,5,12,0:0:0:0:
256,192,62588,5,0,0:0:0:0:
256,192,62691,5,8,0:0:0:0:
256,192,62898,5,0,0:0:0:0:
256,192,63002,5,8,0:0:0:0:
256,192,63208,5,0,0:0:0:0:
256,192,63312,5,8,0:0:0:0:
256,192,63519,5,0,0:0:0:0:
256,192,63622,5,8,0:0:0:0:
256,192,63829,5,0,0:0:0:0:
256,192,63933,5,8,0:0:0:0:
256,192,64036,5,0,0:0:0:0:
256,192,64140,1,0,0:0:0:0:
256,192,64243,5,8,0:0:0:0:
256,192,64450,5,0,0:0:0:0:
256,192,64553,5,8,0:0:0:0:
256,192,64760,5,0,0:0:0:0:
256,192,64864,5,8,0:0:0:0:
256,192,64967,5,0,0:0:0:0:
256,192,65071,1,0,0:0:0:0:
256,192,65174,5,8,0:0:0:0:
256,192,65277,5,0,0:0:0:0:
256,192,65381,1,0,0:0:0:0:
256,192,65484,5,8,0:0:0:0:
256,192,65691,1,12,0:0:0:0:
256,192,65898,5,0,0:0:0:0:
256,192,66002,1,0,0:0:0:0:
256,192,66105,5,8,0:0:0:0:
256,192,66312,5,0,0:0:0:0:
256,192,66415,1,0,0:0:0:0:
256,192,66519,5,8,0:0:0:0:
256,192,66726,5,0,0:0:0:0:
256,192,66829,1,0,0:0:0:0:
256,192,66933,5,8,0:0:0:0:
256,192,67036,5,0,0:0:0:0:
256,192,67140,1,0,0:0:0:0:
256,192,67346,5,12,0:0:0:0:
256,192,67553,1,12,0:0:0:0:
256,192,67760,1,12,0:0:0:0:
256,192,67967,1,12,0:0:0:0:
256,192,68174,1,8,0:0:0:0:
256,192,68277,1,8,0:0:0:0:
256,192,68381,1,8,0:0:0:0:
256,192,68484,1,8,0:0:0:0:
256,192,68588,1,8,0:0:0:0:
256,192,68657,1,8,0:0:0:0:
256,192,68726,1,8,0:0:0:0:
256,192,68795,1,8,0:0:0:0:
256,192,68864,1,8,0:0:0:0:
256,192,68933,1,8,0:0:0:0:
256,192,69002,5,0,0:0:0:0:
256,192,71484,1,0,0:0:0:0:
256,192,71898,5,12,0:0:0:0:
256,192,72312,5,0,0:0:0:0:
256,192,72415,1,0,0:0:0:0:
256,192,72519,5,8,0:0:0:0:
256,192,72622,5,0,0:0:0:0:
256,192,72726,5,8,0:0:0:0:
256,192,72829,1,8,0:0:0:0:
256,192,72933,5,0,0:0:0:0:
256,192,73036,1,0,0:0:0:0:
256,192,73140,1,0,0:0:0:0:
256,192,73243,1,0,0:0:0:0:
256,192,73346,5,8,0:0:0:0:
256,192,73450,5,0,0:0:0:0:
256,192,73553,5,8,0:0:0:0:
256,192,73657,1,8,0:0:0:0:
256,192,73760,5,0,0:0:0:0:
256,192,73864,1,0,0:0:0:0:
256,192,73967,1,0,0:0:0:0:
256,192,74071,1,0,0:0:0:0:
256,192,74174,5,8,0:0:0:0:
256,192,74277,5,0,0:0:0:0:
256,192,74381,5,8,0:0:0:0:
256,192,74484,5,0,0:0:0:0:
256,192,74588,5,8,0:0:0:0:
256,192,74691,1,8,0:0:0:0:
256,192,74795,1,8,0:0:0:0:
256,192,74898,1,8,0:0:0:0:
256,192,75002,5,0,0:0:0:0:
256,192,75105,1,0,0:0:0:0:
256,192,75208,1,0,0:0:0:0:
256,192,75415,1,0,0:0:0:0:
256,192,75622,1,0,0:0:0:0:
256,192,75725,1,0,0:0:0:0:
256,192,75829,5,8,0:0:0:0:
256,192,75932,5,0,0:0:0:0:
256,192,76036,5,8,0:0:0:0:
256,192,76139,1,8,0:0:0:0:
256,192,76243,1,8,0:0:0:0:
256,192,76346,5,0,0:0:0:0:
256,192,76450,1,0,0:0:0:0:
256,192,76553,1,0,0:0:0:0:
256,192,76656,5,8,0:0:0:0:
256,192,76760,5,0,0:0:0:0:
256,192,76863,5,8,0:0:0:0:
256,192,76967,1,8,0:0:0:0:
256,192,77070,1,8,0:0:0:0:
256,192,77174,5,0,0:0:0:0:
256,192,77277,1,0,0:0:0:0:
256,192,77381,1,0,0:0:0:0:
256,192,77484,5,8,0:0:0:0:
256,192,77587,5,0,0:0:0:0:
256,192,77691,5,8,0:0:0:0:
256,192,77794,5,0,0:0:0:0:
256,192,77898,5,8,0:0:0:0:
256,192,78001,1,8,0:0:0:0:
256,192,78105,1,8,0:0:0:0:
256,192,78208,5,0,0:0:0:0:
256,192,78312,5,8,0:0:0:0:
256,192,78415,5,0,0:0:0:0:
256,192,78518,5,8,0:0:0:0:
256,192,78725,5,0,0:0:0:0:
256,192,78933,1,0,0:0:0:0:
256,192,79036,1,0,0:0:0:0:
256,192,79140,5,8,0:0:0:0:
256,192,79243,5,0,0:0:0:0:
256,192,79347,5,8,0:0:0:0:
256,192,79450,1,8,0:0:0:0:
256,192,79554,5,0,0:0:0:0:
256,192,79657,1,0,0:0:0:0:
256,192,79761,1,0,0:0:0:0:
256,192,79864,1,0,0:0:0:0:
256,192,79967,5,8,0:0:0:0:
256,192,80071,5,0,0:0:0:0:
256,192,80174,5,8,0:0:0:0:
256,192,80278,1,8,0:0:0:0:
256,192,80381,5,0,0:0:0:0:
256,192,80485,1,0,0:0:0:0:
256,192,80588,1,0,0:0:0:0:
256,192,80692,1,0,0:0:0:0:
256,192,80795,5,8,0:0:0:0:
256,192,80898,5,0,0:0:0:0:
256,192,81002,5,8,0:0:0:0:
256,192,81105,5,0,0:0:0:0:
256,192,81209,5,8,0:0:0:0:
256,192,81312,1,8,0:0:0:0:
256,192,81416,1,8,0:0:0:0:
256,192,81519,1,8,0:0:0:0:
256,192,81623,5,0,0:0:0:0:
256,192,81726,1,0,0:0:0:0:
256,192,81829,1,0,0:0:0:0:
256,192,82036,1,0,0:0:0:0:
256,192,82243,1,0,0:0:0:0:
256,192,82346,1,0,0:0:0:0:
256,192,82450,5,8,0:0:0:0:
256,192,82553,5,0,0:0:0:0:
256,192,82657,5,8,0:0:0:0:
256,192,82760,1,8,0:0:0:0:
256,192,82864,1,8,0:0:0:0:
256,192,82967,5,0,0:0:0:0:
256,192,83071,1,0,0:0:0:0:
256,192,83174,1,0,0:0:0:0:
256,192,83277,5,8,0:0:0:0:
256,192,83381,5,0,0:0:0:0:
256,192,83484,5,8,0:0:0:0:
256,192,83588,1,8,0:0:0:0:
256,192,83691,1,8,0:0:0:0:
256,192,83795,5,0,0:0:0:0:
256,192,83898,1,0,0:0:0:0:
256,192,84002,1,0,0:0:0:0:
256,192,84105,5,8,0:0:0:0:
256,192,84208,1,8,0:0:0:0:
256,192,84312,5,0,0:0:0:0:
256,192,84381,5,8,0:0:0:0:
256,192,84450,1,8,0:0:0:0:
256,192,84519,5,0,0:0:0:0:
256,192,84588,5,8,0:0:0:0:
256,192,84657,1,8,0:0:0:0:
256,192,84726,5,0,0:0:0:0:
256,192,84933,5,8,0:0:0:0:
256,192,85036,1,8,0:0:0:0:
256,192,85140,1,8,0:0:0:0:
256,192,85243,1,8,0:0:0:0:
256,192,85346,5,0,0:0:0:0:
256,192,85553,5,12,0:0:0:0:
256,192,85760,5,0,0:0:0:0:
256,192,85863,1,0,0:0:0:0:
256,192,85967,5,8,0:0:0:0:
256,192,86070,1,8,0:0:0:0:
256,192,86173,5,0,0:0:0:0:
256,192,86381,5,8,0:0:0:0:
256,192,86588,5,0,0:0:0:0:
256,192,86691,1,0,0:0:0:0:
256,192,86794,5,8,0:0:0:0:
256,192,86897,1,8,0:0:0:0:
256,192,87001,5,0,0:0:0:0:
256,192,87208,5,8,0:0:0:0:
256,192,87415,5,0,0:0:0:0:
256,192,87518,1,0,0:0:0:0:
256,192,87622,5,8,0:0:0:0:
256,192,87725,5,0,0:0:0:0:
256,192,87829,5,8,0:0:0:0:
256,192,87933,1,8,0:0:0:0:
256,192,88036,1,8,0:0:0:0:
256,192,88140,1,8,0:0:0:0:
256,192,88243,5,0,0:0:0:0:
256,192,88346,1,0,0:0:0:0:
256,192,88450,5,8,0:0:0:0:
256,192,88553,5,0,0:0:0:0:
256,192,88656,1,0,0:0:0:0:
256,192,88864,1,0,0:0:0:0:
256,192,89071,1,0,0:0:0:0:
256,192,89175,5,8,0:0:0:0:
256,192,89278,1,8,0:0:0:0:
256,192,89382,1,8,0:0:0:0:
256,192,89485,5,0,0:0:0:0:
256,192,89588,1,0,0:0:0:0:
256,192,89691,1,0,0:0:0:0:
256,192,89899,1,0,0:0:0:0:
256,192,90002,5,8,0:0:0:0:
256,192,90106,1,8,0:0:0:0:
256,192,90209,1,8,0:0:0:0:
256,192,90313,5,0,0:0:0:0:
256,192,90415,1,0,0:0:0:0:
256,192,90519,1,0,0:0:0:0:
256,192,90726,1,0,0:0:0:0:
256,192,90830,5,8,0:0:0:0:
256,192,90933,1,8,0:0:0:0:
256,192,91037,5,0,0:0:0:0:
256,192,91140,5,8,0:0:0:0:
256,192,91244,5,0,0:0:0:0:
256,192,91347,5,8,0:0:0:0:
256,192,91450,1,8,0:0:0:0:
256,192,91554,5,0,0:0:0:0:
256,192,91657,5,8,0:0:0:0:
256,192,91760,1,8,0:0:0:0:
256,192,91864,5,0,0:0:0:0:
256,192,91967,1,0,0:0:0:0:
256,192,92174,2,0,L|256:96,1,75.6000018457032
256,192,92588,5,12,0:0:0:0:
256,192,92795,1,8,0:0:0:0:
256,192,92898,5,0,0:0:0:0:
256,192,93002,1,0,0:0:0:0:
256,192,93105,5,8,0:0:0:0:
256,192,93208,5,0,0:0:0:0:
256,192,93312,5,8,0:0:0:0:
256,192,93415,1,8,0:0:0:0:
256,192,93519,5,0,0:0:0:0:
256,192,93622,1,0,0:0:0:0:
256,192,93829,1,0,0:0:0:0:
256,192,93933,5,8,0:0:0:0:
256,192,94036,5,0,0:0:0:0:
256,192,94140,5,8,0:0:0:0:
256,192,94243,1,8,0:0:0:0:
256,192,94346,5,0,0:0:0:0:
256,192,94450,5,8,0:0:0:0:
256,192,94553,5,0,0:0:0:0:
256,192,94657,5,8,0:0:0:0:
256,192,94760,1,8,0:0:0:0:
256,192,94864,1,8,0:0:0:0:
256,192,94967,5,0,0:0:0:0:
256,192,95071,5,8,0:0:0:0:
256,192,95174,5,0,0:0:0:0:
256,192,95277,1,0,0:0:0:0:
256,192,95484,1,0,0:0:0:0:
256,192,95588,5,8,0:0:0:0:
256,192,95691,5,0,0:0:0:0:
256,192,95795,5,8,0:0:0:0:
256,192,95898,1,8,0:0:0:0:
256,192,96002,1,8,0:0:0:0:
256,192,96105,5,0,0:0:0:0:
256,192,96208,1,0,0:0:0:0:
256,192,96312,1,0,0:0:0:0:
256,192,96415,5,8,0:0:0:0:
256,192,96519,5,0,0:0:0:0:
256,192,96622,5,8,0:0:0:0:
256,192,96726,1,8,0:0:0:0:
256,192,96829,1,8,0:0:0:0:
256,192,96933,5,0,0:0:0:0:
256,192,97036,1,0,0:0:0:0:
256,192,97140,1,0,0:0:0:0:
256,192,97243,5,8,0:0:0:0:
256,192,97346,5,0,0:0:0:0:
256,192,97450,5,8,0:0:0:0:
256,192,97553,5,0,0:0:0:0:
256,192,97622,1,0,0:0:0:0:
256,192,97691,5,8,0:0:0:0:
256,192,97760,5,0,0:0:0:0:
256,192,97829,5,8,0:0:0:0:
256,192,97898,1,8,0:0:0:0:
256,192,97967,5,0,0:0:0:0:
256,192,98174,5,8,0:0:0:0:
256,192,98277,1,8,0:0:0:0:
256,192,98381,1,8,0:0:0:0:
256,192,98484,5,0,0:0:0:0:
256,192,98588,5,8,0:0:0:0:
256,192,98795,1,12,0:0:0:0:
256,192,99622,5,0,0:0:0:0:
256,192,99933,5,8,0:0:0:0:
256,192,100243,5,0,0:0:0:0:
256,192,100450,5,8,0:0:0:0:
256,192,101277,5,0,0:0:0:0:
256,192,101588,5,8,0:0:0:0:
256,192,101898,5,0,0:0:0:0:
256,192,102105,5,8,0:0:0:0:
256,192,102933,5,0,0:0:0:0:
256,192,103243,5,8,0:0:0:0:
256,192,103553,5,0,0:0:0:0:
256,192,103760,5,8,0:0:0:0:
256,192,104381,1,8,0:0:0:0:
256,192,104588,1,8,0:0:0:0:
256,192,104898,1,8,0:0:0:0:
256,192,105208,5,0,0:0:0:0:
256,192,105415,1,0,0:0:0:0:
256,192,106243,1,0,0:0:0:0:
256,192,106553,5,8,0:0:0:0:
256,192,106864,5,0,0:0:0:0:
256,192,107071,5,8,0:0:0:0:
256,192,107898,5,0,0:0:0:0:
256,192,108208,5,8,0:0:0:0:
256,192,108519,1,8,0:0:0:0:
256,192,108726,1,8,0:0:0:0:
256,192,108933,5,0,0:0:0:0:
256,192,109140,5,8,0:0:0:0:
256,192,109346,5,0,0:0:0:0:
256,192,109553,5,8,0:0:0:0:
256,192,109760,1,8,0:0:0:0:
256,192,109829,1,8,0:0:0:0:
256,192,109898,1,8,0:0:0:0:
256,192,109967,5,0,0:0:0:0:
256,192,110174,1,0,0:0:0:0:
256,192,110381,5,8,0:0:0:0:
