osu file format v14

[General]
AudioFilename: [BGA]MilK[BOFU2015].mp3
AudioLeadIn: 0
PreviewTime: 26697
Countdown: 0
SampleSet: Normal
StackLeniency: 0.7
Mode: 1
LetterboxInBreaks: 0
WidescreenStoryboard: 0

[Editor]
DistanceSpacing: 0.8
BeatDivisor: 4
GridSize: 32
TimelineZoom: 2.1

[Metadata]
Title:MilK
TitleUnicode:MilK
Artist:Morimori Atsushi
ArtistUnicode:モリモリあつし
Creator:Taikocracy
Version:Muzukashii
Source:BMS
Tags:大血戦 THE OF FIGHTERS ULTIMATE 参加作品 JACKET 出前 Future Bass Bofu2015 Lanota Noxy Games Chapter C Expansion
BeatmapID:1252845
BeatmapSetID:592095

[Difficulty]
HPDrainRate:5
CircleSize:2
OverallDifficulty:5
ApproachRate:10
SliderMultiplier:1.4
SliderTickRate:1

[Events]
//Background and Video events
0,0,"milk.jpg",0,-15
//Break Periods
//Storyboard Layer 0 (Background)
//Storyboard Layer 1 (Fail)
//Storyboard Layer 2 (Pass)
//Storyboard Layer 3 (Foreground)
//Storyboard Sound Samples

[TimingPoints]
97,400,4,1,0,100,1,0
1697,-100,4,1,0,75,0,0
14497,-100,4,1,0,90,0,0
27297,-100,4,1,0,100,0,1
40097,-100,4,1,0,100,0,0
40897,-100,4,1,0,100,0,1
52897,-100,4,1,0,90,0,0
65697,-100,4,1,0,100,0,1
70497,-100,4,1,0,100,0,0
72097,-100,4,1,0,100,0,1
76897,-100,4,1,0,100,0,0
78897,-100,4,1,0,100,0,1
83297,-100,4,1,0,100,0,0
91297,-100,4,1,0,100,0,1
104097,-100,4,1,0,100,0,0
104897,-100,4,1,0,100,0,1
116897,-100,4,1,0,100,0,0

[HitObjects]
256,192,1697,5,0,0:0:0:0:
256,192,2097,1,8,0:0:0:0:
256,192,2297,1,0,0:0:0:0:
256,192,2497,1,8,0:0:0:0:
256,192,3097,1,0,0:0:0:0:
256,192,3297,1,8,0:0:0:0:
256,192,4097,1,8,0:0:0:0:
256,192,4297,1,0,0:0:0:0:
256,192,4497,1,8,0:0:0:0:
256,192,4697,1,8,0:0:0:0:
256,192,4897,1,0,0:0:0:0:
256,192,5297,1,0,0:0:0:0:
256,192,5497,1,8,0:0:0:0:
256,192,5897,1,8,0:0:0:0:
256,192,6297,1,0,0:0:0:0:
256,192,6697,1,8,0:0:0:0:
256,192,7097,1,8,0:0:0:0:
256,192,7297,1,0,0:0:0:0:
256,192,7497,1,0,0:0:0:0:
256,192,8097,1,0,0:0:0:0:
256,192,8497,1,8,0:0:0:0:
256,192,8697,1,0,0:0:0:0:
256,192,8897,1,8,0:0:0:0:
256,192,9497,1,0,0:0:0:0:
256,192,9697,1,8,0:0:0:0:
256,192,10497,1,8,0:0:0:0:
256,192,10697,1,0,0:0:0:0:
256,192,10897,1,8,0:0:0:0:
256,192,11097,1,0,0:0:0:0:
256,192,11297,1,8,0:0:0:0:
256,192,11697,1,0,0:0:0:0:
256,192,11897,1,8,0:0:0:0:
256,192,12297,1,0,0:0:0:0:
256,192,12697,1,8,0:0:0:0:
256,192,13097,1,8,0:0:0:0:
256,192,13697,1,0,0:0:0:0:
256,192,13897,1,0,0:0:0:0:
256,192,13997,1,0,0:0:0:0:
256,192,14097,1,0,0:0:0:0:
256,192,14297,1,8,0:0:0:0:
256,192,14497,1,4,0:0:0:0:
256,192,14897,1,0,0:0:0:0:
256,192,15097,1,0,0:0:0:0:
256,192,15297,1,8,0:0:0:0:
256,192,15897,1,0,0:0:0:0:
256,192,16097,1,8,0:0:0:0:
256,192,16497,1,8,0:0:0:0:
256,192,16897,1,0,0:0:0:0:
256,192,17097,1,8,0:0:0:0:
256,192,17297,1,8,0:0:0:0:
256,192,17497,1,0,0:0:0:0:
256,192,17697,1,8,0:0:0:0:
256,192,18097,1,0,0:0:0:0:
256,192,18297,1,0,0:0:0:0:
256,192,18697,1,0,0:0:0:0:
256,192,18897,1,8,0:0:0:0:
256,192,19297,1,8,0:0:0:0:
256,192,19497,1,8,0:0:0:0:
256,192,19897,1,0,0:0:0:0:
256,192,20097,1,0,0:0:0:0:
256,192,20297,1,8,0:0:0:0:
256,192,20897,1,4,0:0:0:0:
256,192,21097,1,0,0:0:0:0:
256,192,21197,1,0,0:0:0:0:
256,192,21297,1,0,0:0:0:0:
256,192,21497,1,8,0:0:0:0:
256,192,21697,1,0,0:0:0:0:
256,192,22097,1,0,0:0:0:0:
256,192,22297,1,0,0:0:0:0:
256,192,22497,1,8,0:0:0:0:
256,192,22697,1,8,0:0:0:0:
256,192,22797,1,8,0:0:0:0:
256,192,22897,1,8,0:0:0:0:
256,192,23097,1,0,0:0:0:0:
256,192,23297,1,8,0:0:0:0:
256,192,23697,1,0,0:0:0:0:
256,192,23797,1,0,0:0:0:0:
256,192,23897,1,0,0:0:0:0:
256,192,24097,1,8,0:0:0:0:
256,192,24497,1,0,0:0:0:0:
256,192,24697,1,8,0:0:0:0:
256,192,25097,1,0,0:0:0:0:
256,192,25297,1,8,0:0:0:0:
256,192,25697,1,8,0:0:0:0:
256,192,25897,1,0,0:0:0:0:
256,192,25997,1,0,0:0:0:0:
256,192,26097,1,0,0:0:0:0:
256,192,26297,1,8,0:0:0:0:
256,192,26497,1,0,0:0:0:0:
256,192,26897,1,8,0:0:0:0:
256,192,27097,1,0,0:0:0:0:
256,192,27297,1,12,0:0:0:0:
256,192,28097,1,8,0:0:0:0:
256,192,28397,1,0,0:0:0:0:
256,192,28897,1,8,0:0:0:0:
256,192,29497,1,0,0:0:0:0:
256,192,29697,1,8,0:0:0:0:
256,192,30097,1,8,0:0:0:0:
256,192,30497,1,0,0:0:0:0:
256,192,30697,1,8,0:0:0:0:
256,192,31097,1,8,0:0:0:0:
256,192,31297,1,8,0:0:0:0:
256,192,31597,1,0,0:0:0:0:
256,192,32097,1,0,0:0:0:0:
256,192,32397,1,8,0:0:0:0:
256,192,32697,1,0,0:0:0:0:
256,192,32897,1,8,0:0:0:0:
256,192,32997,1,8,0:0:0:0:
256,192,33097,1,8,0:0:0:0:
256,192,33297,1,8,0:0:0:0:
256,192,33497,1,8,0:0:0:0:
256,192,33697,1,4,0:0:0:0:
256,192,34097,1,0,0:0:0:0:
256,192,34497,1,8,0:0:0:0:
256,192,34797,1,0,0:0:0:0:
256,192,35297,1,8,0:0:0:0:
256,192,35897,1,0,0:0:0:0:
256,192,36097,1,8,0:0:0:0:
256,192,36497,1,0,0:0:0:0:
256,192,36697,1,0,0:0:0:0:
256,192,36897,1,8,0:0:0:0:
256,192,37697,1,12,0:0:0:0:
256,192,37997,1,4,0:0:0:0:
256,192,38297,1,12,0:0:0:0:
256,192,38497,1,0,0:0:0:0:
256,192,38697,1,0,0:0:0:0:
256,192,39097,1,0,0:0:0:0:
256,192,39297,1,8,0:0:0:0:
256,192,39597,1,0,0:0:0:0:
256,192,39897,1,0,0:0:0:0:
256,192,40097,1,8,0:0:0:0:
256,192,40897,1,12,0:0:0:0:
256,192,41197,1,0,0:0:0:0:
256,192,41697,1,8,0:0:0:0:
256,192,42297,1,0,0:0:0:0:
256,192,42497,1,8,0:0:0:0:
256,192,42897,1,8,0:0:0:0:
256,192,43297,1,0,0:0:0:0:
256,192,43497,1,8,0:0:0:0:
256,192,43897,1,8,0:0:0:0:
256,192,44097,1,8,0:0:0:0:
256,192,44397,1,0,0:0:0:0:
256,192,44897,1,8,0:0:0:0:
256,192,45197,1,0,0:0:0:0:
256,192,45497,1,8,0:0:0:0:
256,192,45697,1,0,0:0:0:0:
256,192,45797,1,0,0:0:0:0:
256,192,45897,1,0,0:0:0:0:
256,192,46097,1,8,0:0:0:0:
256,192,46297,1,8,0:0:0:0:
256,192,46497,1,4,0:0:0:0:
256,192,46897,1,0,0:0:0:0:
256,192,47297,1,8,0:0:0:0:
256,192,47597,1,0,0:0:0:0:
256,192,48097,1,8,0:0:0:0:
256,192,48697,1,0,0:0:0:0:
256,192,48897,1,8,0:0:0:0:
256,192,49297,1,8,0:0:0:0:
256,192,49697,1,8,0:0:0:0:
256,192,49897,1,8,0:0:0:0:
256,192,50097,1,0,0:0:0:0:
256,192,50297,1,8,0:0:0:0:
256,192,50497,1,4,0:0:0:0:
256,192,50797,1,12,0:0:0:0:
256,192,51097,1,12,0:0:0:0:
256,192,51297,1,0,0:0:0:0:
256,192,51497,1,0,0:0:0:0:
256,192,51897,1,0,0:0:0:0:
256,192,52097,1,8,0:0:0:0:
256,192,52497,1,8,0:0:0:0:
256,192,52897,1,4,0:0:0:0:
256,192,53297,1,0,0:0:0:0:
256,192,53497,1,0,0:0:0:0:
256,192,53697,1,8,0:0:0:0:
256,192,54497,1,8,0:0:0:0:
256,192,55297,1,0,0:0:0:0:
256,192,55497,1,8,0:0:0:0:
256,192,55697,1,8,0:0:0:0:
256,192,55897,1,0,0:0:0:0:
256,192,56097,1,8,0:0:0:0:
256,192,56497,1,0,0:0:0:0:
256,192,56697,1,8,0:0:0:0:
256,192,57097,1,8,0:0:0:0:
256,192,57497,1,0,0:0:0:0:
256,192,57697,1,8,0:0:0:0:
256,192,57897,1,0,0:0:0:0:
256,192,57997,1,0,0:0:0:0:
256,192,58097,1,0,0:0:0:0:
256,192,58297,1,8,0:0:0:0:
256,192,58497,1,0,0:0:0:0:
256,192,58697,1,8,0:0:0:0:
256,192,59297,1,0,0:0:0:0:
256,192,59497,1,0,0:0:0:0:
256,192,59597,1,0,0:0:0:0:
256,192,59697,1,0,0:0:0:0:
256,192,59897,1,8,0:0:0:0:
256,192,60097,1,0,0:0:0:0:
256,192,60897,1,0,0:0:0:0:
256,192,61097,1,8,0:0:0:0:
256,192,61197,1,8,0:0:0:0:
256,192,61297,1,8,0:0:0:0:
256,192,61497,1,0,0:0:0:0:
256,192,61697,1,8,0:0:0:0:
256,192,62097,1,0,0:0:0:0:
256,192,62197,1,0,0:0:0:0:
256,192,62297,1,0,0:0:0:0:
256,192,62497,1,8,0:0:0:0:
256,192,62897,1,0,0:0:0:0:
256,192,62997,1,0,0:0:0:0:
256,192,63097,1,0,0:0:0:0:
256,192,63497,1,8,0:0:0:0:
256,192,63597,1,8,0:0:0:0:
256,192,63697,1,8,0:0:0:0:
256,192,63897,1,0,0:0:0:0:
256,192,64097,1,8,0:0:0:0:
256,192,64297,1,0,0:0:0:0:
256,192,64397,1,0,0:0:0:0:
256,192,64497,1,0,0:0:0:0:
256,192,64697,1,8,0:0:0:0:
256,192,65097,1,0,0:0:0:0:
256,192,65297,1,8,0:0:0:0:
256,192,65397,1,8,0:0:0:0:
256,192,65497,1,8,0:0:0:0:
256,192,65697,1,4,0:0:0:0:
256,192,65997,1,0,0:0:0:0:
256,192,66297,1,8,0:0:0:0:
256,192,66597,1,8,0:0:0:0:
256,192,66897,1,0,0:0:0:0:
256,192,67097,1,8,0:0:0:0:
256,192,67297,1,0,0:0:0:0:
256,192,67597,1,8,0:0:0:0:
256,192,67897,1,0,0:0:0:0:
256,192,68197,1,0,0:0:0:0:
256,192,68497,1,8,0:0:0:0:
256,192,68897,1,0,0:0:0:0:
256,192,69197,1,0,0:0:0:0:
256,192,69497,1,8,0:0:0:0:
256,192,69797,1,0,0:0:0:0:
256,192,70097,1,8,0:0:0:0:
256,192,70297,1,8,0:0:0:0:
256,192,70497,1,0,0:0:0:0:
256,192,70697,1,8,0:0:0:0:
256,192,71097,1,8,0:0:0:0:
256,192,71297,1,0,0:0:0:0:
256,192,71497,1,8,0:0:0:0:
256,192,72097,1,4,0:0:0:0:
256,192,72397,1,8,0:0:0:0:
256,192,72697,1,0,0:0:0:0:
256,192,72997,1,0,0:0:0:0:
256,192,73297,1,8,0:0:0:0:
256,192,73497,1,0,0:0:0:0:
256,192,73697,1,8,0:0:0:0:
256,192,73997,1,0,0:0:0:0:
256,192,74297,1,8,0:0:0:0:
256,192,74597,1,8,0:0:0:0:
256,192,74897,1,0,0:0:0:0:
256,192,75297,1,8,0:0:0:0:
256,192,75597,1,0,0:0:0:0:
256,192,75897,1,8,0:0:0:0:
256,192,76197,1,0,0:0:0:0:
256,192,76497,1,0,0:0:0:0:
256,192,76697,1,0,0:0:0:0:
256,192,76897,1,8,0:0:0:0:
256,192,77097,1,0,0:0:0:0:
256,192,77497,1,8,0:0:0:0:
256,192,77697,1,0,0:0:0:0:
256,192,77797,1,0,0:0:0:0:
256,192,77897,1,0,0:0:0:0:
256,192,78097,1,8,0:0:0:0:
256,192,78297,1,0,0:0:0:0:
256,192,78497,1,12,0:0:0:0:
256,192,78897,1,4,0:0:0:0:
256,192,79197,1,0,0:0:0:0:
256,192,79497,1,8,0:0:0:0:
256,192,79697,1,0,0:0:0:0:
256,192,79897,1,8,0:0:0:0:
256,192,80097,1,0,0:0:0:0:
256,192,80397,1,8,0:0:0:0:
256,192,80697,1,0,0:0:0:0:
256,192,80997,1,8,0:0:0:0:
256,192,81297,1,0,0:0:0:0:
256,192,81697,1,8,0:0:0:0:
256,192,81997,1,8,0:0:0:0:
256,192,82297,1,0,0:0:0:0:
256,192,82597,1,8,0:0:0:0:
256,192,82897,1,0,0:0:0:0:
256,192,83097,1,0,0:0:0:0:
256,192,83297,1,8,0:0:0:0:
256,192,83497,1,0,0:0:0:0:
256,192,83897,1,0,0:0:0:0:
256,192,84097,1,8,0:0:0:0:
256,192,84297,1,0,0:0:0:0:
256,192,84897,1,4,0:0:0:0:
256,192,85197,1,8,0:0:0:0:
256,192,85497,1,0,0:0:0:0:
256,192,85797,1,8,0:0:0:0:
256,192,86097,1,0,0:0:0:0:
256,192,86397,1,8,0:0:0:0:
256,192,86697,1,0,0:0:0:0:
256,192,86997,1,8,0:0:0:0:
256,192,87297,1,0,0:0:0:0:
256,192,87597,1,8,0:0:0:0:
256,192,87897,1,0,0:0:0:0:
256,192,88197,1,8,0:0:0:0:
256,192,88497,1,0,0:0:0:0:
256,192,88797,1,8,0:0:0:0:
256,192,89097,1,0,0:0:0:0:
256,192,89397,1,8,0:0:0:0:
256,192,89697,1,0,0:0:0:0:
256,192,89897,1,0,0:0:0:0:
256,192,89997,1,0,0:0:0:0:
256,192,90097,1,0,0:0:0:0:
256,192,90297,1,8,0:0:0:0:
256,192,90497,1,0,0:0:0:0:
256,192,90597,1,0,0:0:0:0:
256,192,90697,1,0,0:0:0:0:
256,192,90897,5,8,0:0:0:0:
256,192,91097,1,0,0:0:0:0:
256,192,91297,1,12,0:0:0:0:
256,192,91697,1,0,0:0:0:0:
256,192,92097,1,8,0:0:0:0:
256,192,92397,1,0,0:0:0:0:
256,192,92897,1,8,0:0:0:0:
256,192,93497,1,0,0:0:0:0:
256,192,93697,1,8,0:0:0:0:
256,192,94097,1,8,0:0:0:0:
256,192,94497,1,0,0:0:0:0:
256,192,94697,1,8,0:0:0:0:
256,192,95097,1,8,0:0:0:0:
256,192,95297,1,8,0:0:0:0:
256,192,95597,1,0,0:0:0:0:
256,192,96097,1,0,0:0:0:0:
256,192,96397,1,8,0:0:0:0:
256,192,96697,1,0,0:0:0:0:
256,192,96897,1,8,0:0:0:0:
256,192,96997,1,8,0:0:0:0:
256,192,97097,1,8,0:0:0:0:
256,192,97297,1,8,0:0:0:0:
256,192,97497,1,8,0:0:0:0:
256,192,97697,1,4,0:0:0:0:
256,192,98097,1,0,0:0:0:0:
256,192,98497,1,8,0:0:0:0:
256,192,98797,1,0,0:0:0:0:
256,192,99297,1,8,0:0:0:0:
256,192,99897,1,0,0:0:0:0:
256,192,100097,1,8,0:0:0:0:
256,192,100497,1,0,0:0:0:0:
256,192,100697,1,0,0:0:0:0:
256,192,100897,1,8,0:0:0:0:
256,192,101697,1,12,0:0:0:0:
256,192,101997,1,4,0:0:0:0:
256,192,102297,1,12,0:0:0:0:
256,192,102497,1,0,0:0:0:0:
256,192,102697,1,0,0:0:0:0:
256,192,103097,1,0,0:0:0:0:
256,192,103297,1,8,0:0:0:0:
256,192,103597,1,0,0:0:0:0:
256,192,103897,1,0,0:0:0:0:
256,192,104097,1,8,0:0:0:0:
256,192,104897,1,12,0:0:0:0:
256,192,105197,1,0,0:0:0:0:
256,192,105697,1,8,0:0:0:0:
256,192,106297,1,0,0:0:0:0:
256,192,106497,1,8,0:0:0:0:
256,192,106897,1,8,0:0:0:0:
256,192,107297,1,0,0:0:0:0:
256,192,107497,1,8,0:0:0:0:
256,192,107897,1,8,0:0:0:0:
256,192,108097,1,8,0:0:0:0:
256,192,108397,1,0,0:0:0:0:
256,192,108897,1,8,0:0:0:0:
256,192,109197,1,0,0:0:0:0:
256,192,109497,1,8,0:0:0:0:
256,192,109697,1,0,0:0:0:0:
256,192,109797,1,0,0:0:0:0:
256,192,109897,1,0,0:0:0:0:
256,192,110097,1,8,0:0:0:0:
256,192,110297,1,8,0:0:0:0:
256,192,110497,1,4,0:0:0:0:
256,192,110897,1,0,0:0:0:0:
256,192,111297,1,8,0:0:0:0:
256,192,111597,1,0,0:0:0:0:
256,192,112097,1,8,0:0:0:0:
256,192,112697,1,0,0:0:0:0:
256,192,112897,1,8,0:0:0:0:
256,192,113297,1,8,0:0:0:0:
256,192,113697,1,8,0:0:0:0:
256,192,113897,1,8,0:0:0:0:
256,192,114097,1,0,0:0:0:0:
256,192,114297,1,8,0:0:0:0:
256,192,114497,1,4,0:0:0:0:
256,192,114797,1,12,0:0:0:0:
256,192,115097,1,12,0:0:0:0:
256,192,115297,1,0,0:0:0:0:
256,192,115497,1,0,0:0:0:0:
256,192,115897,1,0,0:0:0:0:
256,192,116097,1,8,0:0:0:0:
256,192,116497,1,0,0:0:0:0:
256,192,116897,1,8,0:0:0:0:
