osu file format v14

[General]
AudioFilename: MilK.mp3
AudioLeadIn: 0
PreviewTime: 90840
Countdown: 1
SampleSet: Soft
StackLeniency: 0.7
Mode: 0
LetterboxInBreaks: 1
WidescreenStoryboard: 0

[Editor]
Bookmarks: 14440,20840,27240,52840,65640,91240,110340,116840
DistanceSpacing: 1.4
BeatDivisor: 8
GridSize: 4
TimelineZoom: 8

[Metadata]
Title:MilK
TitleUnicode:MilK
Artist:Morimori Atsushi
ArtistUnicode:Morimori Atsushi
Creator:Sinch
Version:Q P Q P AN
Source:BMS
Tags:sinch bofu2015
BeatmapID:793037
BeatmapSetID:360868

[Difficulty]
HPDrainRate:7
CircleSize:4
OverallDifficulty:7
ApproachRate:9
SliderMultiplier:1.8
SliderTickRate:1

[Events]
//Background and Video events
0,0,"smile.jpg",0,0
//Break Periods
//Storyboard Layer 0 (Background)
//Storyboard Layer 1 (Fail)
//Storyboard Layer 2 (Pass)
//Storyboard Layer 3 (Foreground)
//Storyboard Sound Samples

[TimingPoints]
1640,400,4,2,1,70,1,0
14440,-83.3333333333333,4,2,1,70,0,0
20440,-83.3333333333333,4,2,2,70,0,0
20640,-83.3333333333333,4,2,1,70,0,0
20840,-71.4285714285714,4,2,1,70,0,0
26840,-100,4,2,20,60,0,0
27240,-83.3333333333333,4,2,1,70,0,0
28040,-100,4,2,1,70,0,0
28540,-100,4,2,1,5,0,0
28640,-100,4,2,1,70,0,0
28840,-83.3333333333333,4,2,1,70,0,0
29640,-100,4,2,1,70,0,0
30140,-100,4,2,1,5,0,0
30240,-100,4,2,1,70,0,0
30440,-83.3333333333333,4,2,1,70,0,0
31240,-100,4,2,1,70,0,0
31740,-100,4,2,1,5,0,0
31840,-100,4,2,1,70,0,0
32040,-83.3333333333333,4,2,1,70,0,0
33040,-62.5,4,2,10,60,0,0
33140,-62.5,4,2,1,5,0,0
33240,-62.5,4,2,10,60,0,0
33340,-62.5,4,2,1,5,0,0
33440,-62.5,4,2,10,60,0,0
33540,-62.5,4,2,1,5,0,0
33640,-83.3333333333333,4,2,1,70,0,0
34440,-100,4,2,1,70,0,0
34940,-100,4,2,1,5,0,0
35040,-100,4,2,1,70,0,0
35240,-83.3333333333333,4,2,1,70,0,0
36040,-100,4,2,1,70,0,0
36540,-100,4,2,1,5,0,0
36640,-100,4,2,1,70,0,0
36840,-83.3333333333333,4,2,1,70,0,0
37640,-62.5,4,2,1,70,0,0
38240,-100,4,2,1,70,0,0
39240,-71.4285714285714,4,2,1,70,0,0
40040,-100,4,2,1,70,0,0
41340,-100,4,2,1,5,0,0
41440,-100,4,2,1,70,0,0
41640,-83.3333333333333,4,2,1,70,0,0
42440,-100,4,2,1,70,0,0
42940,-100,4,2,1,5,0,0
43040,-100,4,2,1,70,0,0
43240,-83.3333333333333,4,2,1,70,0,0
44040,-100,4,2,1,70,0,0
44540,-100,4,2,1,5,0,0
44640,-100,4,2,1,70,0,0
44840,-83.3333333333333,4,2,1,70,0,0
45840,-62.5,4,2,10,60,0,0
45940,-62.5,4,2,1,5,0,0
46040,-62.5,4,2,10,60,0,0
46140,-62.5,4,2,1,5,0,0
46240,-62.5,4,2,10,60,0,0
46340,-62.5,4,2,1,5,0,0
46440,-83.3333333333333,4,2,1,70,0,0
47240,-100,4,2,1,70,0,0
47740,-100,4,2,1,5,0,0
47840,-100,4,2,1,70,0,0
48040,-83.3333333333333,4,2,1,70,0,0
48840,-100,4,2,1,70,0,0
49240,-71.4285714285714,4,2,1,70,0,0
50440,-62.5,4,2,1,70,0,0
51040,-100,4,2,1,70,0,0
52040,-50,4,2,20,60,0,0
52840,-71.4285714285714,4,2,2,70,0,0
65240,-71.4285714285714,4,2,19,60,0,0
65640,-71.4285714285714,4,2,1,70,0,0
66840,-55.5555555555556,4,2,1,70,0,0
67240,-71.4285714285714,4,2,1,70,0,0
71640,-71.4285714285714,4,2,19,60,0,0
72040,-71.4285714285714,4,2,1,70,0,0
73240,-55.5555555555556,4,2,1,70,0,0
73640,-71.4285714285714,4,2,1,70,0,0
78440,-83.3333333333333,4,2,19,60,0,0
78840,-71.4285714285714,4,2,1,70,0,0
79440,-55.5555555555556,4,2,1,70,0,0
80040,-71.4285714285714,4,2,1,70,0,0
84440,-100,4,2,19,60,0,0
84840,-71.4285714285714,4,2,1,70,0,0
88040,-71.4285714285714,4,2,1,40,0,0
90840,-100,4,2,20,60,0,0
91240,-83.3333333333333,4,2,1,70,0,0
92040,-100,4,2,1,70,0,0
92540,-100,4,2,1,5,0,0
92640,-100,4,2,1,70,0,0
92840,-83.3333333333333,4,2,1,70,0,0
93640,-100,4,2,1,70,0,0
94140,-100,4,2,1,5,0,0
94240,-100,4,2,1,70,0,0
94440,-83.3333333333333,4,2,1,70,0,0
95240,-100,4,2,1,70,0,0
95740,-100,4,2,1,5,0,0
95840,-100,4,2,1,70,0,0
96040,-83.3333333333333,4,2,1,70,0,0
97040,-62.5,4,2,10,60,0,0
97140,-62.5,4,2,1,5,0,0
97240,-62.5,4,2,10,60,0,0
97340,-62.5,4,2,1,5,0,0
97440,-62.5,4,2,10,60,0,0
97540,-62.5,4,2,1,5,0,0
97640,-83.3333333333333,4,2,1,70,0,0
98440,-100,4,2,1,70,0,0
98940,-100,4,2,1,5,0,0
99040,-100,4,2,1,70,0,0
99240,-83.3333333333333,4,2,1,70,0,0
100040,-100,4,2,1,70,0,0
100540,-100,4,2,1,5,0,0
100640,-100,4,2,1,70,0,0
100840,-83.3333333333333,4,2,1,70,0,0
101640,-62.5,4,2,1,70,0,0
102240,-100,4,2,1,70,0,0
103240,-71.4285714285714,4,2,1,70,0,0
104040,-100,4,2,1,70,0,0
105340,-100,4,2,1,5,0,0
105440,-100,4,2,1,70,0,0
105640,-83.3333333333333,4,2,1,70,0,0
106440,-100,4,2,1,70,0,0
106940,-100,4,2,1,5,0,0
107040,-100,4,2,1,70,0,0
107240,-83.3333333333333,4,2,1,70,0,0
108040,-100,4,2,1,70,0,0
108540,-100,4,2,1,5,0,0
108640,-100,4,2,1,70,0,0
108840,-83.3333333333333,4,2,1,70,0,0
109840,-62.5,4,2,10,60,0,0
109940,-62.5,4,2,1,5,0,0
110040,-62.5,4,2,10,60,0,0
110140,-62.5,4,2,1,5,0,0
110240,-62.5,4,2,10,60,0,0
110340,-62.5,4,2,1,5,0,0
110440,-83.3333333333333,4,2,1,70,0,0
111240,-100,4,2,1,70,0,0
111740,-100,4,2,1,5,0,0
111840,-100,4,2,1,70,0,0
112040,-83.3333333333333,4,2,1,70,0,0
112840,-100,4,2,1,70,0,0
113240,-71.4285714285714,4,2,1,70,0,0
114440,-62.5,4,2,1,70,0,0
115040,-100,4,2,1,70,0,0
116040,-100,4,2,20,60,0,0
116840,-100,4,2,10,60,0,0

[HitObjects]
86,94,1640,5,0,0:0:0:0:
40,268,2440,1,0,0:0:0:0:
213,221,3240,1,0,0:0:0:0:
86,94,4240,5,0,0:0:0:0:
192,24,4440,1,0,0:0:0:0:
200,148,4640,1,0,0:0:0:0:
399,68,5040,6,0,B|320:52|288:108|180:76,2,180
352,164,6240,1,0,0:0:0:0:
460,152,6640,1,0,0:0:0:0:
416,244,7040,1,0,0:0:0:0:
408,364,7440,1,0,0:0:0:0:
308,304,7840,1,0,0:0:0:0:
308,304,8040,5,0,0:0:0:0:
181,177,8840,1,0,0:0:0:0:
135,351,9640,1,0,0:0:0:0:
308,304,10640,5,0,0:0:0:0:
388,232,10840,1,0,0:0:0:0:
284,200,11040,1,0,0:0:0:0:
391,37,11440,6,0,B|388:112|328:144|338:205,2,180
256,96,12640,1,0,0:0:0:0:
256,192,12840,12,0,14040,0:0:0:0:
256,96,14440,5,0,0:0:0:0:
292,244,14640,1,0,0:0:0:0:
392,104,14840,2,0,L|284:115,1,107.999996704102,2|0,0:0|0:0,0:0:0:0:
88,192,15240,1,2,0:0:0:0:
160,60,15440,1,0,0:0:0:0:
252,232,15640,2,0,P|242:188|208:132,1,107.999996704102,2|0,0:0|0:0,0:0:0:0:
176,340,16040,5,2,0:0:0:0:
308,268,16240,1,0,0:0:0:0:
436,347,16440,2,0,P|457:299|452:246,1,107.999996704102,2|0,0:0|0:0,0:0:0:0:
308,276,16840,1,2,0:0:0:0:
460,236,17040,1,0,0:0:0:0:
347,191,17240,2,0,P|295:184|245:205,1,107.999996704102,2|0,0:0|0:0,0:0:0:0:
216,292,17640,5,2,0:0:0:0:
152,156,17840,1,0,0:0:0:0:
52,268,18040,2,0,B|112:256|112:256|145:222,1,107.999996704102,2|0,0:0|0:0,0:0:0:0:
256,64,18440,1,2,0:0:0:0:
92,120,18640,1,0,0:0:0:0:
255,240,18840,2,0,P|252:186|223:141,1,107.999996704102,2|0,0:0|0:0,0:0:0:0:
324,100,19240,5,2,0:0:0:0:
176,212,19440,1,0,0:0:0:0:
360,232,19640,1,2,0:0:0:0:
176,212,19840,1,0,0:0:0:0:
228,68,20040,5,2,0:0:0:0:
255,240,20240,1,0,0:0:0:0:
388,132,20440,1,8,0:1:0:0:
280,148,20640,1,0,0:0:0:0:
280,148,20740,1,0,0:0:0:0:
280,148,20840,2,0,L|155:166,1,125.999996154785,2|0,0:0|0:0,0:0:0:0:
92,104,21140,1,2,0:0:0:0:
92,103,21240,2,0,P|63:158|79:217,1,125.999996154785,2|0,0:0|0:0,0:0:0:0:
44,300,21540,1,2,0:0:0:0:
43,300,21640,2,0,P|98:271|158:285,1,125.999996154785,2|0,0:0|0:0,0:0:0:0:
204,360,21940,5,2,0:0:0:0:
204,360,22040,2,0,L|214:297,1,62.9999980773926,2|0,0:0|0:0,0:0:0:0:
292,240,22240,2,0,L|300:312,1,62.9999980773926,2|0,0:0|0:0,0:0:0:0:
384,348,22440,2,0,P|393:318|388:288,1,62.9999980773926,2|0,0:0|0:0,0:0:0:0:
387,287,22640,1,2,0:0:0:0:
472,244,22840,5,2,3:2:0:0:
446,208,22940,1,0,3:2:0:0:
407,189,23040,1,2,3:2:0:0:
363,193,23140,1,0,3:2:0:0:
327,216,23240,2,0,P|271:240|224:203,1,125.999996154785,2|2,3:2|3:2,3:2:0:0:
228,184,23540,1,0,3:2:0:0:
204,220,23640,1,2,3:2:0:0:
180,256,23740,1,0,3:2:0:0:
156,292,23840,2,0,L|116:356,1,62.9999980773926,2|0,3:2|3:2,3:2:0:0:
244,296,24040,5,2,3:2:0:0:
232,338,24140,1,2,3:2:0:0:
202,370,24240,1,2,3:2:0:0:
161,384,24340,1,2,3:2:0:0:
118,377,24440,1,2,3:2:0:0:
83,350,24540,1,2,3:2:0:0:
65,311,24640,1,2,3:2:0:0:
67,267,24740,1,2,3:2:0:0:
90,230,24840,5,2,3:2:0:0:
116,247,24940,1,2,3:2:0:0:
147,250,25040,1,2,3:2:0:0:
177,240,25140,1,2,3:2:0:0:
199,219,25240,1,2,3:2:0:0:
210,189,25340,1,2,3:2:0:0:
207,158,25440,1,2,3:2:0:0:
191,131,25540,1,2,3:2:0:0:
152,116,25640,6,0,P|198:111|240:89,1,94.499997116089,8|0,3:1|3:1,3:1:0:0:
304,28,25840,2,0,P|290:19|276:12,3,31.4999990386963,0|0|0|0,3:1|3:1|3:1|3:1,3:1:0:0:
380,76,26040,2,0,P|380:60|379:44,3,31.4999990386963,0|0|0|0,3:1|3:1|3:1|3:1,3:1:0:0:
332,139,26240,2,0,P|340:185|373:219,1,94.499997116089,8|0,3:1|3:1,3:1:0:0:
460,216,26440,2,0,P|460:240|440:260,3,31.4999990386963,0|0|0|0,3:1|3:1|3:1|3:1,3:1:0:0:
392,304,26640,2,0,P|377:309|361:305,3,31.4999990386963,0|0|0|0,3:1|3:1|3:1|3:1,3:1:0:0:
297,258,26840,6,0,B|272:244|232:328|240:220|173:284,1,135,4|0,0:0|0:0,0:0:0:0:
87,348,27240,6,0,P|67:298|72:245,1,107.999996704102,2|4,0:0|0:0,0:0:0:0:
72,245,27540,1,0,0:0:0:0:
71,244,27640,2,0,P|98:247|124:238,1,53.9999983520508,4|0,0:0|0:0,0:0:0:0:
220,152,27840,2,0,P|193:149|167:158,1,53.9999983520508,4|0,0:0|0:0,0:0:0:0:
80,160,28040,6,0,B|60:96|88:48|88:48|156:60|178:102,1,225,8|0,0:0|0:0,0:0:0:0:
180,216,28640,1,4,0:0:0:0:
231,344,28840,6,0,P|274:313|281:261,1,107.999996704102,4|4,0:0|0:0,0:0:0:0:
281,261,29140,1,0,0:0:0:0:
281,261,29240,2,0,P|312:236|336:240,1,53.9999983520508,4|0,0:0|0:0,0:0:0:0:
408,287,29440,2,0,P|412:261|406:235,1,53.9999983520508,6|0,0:0|0:0,0:0:0:0:
432,160,29640,6,0,B|452:96|424:48|424:48|356:60|333:102,1,225,8|0,0:0|0:0,0:0:0:0:
332,216,30240,1,4,0:0:0:0:
204,308,30440,6,0,L|311:321,1,107.999996704102,2|4,0:0|0:0,0:0:0:0:
311,321,30740,1,0,0:0:0:0:
311,321,30840,1,4,0:0:0:0:
432,372,31040,5,4,0:0:0:0:
432,372,31140,1,0,0:0:0:0:
432,371,31240,2,0,P|420:273|324:298,1,225,8|0,0:0|0:0,0:0:0:0:
256,228,31840,1,4,0:0:0:0:
332,96,32040,6,0,L|224:90,1,107.999996704102,10|8,0:0|0:0,0:0:0:0:
216,168,32340,2,0,L|108:171,1,107.999996704102,8|8,0:0|0:0,0:0:0:0:
100,248,32640,2,0,L|47:259,1,53.9999983520508,10|0,0:0|0:0,0:0:0:0:
168,352,32840,5,8,0:0:0:0:
224,300,32940,1,8,0:0:0:0:
224,223,33040,2,0,P|257:212|293:215,1,72,10|0,0:0|0:0,0:0:0:0:
388,324,33240,2,0,P|361:300|345:268,1,72,10|0,0:0|0:0,0:0:0:0:
396,132,33440,2,0,P|388:167|368:196,1,72,10|0,0:0|0:0,0:0:0:0:
315,324,33640,6,0,P|311:271|276:230,1,107.999996704102,2|4,0:0|0:0,0:0:0:0:
276,230,33940,1,0,0:0:0:0:
276,230,34040,2,0,P|254:215|228:211,1,53.9999983520508,4|0,0:0|0:0,0:0:0:0:
188,288,34240,2,0,P|162:278|136:281,1,53.9999983520508,4|0,0:0|0:0,0:0:0:0:
93,356,34440,6,0,B|44:312|24:240|112:216|88:184|67:150,1,225,8|0,0:0|0:0,0:0:0:0:
24,84,35040,1,4,0:0:0:0:
208,51,35240,6,0,P|161:78|108:79,1,107.999996704102,4|4,0:0|0:0,0:0:0:0:
108,79,35540,1,0,0:0:0:0:
108,79,35640,2,0,P|114:105|131:126,1,53.9999983520508,4|0,0:0|0:0,0:0:0:0:
196,164,35840,2,0,P|222:167|248:158,1,53.9999983520508,6|0,0:0|0:0,0:0:0:0:
312,116,36040,6,0,B|361:160|381:232|293:256|317:288|338:322,1,225,8|0,0:0|0:0,0:0:0:0:
408,280,36640,1,4,0:0:0:0:
408,280,36840,6,0,P|400:268|391:259,7,26.9999991760254
359,235,37240,2,0,P|320:231|284:249,1,80.9999975280763
284,324,37440,5,2,0:0:0:0:
208,312,37540,1,2,0:0:0:0:
131,299,37640,2,0,P|100:239|142:186,1,144,2|0,0:0|0:0,0:0:0:0:
257,138,37940,2,0,P|212:86|148:108,1,144,2|0,0:0|0:0,0:0:0:0:
60,176,38240,6,0,L|329:157,1,270,2|2,0:0|0:0,0:0:0:0:
329,157,39040,1,0,0:0:0:0:
424,72,39240,5,8,0:0:0:0:
423,71,39340,2,0,P|443:95|448:126,1,62.9999980773926,8|0,0:0|0:0,0:0:0:0:
384,208,39540,2,0,L|321:208,1,62.9999980773926,2|0,0:0|0:0,0:0:0:0:
244,272,39740,1,8,0:0:0:0:
244,271,39840,2,0,P|238:302|251:330,1,62.9999980773926,2|0,0:0|0:0,0:0:0:0:
268,335,40040,6,0,B|208:360|208:360|172:336|172:336|124:344|124:344|95:307,1,202.5,2|0,2:3|0:0,0:0:0:0:
68,324,40540,2,0,L|40:344,4,22.5
88,275,40840,6,0,P|126:178|39:120,1,225,2|0,0:0|0:0,0:0:0:0:
44,204,41440,1,4,0:0:0:0:
212,128,41640,6,0,P|160:115|117:145,1,107.999996704102,4|4,0:0|0:0,0:0:0:0:
212,128,41940,1,0,0:0:0:0:
211,127,42040,2,0,P|227:148|251:158,1,53.9999983520508,4|0,0:0|0:0,0:0:0:0:
339,159,42240,2,0,L|403:143,1,53.9999983520508,6|0,0:0|0:0,0:0:0:0:
472,120,42440,6,0,P|385:178|423:275,1,225,8|0,0:0|0:0,0:0:0:0:
468,204,43040,1,4,0:0:0:0:
468,204,43240,6,0,P|416:192|366:212,1,107.999996704102,2|4,0:0|0:0,0:0:0:0:
366,212,43540,1,0,0:0:0:0:
366,212,43640,1,4,0:0:0:0:
300,320,43840,5,4,0:0:0:0:
300,320,43940,1,0,0:0:0:0:
300,320,44040,2,0,B|256:300|224:344|224:344|200:284|152:332|152:332|117:308,1,225,8|0,0:0|0:0,0:0:0:0:
156,236,44640,1,4,0:0:0:0:
32,228,44840,6,0,P|72:194|80:141,1,107.999996704102,10|0,0:0|0:0,0:0:0:0:
36,68,45140,2,0,P|79:98|131:92,1,107.999996704102,8|0,0:0|0:0,0:0:0:0:
216,68,45440,2,0,P|196:86|184:110,1,53.9999983520508,10|0,0:0|0:0,0:0:0:0:
320,28,45640,5,8,0:0:0:0:
336,100,45740,1,8,0:0:0:0:
284,152,45840,2,0,L|326:210,1,72,10|0,0:0|0:0,0:0:0:0:
300,352,46040,2,0,L|329:286,1,72,10|0,0:0|0:0,0:0:0:0:
464,240,46240,2,0,L|392:247,1,72,10|0,0:0|0:0,0:0:0:0:
220,316,46440,6,0,L|327:306,1,107.999996704102,2|4,0:0|0:0,0:0:0:0:
327,306,46740,1,0,0:0:0:0:
327,306,46840,2,0,P|335:280|334:253,1,53.9999983520508,4|0,0:0|0:0,0:0:0:0:
304,128,47040,2,0,P|296:153|297:180,1,53.9999983520508,4|0,0:0|0:0,0:0:0:0:
467,200,47240,6,0,P|362:236|252:218,1,225,8|0,0:0|0:0,0:0:0:0:
224,144,47840,1,4,0:0:0:0:
172,328,48040,6,0,L|202:224,1,107.999996704102,4|4,0:0|0:0,0:0:0:0:
202,224,48340,1,0,0:0:0:0:
202,224,48440,2,0,P|177:232|150:228,1,53.9999983520508,4|0,0:0|0:0,0:0:0:0:
60,264,48640,2,0,P|51:238|56:212,1,53.9999983520508,6|0,0:0|0:0,0:0:0:0:
20,127,48840,6,0,P|85:96|128:154,1,157.5,8|0,0:0|0:0,0:0:0:0:
112,172,49240,6,0,B|172:160|172:160|229:130,1,125.999996154785,4|4,0:0|0:0,0:0:0:0:
220,56,49540,1,4,0:0:0:0:
244,128,49640,2,0,B|284:136|284:136|312:128|312:128|360:144,1,94.499997116089,4|0,0:0|0:0,0:0:0:0:
436,152,49840,2,0,P|380:144|360:180,1,94.499997116089,4|0,0:0|0:0,0:0:0:0:
368,220,50040,2,0,L|377:282,1,62.9999980773926,4|0,0:0|0:0,0:0:0:0:
388,356,50240,1,2,0:0:0:0:
388,356,50440,6,0,L|249:316,1,144,2|0,0:0|0:0,0:0:0:0:
108,284,50740,2,0,L|246:244,1,144,2|0,0:0|0:0,0:0:0:0:
386,210,51040,6,0,B|296:120|224:224|137:140,1,270,2|2,0:0|0:0,0:0:0:0:
137,140,51840,1,0,0:0:0:0:
296,56,52040,5,2,0:0:0:0:
216,288,52240,1,8,0:0:0:0:
296,56,52440,1,2,0:0:0:0:
216,288,52640,1,8,0:0:0:0:
380,212,52840,5,2,3:2:0:0:
359,188,52940,1,0,3:2:0:0:
332,171,53040,1,0,3:2:0:0:
302,163,53140,1,0,3:2:0:0:
271,164,53240,2,0,P|240:169|215:188,1,62.9999980773926,2|0,3:2|3:2,3:2:0:0:
83,140,53440,2,0,P|113:131|142:142,1,62.9999980773926,0|0,3:2|3:2,3:2:0:0:
224,96,53640,5,2,3:2:0:0:
220,116,53740,1,0,3:2:0:0:
216,136,53840,1,0,3:2:0:0:
212,156,53940,1,0,3:2:0:0:
208,176,54040,2,0,L|196:240,1,62.9999980773926,2|0,3:2|3:2,3:2:0:0:
104,340,54240,2,0,L|116:276,1,62.9999980773926,0|0,3:2|3:2,3:2:0:0:
84,144,54440,5,2,3:2:0:0:
76,188,54540,1,0,3:2:0:0:
80,232,54640,1,0,3:2:0:0:
96,272,54740,1,0,3:2:0:0:
96,272,54840,5,2,3:2:0:0:
102,230,54940,1,0,3:2:0:0:
121,189,55040,1,0,3:2:0:0:
150,155,55140,1,0,3:2:0:0:
150,155,55240,5,2,3:2:0:0:
157,199,55340,1,0,3:2:0:0:
176,239,55440,1,0,3:2:0:0:
205,271,55540,1,0,3:2:0:0:
205,271,55640,5,2,3:2:0:0:
226,233,55740,1,0,3:2:0:0:
256,202,55840,2,0,P|281:182|312:177,1,62.9999980773926,0|0,3:2|3:2,3:2:0:0:
384,80,56040,5,2,3:2:0:0:
407,100,56140,1,0,3:2:0:0:
425,126,56240,1,0,3:2:0:0:
434,156,56340,1,0,3:2:0:0:
435,187,56440,2,0,P|428:218|412:245,1,62.9999980773926,2|0,3:2|3:2,3:2:0:0:
324,264,56640,2,0,L|261:254,1,62.9999980773926,2|0,3:2|3:2,3:2:0:0:
172,216,56840,5,2,3:2:0:0:
160,244,56940,1,0,3:2:0:0:
158,276,57040,1,0,3:2:0:0:
168,306,57140,1,0,3:2:0:0:
188,330,57240,2,0,L|125:324,1,62.9999980773926,2|0,3:2|3:2,3:2:0:0:
304,272,57440,2,0,L|241:266,1,62.9999980773926,2|0,3:2|3:2,3:2:0:0:
400,324,57640,5,2,3:2:0:0:
392,300,57740,1,0,3:2:0:0:
384,276,57840,1,0,3:2:0:0:
376,252,57940,1,0,3:2:0:0:
400,232,58040,5,2,3:2:0:0:
404,220,58140,1,0,3:2:0:0:
408,208,58240,1,0,3:2:0:0:
412,196,58340,1,0,3:2:0:0:
392,172,58440,5,2,3:2:0:0:
384,148,58540,1,0,3:2:0:0:
376,124,58640,1,0,3:2:0:0:
368,100,58740,1,0,3:2:0:0:
392,80,58840,5,8,3:1:0:0:
396,68,58940,1,0,3:2:0:0:
400,56,59040,1,0,3:2:0:0:
404,44,59140,1,0,3:0:0:0:
416,39,59240,6,0,P|356:54|302:23,1,125.999996154785,2|0,0:0|0:0,0:0:0:0:
302,23,59540,1,2,0:0:0:0:
302,23,59640,2,0,P|299:84|249:119,1,125.999996154785,2|0,0:0|0:0,0:0:0:0:
192,184,59940,1,2,0:0:0:0:
192,182,60040,2,0,P|134:163|115:105,1,125.999996154785,2|0,0:0|0:0,0:0:0:0:
115,105,60340,1,2,0:0:0:0:
115,105,60440,2,0,L|64:192,1,62.9999980773926,2|0,0:0|0:0,0:0:0:0:
120,240,60640,2,0,L|68:326,1,62.9999980773926,2|0,0:0|0:0,0:0:0:0:
268,268,60840,6,0,P|238:257|207:257,1,62.9999980773926,2|0,0:0|0:0,0:0:0:0:
224,348,61040,2,0,P|253:358|284:358,1,62.9999980773926,2|0,0:0|0:0,0:0:0:0:
352,300,61240,1,2,0:0:0:0:
352,300,61340,1,0,0:0:0:0:
352,300,61440,1,2,0:0:0:0:
352,300,61540,1,0,0:0:0:0:
352,300,61640,2,0,L|383:177,1,125.999996154785,2|2,0:0|0:0,0:0:0:0:
464,84,61940,5,0,0:0:0:0:
439,120,62040,1,2,0:0:0:0:
401,141,62140,1,0,0:0:0:0:
357,141,62240,2,0,P|328:130|305:109,1,62.9999980773926,2|0,0:0|0:0,0:0:0:0:
268,16,62440,5,2,3:2:0:0:
268,16,62540,1,2,3:2:0:0:
268,16,62640,2,2,L|236:70,1,62.9999980773926,2|2,3:2|3:2,3:2:0:0:
48,136,62840,1,2,3:2:0:0:
92,156,62940,1,2,3:2:0:0:
136,180,63040,2,2,L|104:234,1,62.9999980773926,2|2,3:2|3:2,3:2:0:0:
340,228,63240,5,2,3:2:0:0:
296,208,63340,1,2,3:2:0:0:
252,184,63440,2,2,L|284:130,1,62.9999980773926,2|2,3:2|3:2,3:2:0:0:
120,348,63640,1,2,3:2:0:0:
120,348,63740,1,2,3:2:0:0:
120,348,63840,2,2,L|152:294,1,62.9999980773926,2|2,3:2|3:2,3:2:0:0:
251,255,64040,6,0,P|274:296|315:319,1,94.499997116089,2|0,3:1|3:2,3:2:0:0:
404,308,64240,2,0,L|440:316,3,31.4999990386963,0|0|0|0,3:2|3:2|3:2|3:2,3:2:0:0:
428,240,64440,2,0,L|464:248,3,31.4999990386963,0|0|0|0,3:2|3:2|3:2|3:2,3:2:0:0:
456,172,64640,2,0,P|414:152|400:108,1,94.499997116089,2|0,3:1|3:2,3:2:0:0:
339,44,64840,2,0,P|352:34|366:28,3,31.4999990386963,0|0|0|0,3:2|3:2|3:2|3:2,3:2:0:0:
268,68,65040,2,0,P|260:48|284:36,3,31.4999990386963,0|0|0|0,3:2|3:2|3:2|3:2,3:2:0:0:
324,116,65240,5,2,0:0:0:0:
296,188,65340,1,2,0:0:0:0:
268,256,65440,1,2,0:0:0:0:
240,324,65540,1,2,0:0:0:0:
148,280,65640,6,0,P|99:309|128:358,1,125.999996154785,2|0,0:0|0:0,0:0:0:0:
232,264,65940,2,0,P|201:210|142:194,1,125.999996154785,2|0,0:0|0:0,0:0:0:0:
68,240,66240,2,0,P|58:178|89:125,1,125.999996154785,2|0,0:0|0:0,0:0:0:0:
156,68,66540,2,0,L|281:74,1,125.999996154785,2|0,0:0|0:0,0:0:0:0:
396,72,66840,6,0,B|440:92|440:92|433:123,1,80.9999975280763,2|0,0:0|0:0,0:0:0:0:
380,224,67040,2,0,B|336:204|336:204|342:172,1,80.9999975280763,2|0,0:0|0:0,0:0:0:0:
476,215,67240,6,0,P|458:275|410:314,1,125.999996154785,2|0,0:0|0:0,0:0:0:0:
324,300,67540,2,0,L|198:296,1,125.999996154785,2|0,0:0|0:0,0:0:0:0:
112,316,67840,2,0,P|117:254|164:215,1,125.999996154785,2|0,0:0|0:0,0:0:0:0:
244,172,68140,2,0,L|118:168,1,125.999996154785,2|0,0:0|0:0,0:0:0:0:
32,188,68440,2,0,P|36:128|80:104,3,62.9999980773926,2|0|0|0,0:0|0:0|0:0|0:0,0:0:0:0:
118,168,68840,6,0,L|244:172,1,125.999996154785,2|0,0:0|0:0,0:0:0:0:
384,100,69140,2,0,L|258:96,1,125.999996154785,2|0,0:0|0:0,0:0:0:0:
172,71,69440,2,0,P|174:133|217:177,1,125.999996154785,2|0,0:0|0:0,0:0:0:0:
232,264,69740,2,0,P|234:202|277:158,1,125.999996154785,2|0,0:0|0:0,0:0:0:0:
316,240,70040,2,0,L|409:252,1,94.499997116089,2|0,0:0|0:0,0:0:0:0:
440,256,70240,2,0,P|447:225|444:194,1,62.9999980773926,2|0,0:0|0:0,0:0:0:0:
492,100,70440,5,0,3:2:0:0:
472,96,70540,1,0,3:2:0:0:
452,92,70640,1,0,3:2:0:0:
432,88,70740,1,0,3:2:0:0:
412,84,70840,5,0,3:2:0:0:
392,88,70940,1,0,3:2:0:0:
372,92,71040,1,0,3:2:0:0:
352,96,71140,1,0,3:2:0:0:
332,100,71240,5,0,3:2:0:0:
312,96,71340,1,0,3:2:0:0:
292,92,71440,2,0,L|230:76,1,62.9999980773926,0|0,3:2|3:2,3:2:0:0:
140,80,71640,5,2,0:0:0:0:
51,80,71740,1,2,0:0:0:0:
7,156,71840,1,2,0:0:0:0:
51,232,71940,1,2,0:0:0:0:
140,236,72040,6,0,B|188:188|188:188|222:234,1,125.999996154785,2|0,0:0|0:0,0:0:0:0:
219,323,72340,2,0,P|279:307|309:254,1,125.999996154785,2|0,0:0|0:0,0:0:0:0:
295,168,72640,2,0,P|345:132|405:144,1,125.999996154785,2|0,0:0|0:0,0:0:0:0:
492,124,72940,2,0,P|442:88|382:100,1,125.999996154785,2|0,0:0|0:0,0:0:0:0:
280,56,73240,6,0,B|208:72|208:72|208:79,1,80.9999975280763,2|0,0:0|0:0,0:0:0:0:
148,176,73440,2,0,B|220:160|220:160|220:152,1,80.9999975280763,2|0,0:0|0:0,0:0:0:0:
343,151,73640,6,0,P|339:212|286:241,1,125.999996154785,2|0,0:0|0:0,0:0:0:0:
207,279,73940,2,0,P|256:318|318:319,1,125.999996154785,2|0,0:0|0:0,0:0:0:0:
404,340,74240,2,0,L|392:212,1,125.999996154785,2|0,0:0|0:0,0:0:0:0:
308,148,74540,2,0,L|320:276,1,125.999996154785,2|0,0:0|0:0,0:0:0:0:
328,68,74840,2,0,P|296:65|267:76,3,62.9999980773926,2|0|0|0,0:0|0:0|0:0|0:0,0:0:0:0:
319,273,75240,6,0,L|308:148,1,125.999996154785,2|0,0:0|0:0,0:0:0:0:
376,88,75540,2,0,P|321:58|261:73,1,125.999996154785,2|0,0:0|0:0,0:0:0:0:
272,160,75840,2,0,P|212:174|157:145,1,125.999996154785,2|0,0:0|0:0,0:0:0:0:
140,60,76140,2,0,L|108:182,1,125.999996154785,2|0,0:0|0:0,0:0:0:0:
39,240,76440,2,0,P|82:221|127:232,1,94.499997116089,2|0,0:0|0:0,0:0:0:0:
156,248,76640,2,0,L|216:280,1,62.9999980773926,2|0,0:0|0:0,0:0:0:0:
263,348,76840,6,0,P|282:305|323:284,1,94.499997116089,8|0,3:1|3:1,3:1:0:0:
412,292,77040,2,0,L|444:292,7,31.4999990386963,0|0|0|0|0|0|0|0,3:1|3:1|3:1|3:1|3:1|3:1|3:1|3:1,3:1:0:0:
376,216,77440,2,0,L|384:120,1,94.499997116089,8|0,3:1|3:1,3:1:0:0:
320,60,77640,2,0,L|351:64,7,31.4999990386963,0|0|0|0|0|0|0|0,3:1|3:1|3:1|3:1|3:1|3:1|3:1|3:1,3:1:0:0:
239,28,78040,5,8,3:1:0:0:
217,65,78140,1,0,3:1:0:0:
217,109,78240,1,0,3:1:0:0:
238,147,78340,1,0,3:1:0:0:
271,177,78440,2,0,B|296:244|200:176|144:230,1,161.999995056153,8|0,0:0|0:0,0:0:0:0:
56,215,78840,6,0,P|66:276|115:314,1,125.999996154785,2|0,0:0|0:0,0:0:0:0:
200,296,79140,2,0,L|325:284,1,125.999996154785,2|0,0:0|0:0,0:0:0:0:
384,364,79440,6,0,L|376:264,1,80.9999975280763,2|0,0:0|0:0,0:0:0:0:
484,196,79640,2,0,P|453:191|408:215,1,80.9999975280763,2|0,0:0|0:0,0:0:0:0:
280,164,79840,2,0,P|290:193|332:220,1,80.9999975280763,2|0,0:0|0:0,0:0:0:0:
377,282,80040,6,0,P|407:229|390:170,1,125.999996154785,2|0,0:0|0:0,0:0:0:0:
300,144,80340,2,0,B|388:120|388:120|357:103,1,125.999996154785,2|0,0:0|0:0,0:0:0:0:
252,64,80640,2,0,B|164:88|164:88|194:104,1,125.999996154785,2|0,0:0|0:0,0:0:0:0:
336,48,80940,2,0,P|330:108|280:144,1,125.999996154785,2|0,0:0|0:0,0:0:0:0:
228,216,81240,2,0,L|300:216,3,62.9999980773926,2|0|0|0,0:0|0:0|0:0|0:0,0:0:0:0:
379,211,81640,6,0,P|361:270|308:303,1,125.999996154785,2|0,0:0|0:0,0:0:0:0:
228,340,81940,2,0,L|102:328,1,125.999996154785,2|0,0:0|0:0,0:0:0:0:
27,251,82240,2,0,P|85:275|146:264,1,125.999996154785,2|0,0:0|0:0,0:0:0:0:
239,252,82540,2,0,P|215:195|157:175,1,125.999996154785,2|0,0:0|0:0,0:0:0:0:
104,91,82840,2,0,P|89:133|127:155,1,94.499997116089,2|0,0:0|0:0,0:0:0:0:
156,140,83040,2,0,L|208:104,1,62.9999980773926,2|0,0:0|0:0,0:0:0:0:
276,40,83240,5,0,3:2:0:0:
288,56,83340,1,0,3:2:0:0:
296,72,83440,1,0,3:2:0:0:
300,92,83540,1,0,3:2:0:0:
300,112,83640,5,0,3:2:0:0:
320,108,83740,1,0,3:2:0:0:
336,100,83840,1,0,3:2:0:0:
352,88,83940,1,0,3:2:0:0:
364,72,84040,5,0,3:2:0:0:
376,88,84140,1,0,3:2:0:0:
383,103,84240,2,0,P|391:133|388:164,1,62.9999980773926,0|0,3:2|3:2,3:2:0:0:
340,240,84440,5,2,0:0:0:0:
328,327,84540,1,2,0:0:0:0:
241,342,84640,1,2,0:0:0:0:
200,265,84740,1,2,0:0:0:0:
261,201,84840,1,2,0:0:0:0:
256,192,84940,12,0,87840,0:0:0:0:
356,108,88040,6,2,L|364:77,31,31.4999990386963
404,196,89640,6,8,P|428:196|448:172,5,31.4999990386963,8|8|8|8|8|8,2:1|2:1|2:1|2:1|2:1|2:1,2:1:0:0:
272,160,89940,2,2,P|251:148|248:116,5,31.4999990386963
380,272,90240,6,8,P|400:284|408:316,5,31.4999990386963,8|8|8|8|8|8,2:1|2:1|2:1|2:1|2:1|2:1,2:1:0:0:
248,236,90540,2,2,P|224:236|208:260,5,31.4999990386963
324,216,90840,6,0,B|344:164|296:128|325:84,1,135,4|0,0:0|0:0,0:0:0:0:
432,107,91240,6,0,P|408:155|363:184,1,107.999996704102,2|4,0:0|0:0,0:0:0:0:
328,264,91540,1,0,0:0:0:0:
328,264,91640,2,0,P|303:252|286:232,1,53.9999983520508,4|0,0:0|0:0,0:0:0:0:
156,224,91840,2,0,L|224:188,1,53.9999983520508,4|0,0:0|0:0,0:0:0:0:
280,140,92040,6,0,B|236:168|224:232|264:276|264:276|196:312,1,225,8|0,0:0|0:0,0:0:0:0:
203,308,92640,1,0,0:0:0:0:
40,248,92840,6,0,L|164:244,1,107.999996704102,4|4,0:0|0:0,0:0:0:0:
156,224,93140,1,0,0:0:0:0:
164,204,93240,1,4,0:0:0:0:
132,40,93440,5,6,0:0:0:0:
124,60,93540,1,0,0:0:0:0:
116,80,93640,2,0,B|186:103|186:103|210:59|210:59|258:99|303:76,1,225,8|0,0:0|0:0,0:0:0:0:
356,24,94240,1,0,0:0:0:0:
484,196,94440,6,0,L|452:136,1,53.9999983520508,2|0,0:0|0:0,0:0:0:0:
384,148,94640,2,0,L|352:88,2,53.9999983520508,4|0|4,0:0|0:0|0:0,0:0:0:0:
436,292,95040,1,4,0:0:0:0:
435,292,95240,2,0,P|348:349|268:281,1,225,8|0,0:0|0:0,0:0:0:0:
344,248,95840,1,0,0:0:0:0:
176,204,96040,6,0,P|226:187|278:201,1,107.999996704102,10|0,0:0|0:0,0:0:0:0:
228,308,96340,2,0,P|177:324|125:310,1,107.999996704102,8|0,0:0|0:0,0:0:0:0:
60,216,96640,2,0,L|68:162,1,53.9999983520508,8|0,0:0|0:0,0:0:0:0:
260,216,96840,5,8,0:0:0:0:
176,204,96940,1,8,0:0:0:0:
92,192,97040,2,0,L|104:120,1,72,10|0,0:0|0:0,0:0:0:0:
260,216,97240,2,0,L|272:144,1,72,10|0,0:0|0:0,0:0:0:0:
428,240,97440,2,0,L|440:168,1,72,10|0,0:0|0:0,0:0:0:0:
288,100,97640,6,0,L|271:206,1,107.999996704102,2|4,0:0|0:0,0:0:0:0:
280,292,97940,1,0,0:0:0:0:
280,292,98040,2,0,P|254:273|216:268,1,53.9999983520508,4|0,0:0|0:0,0:0:0:0:
63,224,98240,2,0,P|89:231|106:251,1,53.9999983520508,4|0,0:0|0:0,0:0:0:0:
148,340,98440,6,0,L|144:115,1,225,8|0,0:0|0:0,0:0:0:0:
144,44,99040,1,0,0:0:0:0:
76,184,99240,6,0,P|122:210|174:204,1,107.999996704102,4|4,0:0|0:0,0:0:0:0:
184,184,99540,1,0,0:0:0:0:
192,164,99640,1,4,0:0:0:0:
296,60,99840,5,6,0:0:0:0:
288,80,99940,1,0,0:0:0:0:
280,100,100040,2,0,P|352:175|444:124,1,225,8|0,0:0|0:0,0:0:0:0:
392,64,100640,1,0,0:0:0:0:
392,64,100840,6,0,L|382:38,7,26.9999991760254
384,104,101240,2,0,P|380:143|404:174,1,80.9999975280763
480,224,101440,5,2,0:0:0:0:
400,260,101540,1,2,0:0:0:0:
319,296,101640,2,0,P|251:312|191:276,1,144,2|0,0:0|0:0,0:0:0:0:
164,72,101940,2,0,P|187:137|146:192,1,144,2|0,0:0|0:0,0:0:0:0:
64,247,102240,6,0,P|189:203|316:242,1,270,2|2,0:0|0:0,0:0:0:0:
316,242,103040,1,0,0:0:0:0:
432,328,103240,5,8,0:0:0:0:
431,329,103340,2,0,P|451:305|456:274,1,62.9999980773926,8|0,0:0|0:0,0:0:0:0:
392,192,103540,2,0,L|329:192,1,62.9999980773926,2|0,0:0|0:0,0:0:0:0:
252,128,103740,1,8,0:0:0:0:
252,129,103840,2,0,P|246:98|259:70,1,62.9999980773926,2|0,0:0|0:0,0:0:0:0:
301,51,104040,6,0,B|336:72|208:152|141:67,1,202.5,2|0,2:3|0:0,0:0:0:0:
136,48,104540,2,0,L|143:26,4,22.5
129,93,104840,6,0,B|172:136|112:184|112:184|156:208|160:252|132:276|120:275,1,225,2|0,0:0|0:0,0:0:0:0:
48,244,105440,1,0,0:0:0:0:
47,244,105640,6,0,P|86:207|138:199,1,107.999996704102,4|4,0:0|0:0,0:0:0:0:
228,172,105940,1,0,0:0:0:0:
227,171,106041,2,0,P|233:196|232:223,1,53.9999983520508,4|0,0:0|0:0,0:0:0:0:
227,307,106240,2,0,P|253:315|280:313,1,53.9999983520508,6|0,0:0|0:0,0:0:0:0:
382,290,106440,6,0,B|340:248|400:200|400:200|356:176|352:132|380:108|391:108,1,225,8|0,0:0|0:0,0:0:0:0:
464,140,107040,1,0,0:0:0:0:
320,44,107240,6,0,L|267:54,1,53.9999983520508,2|0,0:0|0:0,0:0:0:0:
224,128,107440,2,0,L|171:138,2,53.9999983520508,4|0|4,0:0|0:0|0:0,0:0:0:0:
52,96,107840,1,4,0:0:0:0:
52,96,108040,6,0,B|40:144|40:144|92:200|44:264|44:264|54:305,1,225,8|0,0:0|0:0,0:0:0:0:
54,305,108640,1,0,0:0:0:0:
236,272,108840,6,0,L|128:280,1,107.999996704102,10|0,0:0|0:0,0:0:0:0:
303,324,109140,2,0,P|321:273|306:222,1,107.999996704102,8|0,0:0|0:0,0:0:0:0:
176,188,109440,2,0,L|229:184,1,53.9999983520508,8|0,0:0|0:0,0:0:0:0:
332,192,109640,5,8,0:0:0:0:
332,116,109740,1,8,0:0:0:0:
332,40,109840,2,0,L|403:50,1,72,10|0,0:0|0:0,0:0:0:0:
332,192,110040,2,0,L|403:202,1,72,10|0,0:0|0:0,0:0:0:0:
332,344,110240,2,0,L|403:354,1,72,10|0,0:0|0:0,0:0:0:0:
444,224,110440,6,0,L|337:208,1,107.999996704102,2|4,0:0|0:0,0:0:0:0:
276,148,110740,1,0,0:0:0:0:
276,147,110840,2,0,P|250:155|231:174,1,53.9999983520508,4|0,0:0|0:0,0:0:0:0:
192,304,111040,2,0,P|198:277|191:252,1,53.9999983520508,4|0,0:0|0:0,0:0:0:0:
44,208,111240,6,0,P|136:246|167:151,1,225,8|0,0:0|0:0,0:0:0:0:
88,132,111840,1,0,0:0:0:0:
88,132,112040,6,0,L|100:240,1,107.999996704102,4|4,0:0|0:0,0:0:0:0:
104,272,112340,1,0,0:0:0:0:
108,304,112440,1,4,0:0:0:0:
240,348,112640,5,6,0:0:0:0:
240,348,112740,1,0,0:0:0:0:
240,348,112840,2,0,L|221:191,1,157.5,8|0,0:0|0:0,0:0:0:0:
192,160,113240,6,0,B|264:160|264:160|312:137,1,125.999996154785,4|4,0:0|0:0,0:0:0:0:
316,60,113540,1,4,0:0:0:0:
363,123,113640,2,0,B|392:152|368:192|387:212,1,94.499997116089,4|0,0:0|0:0,0:0:0:0:
444,272,113840,2,0,P|400:256|354:264,1,94.499997116089,4|0,0:0|0:0,0:0:0:0:
292,336,114040,2,0,L|273:275,1,62.9999980773926,4|0,0:0|0:0,0:0:0:0:
244,192,114240,1,2,0:0:0:0:
244,191,114440,6,0,P|236:123|172:97,1,144,2|0,0:0|0:0,0:0:0:0:
152,260,114740,2,0,P|159:328|223:354,1,144,2|0,0:0|0:0,0:0:0:0:
60,200,115040,6,0,P|78:78|200:88,1,270,2|2,0:0|0:0,0:0:0:0:
256,220,115840,1,8,0:0:0:0:
256,348,116040,5,2,0:0:0:0:
136,152,116240,1,8,0:0:0:0:
256,348,116440,1,2,0:0:0:0:
376,152,116640,1,8,0:0:0:0:
256,220,116840,2,0,L|256:197,1,22.5,8|0,0:0|0:0,0:0:0:0:
