osu file format v6

[General]
AudioFilename: Samurai Heart.mp3
AudioLeadIn: 0
PreviewTime: -1
Countdown: 1
SampleSet: None
StackLeniency: 1
Mode: 0
LetterboxInBreaks: 1
SkinPreference:Ruka

[Editor]
DistanceSpacing: 0.800000011920929
BeatDivisor: 4
GridSize: 8

[Metadata]
Title:Samurai Heart
Artist:Moriguchi Hiroko
Creator:arsrun
Version:Hard
Source:anime
Tags:Samurai Heart YoroiDen-Samurai Troopers

[Difficulty]
HPDrainRate:4
CircleSize:4
OverallDifficulty:4
SliderMultiplier:1.4
SliderTickRate:2

[Events]
//Background and Video events
0,0,"ryo.jpg"
//Break Periods
//Storyboard Layer 0 (Background)
//Storyboard Layer 1 (Fail)
//Storyboard Layer 2 (Pass)
//Storyboard Layer 3 (Foreground)
//Storyboard Sound Samples
//Background Colour Transformations
3,100,255,128,64

[TimingPoints]
25384,426.530177010023,4,0,0,100,1,0

[HitObjects]
88,296,25384,1,0
144,296,25597,1,0
200,296,25810,2,0,B|240:296,1,35
296,232,26237,1,2
240,224,26450,6,0,B|160:224,1,70
112,224,26876,1,0
80,176,27090,1,0
112,128,27303,2,0,B|176:80|240:128|240:128|216:128,1,140
272,168,27943,1,0
288,112,28156,5,0
288,112,28369,1,2
368,40,28796,6,0,B|432:72|432:72|368:104|368:104|432:128|432:128|432:128|432:128|432:128,1,210
430,127,29649,1,0
392,168,29862,1,8
432,208,30075,1,8
392,248,30289,1,8
432,288,30502,1,8
392,328,30715,1,8
336,312,30928,1,8
336,312,31142,1,8
280,312,31355,2,0,B|232:280|232:224|280:192,1,140
376,192,32101,1,8
376,136,32315,1,8
376,80,32528,1,8
240,80,33061,5,0
192,112,33274,1,0
144,80,33488,1,0
96,112,33701,5,8
56,152,33914,1,8
96,192,34127,1,8
56,232,34341,1,8
96,272,34554,1,8
136,312,34767,1,8
256,192,34980,12,0,38179
184,48,38926,5,0
240,48,39139,1,0
211,95,39352,2,0,B|212:134,3,35
216,184,39886,1,0
264,152,40099,1,0
312,120,40312,1,0
352,80,40525,1,0
392,120,40739,1,0
432,160,40952,2,0,B|480:216|368:256|208:184,1,280
208,128,42018,5,2
208,72,42231,1,2
152,72,42445,5,0
96,72,42658,1,0
48,96,42871,1,0
24,144,43085,1,0
8,200,43298,1,0
48,232,43511,1,0
88,200,43724,1,0
136,168,43938,2,0,B|208:128,1,70
216,184,44364,2,0,B|144:232,1,70
264,256,45004,5,8
264,120,45217,1,8
200,184,45430,5,2
264,256,45644,1,2
328,184,45857,1,2
264,120,46070,1,2
144,96,46283,5,2
264,336,46710,1,2
376,104,47137,1,2
376,160,47350,5,2
320,160,47563,1,2
264,160,47776,1,2
264,216,47990,1,2
264,272,48203,2,2,B|152:272|96:176|152:64|272:64,2,350
48,296,51402,5,2
88,256,51615,1,2
128,296,51828,1,2
160,256,52042,1,2
184,208,52255,2,2,B|120:208|120:208|176:144|176:144|96:144,1,210
115,144,53108,1,0
184,56,53534,1,0
240,56,53748,1,0
296,56,53961,1,0
264,104,54174,1,0
208,104,54388,1,0
152,176,54601,6,0,B|320:176,1,175
312,256,55667,5,0
200,256,56094,1,0
296,312,56520,1,0
256,272,56733,1,0
216,312,56947,1,0
184,360,57160,2,0,B|272:392|336:352,1,140
256,272,57800,5,2
376,120,58226,1,2
152,120,58653,1,2
56,64,59079,5,0
56,120,59293,1,0
56,176,59506,1,0
56,232,59719,1,0
56,288,59932,1,0
448,296,60572,5,0
448,240,60786,1,0
448,184,60999,1,0
448,128,61212,1,0
448,72,61425,1,0
392,72,61639,2,0,B|312:72,1,70
152,64,62492,5,0
120,112,62705,1,0
152,160,62918,1,0
120,208,63131,1,0
152,256,63345,1,0
120,304,63558,1,0
152,352,63771,1,0
256,192,63984,12,0,65904
