osu file format v7

[General]
AudioFilename: Monty Python's Holy Grail Camelot_xvid.mp3
AudioLeadIn: 0
PreviewTime: -1
Countdown: 0
SampleSet: Soft
StackLeniency: 0.7
Mode: 0
LetterboxInBreaks: 1

[Editor]
DistanceSpacing: 0.800000011920929
BeatDivisor: 4
GridSize: 32

[Metadata]
Title:Camelot Song
Artist:Monty Python
Creator:WujekGrzyb
Version:Hard
Source:
Tags:

[Difficulty]
HPDrainRate:6
CircleSize:5
OverallDifficulty:7
SliderMultiplier:0.999999999999999
SliderTickRate:1

[Events]
//Background and Video events
Video,64,"Monty Python's Holy Grail Camelot_xvid.avi"
//Break Periods
2,28909,35076
2,46972,54990
2,73970,79325
//Storyboard Layer 0 (Background)
//Storyboard Layer 1 (Fail)
//Storyboard Layer 2 (Pass)
//Storyboard Layer 3 (Foreground)
//Storyboard Sound Samples
//Background Colour Transformations
3,100,163,162,255

[TimingPoints]
17706.9609746726,207.612456747405,4,2,0,100,1,0
19367,-100,4,2,0,100,0,0
55890,420.992738396363,4,2,0,100,1,0
61193,206.185567010309,4,2,0,100,1,0
73918,600,4,2,0,100,1,0
76168,560.747663551402,4,2,0,100,1,0
80225,205.479452054795,4,2,0,100,1,0

[HitObjects]
352,288,19367,6,0,B|448:288|448:128,1,200,0|8
320,160,19990,2,0,B|256:64,1,99.9999999999999
224,64,20405,1,8
160,288,21028,6,0,B|64:288|64:128,1,200,8|8
192,160,21651,2,0,B|256:64,1,99.9999999999999
288,64,22066,1,8
320,192,22689,6,8,B|416:160|320:96,2,99.9999999999999
273,268,23312,1,0
416,288,23520,6,8,B|352:256|448:192|448:192,2,99.9999999999999
463,133,24142,1,0
288,128,24350,6,0,B|357:78|276:38,1,99.9999999999999,8|0
160,192,24765,2,0,B|102:149|190:105,1,99.9999999999999,8|0
238,179,25181,2,0,B|328:200|352:313|334:361,1,200,6|0
392,49,25803,1,0
448,160,26011,5,0
448,160,26115,1,0
448,160,26219,1,8
256,288,26426,1,0
256,288,26530,1,0
256,288,26634,1,8
64,160,26841,1,0
64,160,26945,1,0
64,160,27049,1,8
169,79,27257,2,2,B|233:47|265:47,1,99.9999999999999
302,103,27672,2,0,B|398:103|398:71,1,99.9999999999999
173,177,28087,2,0,B|237:209|301:209,1,99.9999999999999
410,219,28502,2,0,B|378:155|282:155|282:155,1,99.9999999999999,0|8
110,138,35976,6,0,B|110:74|174:42,1,99.9999999999999,8|0
376,87,36392,2,0,B|372:146|312:183,1,99.9999999999999,8|0
174,239,36807,2,0,B|238:239|302:207,1,99.9999999999999,8|8
416,64,37222,1,0
416,64,37430,1,0
160,96,37637,5,10
256,128,37845,1,0
160,160,38052,1,0
256,192,38260,1,2
352,160,38468,1,10
256,128,38675,1,0
352,96,38883,1,0
288,160,39091,6,10,B|224:224|160:192,1,99.9999999999999
128,224,39506,1,4
411,221,40959,5,8
336,259,41167,1,0
256,288,41374,1,8
174,255,41582,1,0
102,220,41790,1,8
151,148,41997,6,0,B|151:84|183:52,1,99.9999999999999,0|8
355,155,42412,2,0,B|355:91|323:59,1,99.9999999999999,0|8
384,256,42828,1,0
320,288,43035,1,8
256,320,43243,1,0
192,288,43450,1,8
128,256,43658,1,12
62,157,44281,6,0,B|94:93|158:93,1,99.9999999999999,2|8
192,160,44696,2,0,B|224:96|288:96,1,99.9999999999999,2|8
320,160,45111,2,0,B|352:96|416:96,1,99.9999999999999,2|8
384,256,45527,1,2
320,288,45734,1,2
160,288,45942,6,8,B|480:192|0:160|480:96|128:64,1,400,8|14
216,243,55890,6,8,B|282:150,1,99.9999999999999,8|0
121,121,56731,1,0
184,100,56942,1,0
251,80,57152,1,0
426,248,57573,2,0,B|441:233|447:227|457:212|464:202,1,50,8|0
411,122,57994,5,0
323,123,58205,1,0
255,187,58415,1,8
255,187,58521,1,0
255,187,58626,1,0
255,187,58731,1,0
255,187,58836,1,0
256,192,59257,12,0,61966
137,199,62842,6,8,B|178:69|233:299|301:144|301:143,1,200,8|8
316,236,63461,1,2
368,199,63667,2,8,B|327:69|272:299|204:144|204:143,1,200
196,235,64285,1,2
69,186,64491,6,0,B|70:114|128:89|239:91|238:89,4,200,8|0|8|0|8
172,245,66553,6,0,B|220:276|280:243,1,99.9999999999999,8|0
286,168,66966,2,0,B|343:140|395:178,1,99.9999999999999,8|0
245,71,67378,1,8
244,70,67481,1,2
244,70,67584,1,2
102,163,67790,2,8,B|62:103|98:57|97:57,1,99.9999999999999
137,216,69440,6,8,B|99:156|144:124|143:123,1,99.9999999999999
238,143,69852,1,0
239,143,69955,1,0
238,143,70058,1,0
339,143,70265,2,8,B|393:145|422:91|421:89,1,99.9999999999999
311,59,70677,2,0,B|275:12|208:61|207:59,1,99.9999999999999,0|2
128,217,71089,5,0
128,217,71192,1,0
128,217,71296,1,0
248,161,71502,1,0
247,161,71605,1,0
247,161,71708,1,0
342,207,71914,2,8,B|395:256|443:204|443:204,1,99.9999999999999
194,254,72739,6,8,B|156:189|190:148|189:148,2,99.9999999999999,8|0|8
255,303,73357,1,0
320,256,73564,1,8
255,182,73770,1,12
153,176,80225,5,0
256,114,80430,1,8
256,114,80533,1,0
256,114,80635,1,0
256,114,80738,1,0
256,114,80841,1,8
384,161,81046,1,0
384,161,81149,1,0
384,161,81252,2,0,B|366:230|322:240,1,99.9999999999999,8|0
224,256,81663,1,8
224,256,81766,1,0
96,224,81868,1,10
96,128,82005,1,10
192,160,82142,1,10
192,64,82279,1,10
288,64,82416,1,10
408,77,82690,5,0
408,77,82793,1,0
408,77,82896,1,0
448,192,83101,1,14
