osu file format v5

[General]
AudioFilename: Monty Norman Orchestra - 01 - James Bond Theme (from Dr. No).mp3
AudioLeadIn: 0
PreviewTime: -1
Countdown: 1
SampleSet: Normal
StackLeniency: 0.7
Mode: 0
LetterboxInBreaks: 1
EditorBookmarks: 487,7300,19856,40782,54115,67240,74115,94110,100491
EditorDistanceSpacing: 1

[Metadata]
Title:James Bond Theme (from Dr. No)
Artist:Monty Norman Orchestra
Creator:i am nobody
Version:Operative
Source:
Tags:

[Difficulty]
HPDrainRate:3
CircleSize:4
OverallDifficulty:4
SliderMultiplier:1.5
SliderTickRate:1

[Events]
//Background and Video events
0,0,"007_James_Bond_003.jpg"
//Break Periods
2,32612,39582
2,77718,79601
//Storyboard Layer 0 (Background)
//Storyboard Layer 1 (Failing)
//Storyboard Layer 2 (Passing)
//Storyboard Layer 3 (Foreground)
//Storyboard Sound Samples
//Background Colour Transformations
3,100,163,162,255

[TimingPoints]
7328,834.470422535207,4,2,0,100,1,0
40782,416.666666666667,4,1,0,100,1,0
67240,416.666666666667,4,1,0,100,1,1
74115,425.431914893618,4,1,0,100,1,1
79645,425.431914893618,4,1,0,100,1,0
94376,425.431914893618,4,1,0,100,1,1

[Colours]
Combo1 : 101,104,120
Combo2 : 5,0,72
Combo3 : 230,230,230
Combo4 : 222,1,1

[HitObjects]
128,112,7327,1,0
192,64,7745,1,0
256,112,8162,1,0
320,64,8579,1,0
384,112,8996,5,0
448,160,9414,1,0
384,208,9831,1,0
448,256,10248,1,0
384,304,10665,6,0,B|320:256,1,75
256,304,11500,1,0
192,256,11917,1,0
128,304,12334,2,0,B|64:256,1,75
128,192,13169,1,0
64,144,13586,1,0
112,80,14003,6,0,B|176:128,1,75
240,160,14838,2,0,B|304:208,1,75,0|0
304,128,15672,2,0,B|240:176,1,75,0|0
176,224,16507,1,0
112,272,16924,2,0,B|112:224,1,37.5
112,208,17237,5,2
112,144,17550,1,2
288,80,18593,1,2
320,80,18801,1,2
352,80,19010,1,2
416,48,20679,5,0
416,128,21096,1,8
416,160,21305,1,0
336,80,21931,1,8
256,80,22348,5,0
176,80,22765,1,8
144,80,22974,1,0
64,144,23600,1,8
64,224,24017,5,0
144,224,24434,1,8
176,224,24643,1,0
256,144,25269,1,8
336,144,25686,5,0
336,224,26103,1,8
336,256,26312,1,0
240,320,26938,1,8
160,288,27355,5,0
128,208,27772,1,8
128,176,27981,1,0
192,80,28606,1,8
272,80,29024,5,0
352,80,29441,1,8
352,112,29650,1,0
352,224,30275,1,8
288,272,30693,5,2
256,272,30901,1,2
80,160,31944,1,2
112,128,32153,1,2
144,96,32362,1,4
208,128,40782,5,0
272,128,40990,1,0
384,128,41407,2,0,B|384:208,1,75
240,304,42240,1,0
208,256,42448,1,0
128,304,42761,2,0,B|128:192|176:112|240:80|368:80,1,375
416,160,44115,1,0
320,224,44532,1,0
112,176,45261,1,0
64,192,45417,1,0
64,304,45782,2,4,B|192:320|320:288|416:208|432:96,1,450
304,80,47448,5,0
208,80,47761,1,0
96,80,48125,2,0,B|96:160,1,75
272,144,48959,1,0
304,112,49115,1,0
368,48,49427,2,0,B|384:176|336:288|160:320|64:288,1,450
112,144,51198,1,0
304,144,51875,1,0
352,128,52032,1,0
416,64,52344,2,4,B|288:16|192:64|128:144|128:256|192:320,1,468.75
320,304,54115,6,0,B|320:176,1,112.5
352,112,54740,2,0,B|272:112,1,75,0|0
64,128,55677,2,0,B|64:176,1,37.5,0|0
64,240,56042,2,0,B|160:304|256:160|368:304|448:240,1,375
432,176,57344,1,0
368,112,57657,2,0,B|288:112,1,75,0|0
144,272,58594,2,0,B|96:272,1,37.5,0|0
48,192,59011,2,4,B|80:80|176:32|288:32|384:80|416:208,1,487.5
304,256,60782,5,0
208,256,61094,1,0
112,208,61459,2,0,B|112:128,1,75
304,176,62344,1,0
288,144,62448,1,0
304,48,62761,2,0,B|432:80|448:192|400:304|288:320|192:304,1,450
160,224,64323,2,0,B|80:224,1,75
240,80,65261,2,0,B|288:80,1,37.5,0|0
256,192,65782,12,4,67032
192,80,67448,5,0
304,80,67761,1,0
416,112,68125,2,0,B|432:144|416:176,1,56.25,0|0
448,256,68542,2,0,B|432:288|448:320,1,56.25,0|0
304,320,69115,5,0
192,320,69427,1,0
80,240,69844,2,0,B|64:208|80:176,1,56.25
128,112,70261,2,0,B|144:80|128:48,1,56.25,0|0
240,64,70782,5,0
160,128,71094,1,0
112,256,71511,2,0,B|144:272|176:256,1,56.25,0|0
256,240,71927,2,0,B|288:224|320:240,1,56.25
400,336,72500,1,0
432,240,72813,1,0
368,112,73229,2,0,B|352:96|304:112,1,56.25,0|0
224,112,73646,2,0,B|192:128|144:112,1,75
64,48,74221,5,0
160,48,74540,1,0
160,176,74912,1,0
256,48,75444,1,0
368,48,75763,1,0
368,176,76188,1,0
256,288,76720,2,0,B|256:208,1,75,0|0
256,128,77093,2,0,B|256:48,1,75
256,56,77465,1,4
304,64,80921,5,0
352,128,81134,2,0,B|400:128,2,37.5,0|0|0
304,192,81560,1,0
400,320,81985,1,0
320,320,82198,1,0
240,320,82410,1,0
160,288,82623,5,0
128,208,82836,2,0,B|80:208,2,37.5
160,128,83261,1,0
304,48,83687,1,0
384,48,83899,1,0
384,128,84112,1,0
384,208,84325,5,0
320,256,84538,2,0,B|320:304,2,37.5
256,208,84963,1,0
128,272,85388,2,0,B|128:192,1,75
128,128,85814,1,0
192,80,86027,5,0
256,112,86239,2,0,B|256:160,2,37.5
320,80,86665,1,0
464,144,87090,2,0,B|464:224,1,75
464,320,87516,1,0
400,272,87728,5,0
336,224,87941,2,0,B|368:192,2,37.5
320,144,88366,1,0
192,80,88792,2,0,B|96:80|80:176,1,150
80,256,89430,5,0
160,272,89643,2,0,B|192:304,2,37.5,0|0|0
192,208,90068,1,0
192,64,90494,1,0
256,64,90706,1,0
320,64,90919,2,0,B|400:128|320:208,1,150
176,304,92355,2,4,B|96:288|64:176|96:80|176:64,2,300
256,192,94535,12,4,96928
256,192,97088,12,4,99481
256,192,100438,5,4
