osu file format v5

[General]
AudioFilename: Monty Norman Orchestra - 01 - James Bond Theme (from Dr. No).mp3
AudioLeadIn: 0
PreviewTime: -1
Countdown: 3
SampleSet: Normal
StackLeniency: 0.7
Mode: 0
LetterboxInBreaks: 1
EditorBookmarks: 487,6560,7300,19856,40782,54115,67240,74115,94110,100491
EditorDistanceSpacing: 0.899999976158142

[Metadata]
Title:James Bond Theme (from Dr. No)
Artist:Monty Norman Orchestra
Creator:i am nobody
Version:Agent
Source:
Tags:

[Difficulty]
HPDrainRate:6
CircleSize:5
OverallDifficulty:7
SliderMultiplier:2
SliderTickRate:1

[Events]
//Background and Video events
0,0,"james%20bond2.jpg"
//Break Periods
2,32612,39582
2,77718,79601
//Storyboard Layer 0 (Background)
//Storyboard Layer 1 (Failing)
//Storyboard Layer 2 (Passing)
//Storyboard Layer 3 (Foreground)
//Storyboard Sound Samples
//Background Colour Transformations
3,100,163,162,255

[TimingPoints]
7328,834.470422535207,4,2,0,100,1,0
40782,416.666666666667,4,1,0,100,1,0
67240,416.666666666667,4,1,0,100,1,1
74115,425.431914893618,4,1,0,100,1,1
79645,425.431914893618,4,1,0,100,1,0
94268,425.431914893618,4,1,0,100,1,1

[Colours]
Combo1 : 101,104,122
Combo2 : 5,0,72
Combo3 : 221,221,221
Combo4 : 222,1,1

[HitObjects]
128,112,7327,1,0
160,80,7536,2,0,B|160:48,2,25,0|0|0
192,112,7953,1,0
272,128,8371,1,0
272,80,8579,1,0
320,80,8788,1,0
368,80,8996,5,0
368,128,9205,2,0,B|416:128,2,25,0|0|0
336,160,9622,1,0
304,240,10040,1,0
352,240,10248,1,0
304,240,10457,1,0
352,240,10665,5,0
352,288,10874,2,0,B|352:320,2,25
304,288,11291,1,0
224,288,11708,1,0
192,304,11917,1,0
144,304,12126,1,0
96,304,12334,5,0
96,256,12543,2,0,B|48:256,2,25
128,224,12960,1,0
192,176,13377,1,0
144,176,13586,1,0
144,128,13795,1,0
96,128,14003,5,0
96,80,14212,1,0
96,80,14316,1,0
96,80,14420,1,0
144,80,14629,1,0
224,80,15046,1,0
256,96,15255,1,0
288,112,15464,1,0
304,144,15672,5,0
304,192,15881,1,0
304,192,15985,1,0
304,192,16089,1,0
288,224,16298,1,0
240,272,16715,1,0
192,272,16924,1,0
144,272,17133,1,0
144,224,17341,5,2
144,176,17550,1,2
352,96,18593,1,2
352,144,18801,1,2
352,192,19010,1,2
416,48,20679,5,0
400,128,21096,1,8
448,128,21305,1,0
368,128,21722,1,0
336,160,21931,1,8
336,208,22139,1,0
288,208,22348,5,0
208,208,22765,1,8
208,160,22974,1,0
208,80,23391,1,0
160,80,23600,1,8
112,80,23808,1,0
96,112,24017,5,0
112,192,24434,1,8
64,192,24643,1,0
80,272,25060,1,0
128,272,25269,1,8
176,272,25477,1,0
224,272,25686,5,0
272,208,26103,1,8
224,208,26312,1,0
272,208,26729,1,0
320,208,26938,1,8
352,240,27146,1,0
320,272,27355,5,0
256,336,27772,1,8
208,336,27981,1,0
176,256,28398,1,0
224,256,28606,1,8
176,256,28815,1,0
176,208,29024,5,0
240,160,29441,1,8
288,160,29650,1,0
288,80,30067,1,0
336,80,30275,1,8
336,128,30484,1,0
288,128,30693,5,2
288,176,30901,1,2
96,224,31944,1,6
96,176,32153,1,4
96,128,32362,1,4
208,112,40782,5,0
208,208,40990,1,0
384,192,41407,2,0,B|320:272,1,100
96,128,42240,1,0
144,192,42448,1,0
80,304,42761,2,4,B|16:224|16:128|64:48|176:0|304:0|416:48|416:128,1,600
400,240,44323,2,0,B|320:320,1,100
144,80,45209,1,0
96,128,45365,1,0
48,304,45782,2,4,B|128:352|224:384|352:368|432:336|496:240|480:144|448:80,1,600
336,224,47448,5,0
336,112,47709,1,0
176,112,48073,2,0,B|96:208,1,100
400,240,48959,1,0
336,208,49115,1,0
400,80,49427,2,4,B|480:144|480:240|432:336|320:384|192:384|112:352|96:288,1,575
64,176,50938,2,0,B|160:112,1,100
416,288,51875,1,0
432,224,52032,1,0
448,96,52344,2,4,B|400:49|352:0|208:0|96:16|16:96|0:192|48:288,1,600
256,336,54115,6,0,B|256:176,1,157.5,0|0
320,64,54740,2,0,B|208:64,1,100
80,120,55625,2,0,B|56:216,1,75,0|0
64,192,56042,2,4,B|80:272|176:352|336:352|432:272|448:192,1,475
448,80,57344,1,0
320,48,57657,2,0,B|208:48,1,100
224,336,58542,2,0,B|128:336,1,78.75
64,224,59011,2,4,B|64:112|112:48|208:32|304:32|432:48|464:112|464:224,1,600
256,320,60782,5,0
256,192,61094,1,0
144,256,61407,2,0,B|64:176,1,100
384,192,62344,1,0
336,192,62448,1,0
288,64,62761,2,4,B|384:64|448:96|480:176|480:272|432:352|320:368|240:352|144:320,1,600
96,208,64323,2,0,B|96:96,1,100
416,128,65261,2,0,B|416:208,1,78.75
256,192,65782,12,4,67032
224,32,67448,5,0
224,160,67761,1,0
336,64,68125,2,4,B|352:96|336:144,1,75
432,192,68542,2,4,B|416:224|432:272,1,75,4|4
288,336,69115,5,0
288,208,69427,1,0
160,320,69844,2,4,B|144:288|160:240,1,78.75
64,192,70261,2,4,B|80:160|64:112,1,78.75
208,80,70782,5,0
336,80,71094,1,0
192,176,71511,1,4
256,176,71667,1,4
352,176,71927,1,4
288,176,72084,1,4
352,336,72500,1,0
368,208,72813,1,0
432,80,73177,1,4
368,48,73334,1,4
272,64,73594,1,4
240,128,73750,1,4
96,48,74168,5,0
224,48,74487,1,0
160,208,74912,1,4
304,48,75444,1,0
432,48,75763,1,0
368,208,76188,1,4
192,288,76667,2,0,B|96:288,1,78.75,0|0
112,176,77093,2,0,B|208:176,1,78.75
256,240,77465,1,4
304,64,80921,5,0
368,128,81134,2,0,B|432:128,2,50,0|0|0
304,192,81560,1,0
416,304,81985,1,0
336,272,82198,1,0
256,304,82410,1,0
176,304,82623,5,0
112,240,82836,2,0,B|48:240,2,50
176,176,83261,1,0
64,64,83687,1,0
128,112,83899,1,0
192,64,84112,1,0
272,64,84325,5,0
352,64,84538,2,0,B|352:128,2,50
432,64,84963,1,0
432,224,85388,2,0,B|320:224,1,100
240,224,85814,1,0
240,144,86027,5,0
240,224,86239,2,0,B|240:288,2,50
144,224,86665,1,0
144,48,87090,2,0,B|272:48,1,100
336,48,87516,1,0
336,128,87728,5,0
368,208,87941,2,0,B|432:160,2,50
400,288,88366,1,0
240,320,88792,2,0,B|192:336|112:320|96:240|144:176,1,200
208,224,89430,5,0
176,144,89643,2,0,B|128:176,2,52.5,0|0|0
144,64,90068,1,0
304,64,90494,1,0
240,128,90706,1,0
320,128,90919,1,0
400,128,91132,2,0,B|464:176|400:224,1,100
208,64,92408,2,4,B|80:64|0:176|80:304|208:304,1,400
288,192,93684,1,0
336,80,94057,1,4
256,192,94535,12,4,95705
256,192,95812,12,4,96981
256,192,97088,12,4,98258
256,192,98364,12,4,100437
