osu file format v5

[General]
AudioFilename: Monty Norman Orchestra - 01 - James Bond Theme (from Dr. No).mp3
AudioLeadIn: 0
PreviewTime: -1
Countdown: 3
SampleSet: Soft
StackLeniency: 0.7
Mode: 0
LetterboxInBreaks: 1
EditorBookmarks: 487,6560,7300,19856,40782,54115,67240,74115,80549,94110,100491
EditorDistanceSpacing: 1

[Metadata]
Title:James Bond Theme (from Dr. No)
Artist:Monty Norman Orchestra
Creator:i am nobody
Version:00 Agent
Source:
Tags:

[Difficulty]
HPDrainRate:6
CircleSize:6
OverallDifficulty:7
SliderMultiplier:2.2
SliderTickRate:1

[Events]
//Background and Video events
0,0,"Bondwallpaper.jpg"
//Break Periods
2,32612,39582
2,77718,79601
//Storyboard Layer 0 (Background)
//Storyboard Layer 1 (Failing)
//Storyboard Layer 2 (Passing)
//Storyboard Layer 3 (Foreground)
//Storyboard Sound Samples
//Background Colour Transformations
3,100,163,162,255

[TimingPoints]
7328,834.470422535208,4,2,0,100,1,0
40782,416.666666666667,4,1,0,100,1,0
65573,416.666666666667,4,1,0,100,1,1
74115,425.431914893618,4,1,0,100,1,1
79645,425.431914893618,4,1,0,100,1,0
94216,425.431914893618,4,1,0,100,1,1

[Colours]
Combo1 : 101,104,112
Combo2 : 5,0,72
Combo3 : 221,221,221
Combo4 : 222,1,1

[HitObjects]
112,112,7327,1,0
176,80,7536,1,0
176,112,7640,1,0
176,144,7745,1,0
240,112,7953,1,0
352,192,8371,1,0
416,192,8579,1,0
416,256,8788,1,0
416,320,8996,5,0
352,352,9205,1,0
352,320,9309,1,0
352,288,9414,1,0
288,320,9622,1,0
176,240,10040,1,0
112,240,10248,1,0
112,176,10457,1,0
128,112,10665,5,0
192,112,10874,2,0,B|224:112,1,27.5
256,112,11083,1,0
320,112,11291,1,0
432,192,11708,1,0
400,256,11917,1,0
368,192,12126,1,0
336,256,12334,5,0
272,256,12543,2,0,B|224:256,1,27.5
208,256,12752,1,0
144,256,12960,1,0
80,144,13377,1,0
112,208,13586,1,0
144,144,13795,1,0
176,208,14003,5,0
240,208,14212,2,0,B|288:208,1,27.5,0|0
304,208,14420,1,0
368,208,14629,1,0
384,80,15046,1,0
320,112,15255,1,0
256,80,15464,1,0
192,112,15672,5,0
160,176,15881,2,0,B|128:176,2,27.5
160,240,16298,1,0
240,304,16611,1,0
304,272,16820,1,0
272,208,17028,1,0
240,256,17237,5,2
160,256,17445,1,2
464,48,18593,1,0
432,112,18801,1,2
368,144,19010,1,6
336,272,19427,2,2,B|208:272,1,110
96,272,20262,1,4
112,144,20679,5,8
112,80,20888,2,0,B|144:80,1,27.5
176,80,21096,1,0
224,112,21305,1,8
272,144,21513,1,0
352,160,21722,2,0,B|352:96,2,55
400,208,22348,5,8
416,272,22557,2,0,B|400:320,1,27.5
368,320,22765,1,0
304,320,22974,1,8
240,320,23182,1,0
176,304,23391,2,0,B|176:240,1,55
112,240,23808,1,0
64,192,24017,5,8
48,128,24226,1,0
48,96,24330,1,0
80,80,24434,1,0
128,128,24643,1,8
192,96,24851,1,0
256,80,25060,1,0
256,144,25269,1,0
256,208,25477,1,0
256,272,25686,5,8
192,288,25894,1,0
208,320,25999,1,0
240,336,26103,1,0
304,320,26312,1,8
368,304,26520,1,0
400,240,26729,1,0
400,176,26938,1,0
336,176,27146,1,0
336,240,27355,5,8
272,240,27563,1,0
240,240,27668,1,0
208,240,27772,1,0
144,240,27981,1,8
80,208,28189,1,0
96,128,28398,1,0
160,128,28606,1,0
96,128,28815,1,0
160,128,29024,5,8
224,128,29232,1,0
208,160,29337,1,0
240,176,29441,1,0
304,176,29650,1,8
368,208,29858,1,0
432,176,30067,1,8
368,144,30275,1,8
368,208,30484,1,8
352,272,30693,5,2
304,304,30901,1,2
80,160,31944,1,4
144,160,32153,1,4
208,160,32362,1,4
320,272,40782,5,0
320,160,40990,1,0
96,160,41407,2,0,B|96:288,1,110
432,272,42240,1,0
384,176,42448,1,0
224,240,42761,2,4,B|112:176|112:176|192:144|192:144|176:64|176:64|272:96|272:96|320:16|320:16|384:96,1,577.5
384,160,44011,1,0
304,304,44323,2,0,B|224:304,2,55
256,160,45209,1,0
208,96,45365,1,0
64,224,45729,2,0,B|80:304|160:320|224:304,1,192.5
272,304,46198,1,4
320,304,46302,1,4
400,192,46563,1,4
400,112,46719,1,4
320,112,46875,1,4
64,272,47448,5,0
176,272,47657,1,0
368,160,48073,2,0,B|368:288,1,110
64,96,48959,1,0
144,64,49115,1,0
304,64,49427,2,4,B|368:128|368:128|272:176|272:176|320:240|320:240|224:240|224:240|208:320|208:320|96:288,1,550
96,192,50677,1,0
160,64,50938,2,0,B|240:64,2,55
224,272,51823,1,0
320,224,52032,1,0
416,128,52292,2,0,B|400:64|336:32|224:48,1,220
176,48,52813,1,4
128,48,52917,1,4
64,160,53177,1,4
64,240,53334,1,4
144,240,53490,1,4
464,336,54115,6,0,B|464:192,1,137.5,0|0
320,64,54740,2,0,B|192:64,1,110
48,80,55573,2,0,B|48:192,1,110,0|0
48,192,55990,2,4,B|0:336|112:384|240:312|256:16|272:312|400:384|512:336|464:192,1,632.5
384,192,57344,1,0
304,48,57657,2,0,B|224:48,2,55
160,304,58542,2,0,B|48:304,1,110
48,160,59011,2,0,B|32:48|160:48,1,165
256,192,59479,12,4,60365
368,304,60782,5,0
208,304,61094,1,0
256,192,61302,12,0,61667
160,64,62344,5,0
208,64,62448,1,0
256,192,62761,12,4,63802
208,288,64011,5,0
80,192,64323,2,0,B|80:64,1,110
224,48,65261,2,0,B|320:48,1,82.5,0|0
256,192,65782,12,4,67032
192,80,67448,5,0
352,80,67761,1,0
448,240,68125,2,0,B|448:304|400:304,1,82.5
272,256,68542,2,0,B|208:256|208:192,1,82.5
48,64,69115,5,0
208,64,69427,1,0
240,288,69844,2,0,B|240:224|304:224,1,82.5
416,224,70261,2,0,B|480:240|464:304,1,82.5
336,144,70782,5,0
192,224,71094,1,0
80,32,71511,2,0,B|32:64|80:128,1,82.5
112,240,71927,2,0,B|176:240|192:288,1,82.5
368,160,72500,1,0
448,304,72813,1,0
432,112,73177,2,0,B|384:144|432:208,1,82.5
288,240,73594,2,0,B|224:240|224:176,1,82.5
80,48,74168,5,0
80,208,74487,1,4
304,208,74912,1,4
304,48,75391,1,0
304,208,75710,1,0
96,208,76135,1,4
96,304,76667,2,0,B|224:304,1,110,0|0
320,304,77093,2,0,B|448:304,1,110
432,224,77465,1,4
304,64,80921,5,0
384,144,81134,2,0,B|448:144,2,55,0|0|0
304,224,81560,1,0
96,272,81985,1,0
96,160,82198,1,0
208,160,82410,1,0
208,272,82623,5,0
304,224,82836,2,0,B|352:272,2,55,0|0|0
384,288,83261,1,0
432,80,83687,1,0
320,80,83899,1,0
320,192,84112,1,0
432,192,84325,5,0
400,304,84537,1,0
352,320,84643,1,0
304,320,84749,1,0
240,240,84963,1,0
80,80,85388,2,0,B|208:80,1,110
144,176,85814,1,0
240,128,86027,5,0
192,224,86238,1,0
224,256,86345,1,0
256,256,86451,1,0
336,176,86665,1,0
336,64,87090,2,0,B|208:64,1,110
192,176,87516,1,0
288,240,87728,5,0
384,304,87940,2,0,B|384:240,1,55,0|0
384,192,88153,1,0
384,80,88366,1,0
160,80,88792,2,0,B|80:64|32:80|16:160|64:208,1,220
112,288,89430,5,0
224,304,89642,2,0,B|304:304,1,55
336,304,89855,1,0
288,208,90068,1,0
400,64,90440,1,0
288,64,90653,1,0
240,144,90866,1,0
336,144,91079,2,0,B|384:192|336:256,1,110
112,336,92354,2,4,B|112:224|256:112|400:224|400:336,2,440
256,192,94535,12,4,95705
256,192,95812,12,4,96981
256,192,97088,12,4,98258
256,192,98364,12,0,99852
256,320,100437,5,4
