osu file format v14

[General]
AudioFilename: 1.mp3
AudioLeadIn: 0
PreviewTime: -1
Countdown: 0
SampleSet: Normal
StackLeniency: 0.7
Mode: 3
LetterboxInBreaks: 1
SpecialStyle: 0
WidescreenStoryboard: 0

[Editor]
Bookmarks: 281600,310850,509961,523641,616357,622977,934531,941386,1131671,1133386,1337386,1339073,1486041,1723755,1757560,1976096,2007056,2268176,2272016,2489516,2504516,2680958,2711414,2942183,2971834,3196834,3211953
DistanceSpacing: 1
BeatDivisor: 4
GridSize: 4
TimelineZoom: 1.9

[Metadata]
Title:Voyage (Passage Album Mix)
TitleUnicode:Voyage (Passage Album Mix)
Artist:Monstercat
ArtistUnicode:Monstercat
Creator:Gangsterkill
Version:4K Marathon
Source:Monstercat
Tags:Nitro Fun Final Boss Pegboard Nerds Swamp Thing Razihel Aero Chord Titans Hellberg The Girl feat. Cozi Zuehlsdorff Color Source Remix Deon Custom Roses Kasbo Again Hyper Potions Subtact Adventures Stephen Walking Hyper Potions Saturday Morning Space Ride Mr FijiWiji Aphasia Rootkit Concrete Jungle P.Keys PIXL This Time Varien Supercell Veela Eminence Knock Me Out Anna Cyzon Au5 Inside Danyka Nadeau Trivecta Drift Away Charlotte Haining
BeatmapID:766993
BeatmapSetID:347614

[Difficulty]
HPDrainRate:6
CircleSize:4
OverallDifficulty:7
ApproachRate:5
SliderMultiplier:1.4
SliderTickRate:1

[Events]
//Background and Video events
//Break Periods
2,93954,309650
//Storyboard Layer 0 (Background)
//Storyboard Layer 1 (Fail)
//Storyboard Layer 2 (Pass)
//Storyboard Layer 3 (Foreground)
//Storyboard Sound Samples

[TimingPoints]
985,461.538461538462,4,1,0,100,1,0
90061,-55.5555555555556,4,1,0,100,0,0
90523,-1000,4,1,0,100,0,0
90638,-55.5555555555556,4,1,0,100,0,0
90869,-1000,4,1,0,100,0,0
90985,-55.5555555555556,4,1,0,100,0,0
91215,-1000,4,1,0,100,0,0
91331,-55.5555555555556,4,1,0,100,0,0
91446,-100,4,1,0,100,0,0
91908,-55.5555555555556,4,1,0,100,0,0
92370,-1000,4,1,0,100,0,0
92485,-55.5555555555556,4,1,0,100,0,0
92716,-1000,4,1,0,100,0,0
92832,-55.5555555555556,4,1,0,100,0,0
93062,-1000,4,1,0,100,0,0
93178,-55.5555555555556,4,1,0,100,0,0
93293,-100,4,1,0,100,0,0
310850,444.444444444444,4,1,0,100,1,0
509961,827.586206896552,4,1,0,100,1,0
510374,-100,4,1,0,100,0,0
510412,413.793103448276,4,1,0,100,1,0
728894,428.411914893618,4,1,0,100,1,0
941386,428.571428571429,4,1,0,100,1,0
1133386,750,4,1,0,100,1,0
1339073,374.92,4,1,0,100,1,0
1508063,555.555555555556,4,1,0,100,1,0
1508340,555.195555555556,4,1,0,100,1,0
1757560,487.80487804878,4,1,0,100,1,0
1976096,480,4,1,0,100,1,0
2007056,480,4,1,0,100,1,0
2272016,468.75,4,1,0,100,1,0
2515766,472.44094488189,4,1,0,100,1,0
2517655,476.190476190476,4,1,0,100,1,0
2519678,480,4,1,0,100,1,0
2711414,461.538461538462,4,1,0,100,1,0
2971834,468.75,4,1,0,100,1,0
3211953,476.190476190476,4,1,0,100,1,0

[HitObjects]
64,192,985,5,0,0:0:0:0:
320,192,985,1,0,0:0:0:0:
192,192,1100,1,0,0:0:0:0:
320,192,1215,1,0,0:0:0:0:
448,192,1331,1,0,0:0:0:0:
320,192,1561,1,0,0:0:0:0:
192,192,1677,1,0,0:0:0:0:
64,192,1792,1,0,0:0:0:0:
192,192,1908,128,0,2138:0:0:0:0:
320,192,2254,1,0,0:0:0:0:
448,192,2485,1,0,0:0:0:0:
64,192,2600,1,0,0:0:0:0:
320,192,2715,1,0,0:0:0:0:
448,192,2831,1,0,0:0:0:0:
320,192,2946,1,0,0:0:0:0:
192,192,3061,1,0,0:0:0:0:
64,192,3177,1,0,0:0:0:0:
320,192,3408,1,0,0:0:0:0:
448,192,3523,1,0,0:0:0:0:
320,192,3638,1,0,0:0:0:0:
192,192,3754,128,0,3985:0:0:0:0:
64,192,4100,1,0,0:0:0:0:
448,192,4331,1,0,0:0:0:0:
64,192,4446,1,0,0:0:0:0:
448,192,4561,1,0,0:0:0:0:
64,192,4677,1,0,0:0:0:0:
448,192,4792,1,0,0:0:0:0:
192,192,4908,1,0,0:0:0:0:
320,192,5023,1,0,0:0:0:0:
448,192,5254,1,0,0:0:0:0:
320,192,5369,1,0,0:0:0:0:
192,192,5485,1,0,0:0:0:0:
64,192,5600,128,0,5831:0:0:0:0:
448,192,5946,1,0,0:0:0:0:
64,192,6177,1,0,0:0:0:0:
320,192,6292,1,0,0:0:0:0:
448,192,6408,1,0,0:0:0:0:
64,192,6523,1,0,0:0:0:0:
192,192,6638,1,0,0:0:0:0:
448,192,6754,1,0,0:0:0:0:
320,192,6869,1,0,0:0:0:0:
64,192,7100,1,0,0:0:0:0:
448,192,7215,1,0,0:0:0:0:
320,192,7331,1,0,0:0:0:0:
192,192,7446,128,0,7677:0:0:0:0:
64,192,7446,128,0,8369:0:0:0:0:
192,192,8369,1,0,0:0:0:0:
320,192,8485,1,0,0:0:0:0:
448,192,8600,1,0,0:0:0:0:
320,192,8715,1,0,0:0:0:0:
64,192,8831,1,0,0:0:0:0:
192,192,8831,1,0,0:0:0:0:
320,192,8946,1,0,0:0:0:0:
192,192,9061,1,0,0:0:0:0:
320,192,9177,1,0,0:0:0:0:
448,192,9292,128,0,9523:0:0:0:0:
320,192,9638,1,0,0:0:0:0:
64,192,9869,1,0,0:0:0:0:
192,192,9985,1,0,0:0:0:0:
320,192,10100,1,0,0:0:0:0:
448,192,10215,1,0,0:0:0:0:
64,192,10215,1,0,0:0:0:0:
320,192,10331,1,0,0:0:0:0:
192,192,10446,1,0,0:0:0:0:
320,192,10561,1,0,0:0:0:0:
64,192,10677,1,0,0:0:0:0:
448,192,10677,1,0,0:0:0:0:
192,192,10792,1,0,0:0:0:0:
320,192,10908,1,0,0:0:0:0:
192,192,11023,1,0,0:0:0:0:
64,192,11138,128,0,11369:0:0:0:0:
320,192,11485,1,0,0:0:0:0:
320,192,11715,1,0,0:0:0:0:
64,192,11831,1,0,0:0:0:0:
448,192,11946,1,0,0:0:0:0:
192,192,12061,1,0,0:0:0:0:
64,192,12061,1,0,0:0:0:0:
320,192,12177,1,0,0:0:0:0:
448,192,12292,1,0,0:0:0:0:
320,192,12408,1,0,0:0:0:0:
448,192,12523,1,0,0:0:0:0:
320,192,12523,1,0,0:0:0:0:
192,192,12638,1,0,0:0:0:0:
64,192,12754,1,0,0:0:0:0:
192,192,12869,1,0,0:0:0:0:
64,192,12985,128,0,13215:0:0:0:0:
448,192,13331,1,0,0:0:0:0:
448,192,13561,1,0,0:0:0:0:
320,192,13677,1,0,0:0:0:0:
192,192,13792,1,0,0:0:0:0:
448,192,13908,1,0,0:0:0:0:
64,192,13908,128,0,14600:0:0:0:0:
320,192,14138,1,0,0:0:0:0:
448,192,14600,128,0,15292:0:0:0:0:
320,192,14600,1,0,0:0:0:0:
320,192,15061,1,0,0:0:0:0:
64,192,15292,1,0,0:0:0:0:
192,192,15408,1,0,0:0:0:0:
320,192,15523,1,0,0:0:0:0:
448,192,15638,1,0,0:0:0:0:
64,192,15754,1,0,0:0:0:0:
192,192,15754,1,0,0:0:0:0:
320,192,15869,1,0,0:0:0:0:
448,192,15985,1,0,0:0:0:0:
320,192,16100,1,0,0:0:0:0:
192,192,16215,1,0,0:0:0:0:
64,192,16215,1,0,0:0:0:0:
448,192,16331,1,0,0:0:0:0:
320,192,16446,1,0,0:0:0:0:
448,192,16561,1,0,0:0:0:0:
64,192,16677,1,0,0:0:0:0:
320,192,16677,1,0,0:0:0:0:
192,192,16792,1,0,0:0:0:0:
320,192,16908,1,0,0:0:0:0:
448,192,17023,1,0,0:0:0:0:
448,192,17138,1,0,0:0:0:0:
192,192,17138,1,0,0:0:0:0:
320,192,17254,1,0,0:0:0:0:
192,192,17369,1,0,0:0:0:0:
64,192,17485,1,0,0:0:0:0:
448,192,17600,1,0,0:0:0:0:
192,192,17600,1,0,0:0:0:0:
320,192,17715,1,0,0:0:0:0:
192,192,17831,1,0,0:0:0:0:
64,192,17946,1,0,0:0:0:0:
192,192,18061,1,0,0:0:0:0:
320,192,18061,1,0,0:0:0:0:
448,192,18177,1,0,0:0:0:0:
64,192,18292,1,0,0:0:0:0:
192,192,18408,1,0,0:0:0:0:
320,192,18523,1,0,0:0:0:0:
64,192,18523,1,0,0:0:0:0:
192,192,18638,1,0,0:0:0:0:
320,192,18754,1,0,0:0:0:0:
448,192,18869,1,0,0:0:0:0:
448,192,18985,1,0,0:0:0:0:
320,192,18985,1,0,0:0:0:0:
192,192,19100,1,0,0:0:0:0:
320,192,19215,1,0,0:0:0:0:
448,192,19331,1,0,0:0:0:0:
192,192,19446,1,0,0:0:0:0:
448,192,19446,1,0,0:0:0:0:
320,192,19561,1,0,0:0:0:0:
192,192,19677,1,0,0:0:0:0:
64,192,19792,1,0,0:0:0:0:
192,192,19908,1,0,0:0:0:0:
320,192,19908,1,0,0:0:0:0:
448,192,20023,1,0,0:0:0:0:
320,192,20138,1,0,0:0:0:0:
192,192,20254,1,0,0:0:0:0:
320,192,20369,1,0,0:0:0:0:
64,192,20369,1,0,0:0:0:0:
448,192,20485,1,0,0:0:0:0:
64,192,20600,1,0,0:0:0:0:
320,192,20715,1,0,0:0:0:0:
192,192,20831,1,0,0:0:0:0:
64,192,20831,1,0,0:0:0:0:
320,192,20946,1,0,0:0:0:0:
448,192,21061,1,0,0:0:0:0:
320,192,21177,1,0,0:0:0:0:
192,192,21292,1,0,0:0:0:0:
64,192,21408,1,0,0:0:0:0:
192,192,21523,1,0,0:0:0:0:
320,192,21638,1,0,0:0:0:0:
448,192,21754,1,0,0:0:0:0:
64,192,21754,1,0,0:0:0:0:
320,192,21869,1,0,0:0:0:0:
192,192,21985,1,0,0:0:0:0:
320,192,22100,1,0,0:0:0:0:
448,192,22215,1,0,0:0:0:0:
64,192,22215,128,0,23138:0:0:0:0:
320,192,22331,1,0,0:0:0:0:
192,192,22446,1,0,0:0:0:0:
448,192,22561,1,0,0:0:0:0:
320,192,22677,1,0,0:0:0:0:
192,192,22792,1,0,0:0:0:0:
448,192,22908,1,0,0:0:0:0:
320,192,23023,1,0,0:0:0:0:
192,192,23138,1,0,0:0:0:0:
320,192,23254,1,0,0:0:0:0:
448,192,23369,1,0,0:0:0:0:
448,192,23485,1,0,0:0:0:0:
64,192,23600,1,0,0:0:0:0:
192,192,23600,1,0,0:0:0:0:
320,192,23715,1,0,0:0:0:0:
448,192,23831,1,0,0:0:0:0:
320,192,23946,1,0,0:0:0:0:
192,192,24061,1,0,0:0:0:0:
64,192,24061,1,0,0:0:0:0:
320,192,24177,1,0,0:0:0:0:
192,192,24292,1,0,0:0:0:0:
320,192,24408,1,0,0:0:0:0:
448,192,24523,1,0,0:0:0:0:
192,192,24523,1,0,0:0:0:0:
64,192,24638,1,0,0:0:0:0:
320,192,24754,1,0,0:0:0:0:
64,192,24869,1,0,0:0:0:0:
192,192,24985,1,0,0:0:0:0:
320,192,24985,1,0,0:0:0:0:
448,192,25100,1,0,0:0:0:0:
64,192,25215,1,0,0:0:0:0:
448,192,25331,1,0,0:0:0:0:
448,192,25446,1,0,0:0:0:0:
192,192,25446,1,0,0:0:0:0:
64,192,25446,1,0,0:0:0:0:
320,192,25561,1,0,0:0:0:0:
448,192,25677,1,0,0:0:0:0:
320,192,25792,1,0,0:0:0:0:
64,192,25908,1,0,0:0:0:0:
320,192,25908,1,0,0:0:0:0:
448,192,25908,1,0,0:0:0:0:
192,192,26023,1,0,0:0:0:0:
64,192,26138,1,0,0:0:0:0:
192,192,26254,1,0,0:0:0:0:
320,192,26369,1,0,0:0:0:0:
448,192,26369,1,0,0:0:0:0:
64,192,26369,1,0,0:0:0:0:
320,192,26485,1,0,0:0:0:0:
448,192,26600,1,0,0:0:0:0:
64,192,26715,1,0,0:0:0:0:
64,192,26831,1,0,0:0:0:0:
192,192,26831,1,0,0:0:0:0:
320,192,26831,1,0,0:0:0:0:
448,192,26946,1,0,0:0:0:0:
320,192,27061,1,0,0:0:0:0:
192,192,27177,1,0,0:0:0:0:
320,192,27292,1,0,0:0:0:0:
192,192,27292,1,0,0:0:0:0:
448,192,27292,1,0,0:0:0:0:
64,192,27408,1,0,0:0:0:0:
192,192,27523,1,0,0:0:0:0:
320,192,27638,1,0,0:0:0:0:
448,192,27754,1,0,0:0:0:0:
320,192,27869,1,0,0:0:0:0:
192,192,27985,1,0,0:0:0:0:
64,192,28100,1,0,0:0:0:0:
448,192,28215,1,0,0:0:0:0:
320,192,28331,1,0,0:0:0:0:
192,192,28446,1,0,0:0:0:0:
64,192,28561,1,0,0:0:0:0:
64,192,28677,128,0,29369:0:0:0:0:
448,192,28677,128,0,29369:0:0:0:0:
320,192,28677,1,0,0:0:0:0:
320,192,29023,1,0,0:0:0:0:
192,192,29369,128,0,30523:0:0:0:0:
320,192,29369,1,0,0:0:0:0:
320,192,29715,1,0,0:0:0:0:
320,192,30523,1,0,0:0:0:0:
448,192,30523,1,0,0:0:0:0:
320,192,30985,1,0,0:0:0:0:
192,192,30985,1,0,0:0:0:0:
64,192,31215,1,0,0:0:0:0:
192,192,31215,1,0,0:0:0:0:
448,192,31446,1,0,0:0:0:0:
192,192,31446,128,0,31908:0:0:0:0:
64,192,31908,1,0,0:0:0:0:
320,192,32138,1,0,0:0:0:0:
448,192,32138,1,0,0:0:0:0:
192,192,32138,128,0,33523:0:0:0:0:
64,192,32369,1,0,0:0:0:0:
64,192,32831,1,0,0:0:0:0:
64,192,33292,1,0,0:0:0:0:
320,192,33523,128,0,33754:0:0:0:0:
448,192,33754,128,0,33985:0:0:0:0:
320,192,33985,128,0,34215:0:0:0:0:
64,192,34215,128,0,34677:0:0:0:0:
192,192,34677,128,0,34908:0:0:0:0:
448,192,34908,128,0,35138:0:0:0:0:
64,192,35138,128,0,35600:0:0:0:0:
320,192,35138,128,0,35600:0:0:0:0:
192,192,35600,1,0,0:0:0:0:
448,192,35600,128,0,35831:0:0:0:0:
64,192,35831,128,0,37908:0:0:0:0:
448,192,36061,1,0,0:0:0:0:
448,192,36523,1,0,0:0:0:0:
448,192,36985,1,0,0:0:0:0:
448,192,37446,1,0,0:0:0:0:
448,192,37908,128,0,38369:0:0:0:0:
320,192,37908,128,0,38369:0:0:0:0:
64,192,38369,128,0,38600:0:0:0:0:
320,192,38600,128,0,38831:0:0:0:0:
192,192,38831,128,0,39061:0:0:0:0:
448,192,39061,128,0,39523:0:0:0:0:
64,192,39061,128,0,39523:0:0:0:0:
320,192,39523,128,0,39985:0:0:0:0:
64,192,39985,128,0,40215:0:0:0:0:
448,192,39985,128,0,40215:0:0:0:0:
192,192,40215,128,0,40446:0:0:0:0:
320,192,40215,1,0,0:0:0:0:
448,192,40446,128,0,40908:0:0:0:0:
64,192,40446,128,0,41600:0:0:0:0:
448,192,41138,1,0,0:0:0:0:
448,192,41369,1,0,0:0:0:0:
448,192,41600,1,0,0:0:0:0:
192,192,41600,128,0,42061:0:0:0:0:
64,192,42061,128,0,42292:0:0:0:0:
320,192,42292,128,0,42523:0:0:0:0:
192,192,42292,1,0,0:0:0:0:
192,192,42523,128,0,42754:0:0:0:0:
64,192,42523,1,0,0:0:0:0:
448,192,42754,128,0,43215:0:0:0:0:
320,192,42754,1,0,0:0:0:0:
64,192,43215,128,0,45292:0:0:0:0:
192,192,43215,1,0,0:0:0:0:
192,192,43446,1,0,0:0:0:0:
192,192,43908,1,0,0:0:0:0:
192,192,44369,1,0,0:0:0:0:
448,192,44600,1,0,0:0:0:0:
192,192,44831,1,0,0:0:0:0:
448,192,45061,1,0,0:0:0:0:
448,192,45177,1,0,0:0:0:0:
448,192,45292,1,0,0:0:0:0:
320,192,45292,1,0,0:0:0:0:
448,192,45754,1,0,0:0:0:0:
320,192,45754,1,0,0:0:0:0:
320,192,45985,1,0,0:0:0:0:
192,192,45985,1,0,0:0:0:0:
192,192,46100,1,0,0:0:0:0:
64,192,46215,1,0,0:0:0:0:
192,192,46215,1,0,0:0:0:0:
64,192,46446,1,0,0:0:0:0:
448,192,46677,1,0,0:0:0:0:
64,192,46908,1,0,0:0:0:0:
192,192,46908,1,0,0:0:0:0:
320,192,47138,1,0,0:0:0:0:
448,192,47369,1,0,0:0:0:0:
320,192,47369,1,0,0:0:0:0:
64,192,47600,1,0,0:0:0:0:
320,192,47831,1,0,0:0:0:0:
192,192,48061,1,0,0:0:0:0:
448,192,48292,1,0,0:0:0:0:
320,192,48523,1,0,0:0:0:0:
192,192,48754,1,0,0:0:0:0:
320,192,48985,1,0,0:0:0:0:
448,192,48985,1,0,0:0:0:0:
64,192,48985,128,0,49446:0:0:0:0:
192,192,49446,1,0,0:0:0:0:
320,192,49446,1,0,0:0:0:0:
448,192,49677,1,0,0:0:0:0:
64,192,49677,1,0,0:0:0:0:
320,192,49908,128,0,50369:0:0:0:0:
192,192,49908,1,0,0:0:0:0:
64,192,50369,128,0,50600:0:0:0:0:
448,192,50369,128,0,50600:0:0:0:0:
192,192,50600,1,0,0:0:0:0:
320,192,50831,1,0,0:0:0:0:
448,192,51061,1,0,0:0:0:0:
320,192,51292,1,0,0:0:0:0:
192,192,51523,1,0,0:0:0:0:
64,192,51638,1,0,0:0:0:0:
192,192,51754,1,0,0:0:0:0:
320,192,51985,1,0,0:0:0:0:
448,192,52215,1,0,0:0:0:0:
320,192,52446,1,0,0:0:0:0:
64,192,52677,128,0,53138:0:0:0:0:
192,192,52677,1,0,0:0:0:0:
448,192,52677,1,0,0:0:0:0:
320,192,53138,1,0,0:0:0:0:
192,192,53369,1,0,0:0:0:0:
64,192,53600,1,0,0:0:0:0:
320,192,53831,1,0,0:0:0:0:
448,192,54292,1,0,0:0:0:0:
64,192,54292,1,0,0:0:0:0:
320,192,54292,128,0,54754:0:0:0:0:
192,192,54754,1,0,0:0:0:0:
64,192,54754,1,0,0:0:0:0:
320,192,54985,1,0,0:0:0:0:
448,192,54985,1,0,0:0:0:0:
320,192,55215,1,0,0:0:0:0:
64,192,55215,1,0,0:0:0:0:
448,192,55215,128,0,55677:0:0:0:0:
320,192,55677,1,0,0:0:0:0:
64,192,55677,1,0,0:0:0:0:
192,192,55908,1,0,0:0:0:0:
448,192,55908,1,0,0:0:0:0:
320,192,56138,1,0,0:0:0:0:
192,192,56369,1,0,0:0:0:0:
320,192,56369,1,0,0:0:0:0:
448,192,56369,1,0,0:0:0:0:
64,192,56831,1,0,0:0:0:0:
192,192,56831,1,0,0:0:0:0:
320,192,56831,1,0,0:0:0:0:
448,192,57061,1,0,0:0:0:0:
320,192,57292,1,0,0:0:0:0:
192,192,57523,1,0,0:0:0:0:
64,192,57754,1,0,0:0:0:0:
192,192,57985,1,0,0:0:0:0:
320,192,58100,1,0,0:0:0:0:
448,192,58215,128,0,60061:0:0:0:0:
320,192,58215,1,0,0:0:0:0:
192,192,58677,1,0,0:0:0:0:
64,192,59138,1,0,0:0:0:0:
192,192,59600,1,0,0:0:0:0:
320,192,60061,1,0,0:0:0:0:
192,192,60177,1,0,0:0:0:0:
64,192,60292,1,0,0:0:0:0:
192,192,60408,1,0,0:0:0:0:
320,192,60523,1,0,0:0:0:0:
448,192,60638,1,0,0:0:0:0:
320,192,60754,1,0,0:0:0:0:
192,192,60869,1,0,0:0:0:0:
64,192,60985,128,0,61215:0:0:0:0:
448,192,61331,1,0,0:0:0:0:
448,192,61561,1,0,0:0:0:0:
320,192,61677,1,0,0:0:0:0:
192,192,61792,1,0,0:0:0:0:
64,192,61908,1,0,0:0:0:0:
192,192,62023,1,0,0:0:0:0:
448,192,62138,1,0,0:0:0:0:
320,192,62254,1,0,0:0:0:0:
64,192,62369,1,0,0:0:0:0:
192,192,62485,1,0,0:0:0:0:
448,192,62600,1,0,0:0:0:0:
320,192,62715,1,0,0:0:0:0:
192,192,62831,128,0,63061:0:0:0:0:
64,192,63177,1,0,0:0:0:0:
448,192,63408,1,0,0:0:0:0:
64,192,63523,1,0,0:0:0:0:
448,192,63638,1,0,0:0:0:0:
64,192,63754,1,0,0:0:0:0:
64,192,63869,1,0,0:0:0:0:
320,192,63985,1,0,0:0:0:0:
320,192,64100,1,0,0:0:0:0:
448,192,64215,1,0,0:0:0:0:
448,192,64331,1,0,0:0:0:0:
192,192,64446,1,0,0:0:0:0:
192,192,64561,1,0,0:0:0:0:
320,192,64677,128,0,64908:0:0:0:0:
192,192,65023,1,0,0:0:0:0:
64,192,65254,1,0,0:0:0:0:
192,192,65369,1,0,0:0:0:0:
320,192,65485,1,0,0:0:0:0:
64,192,65600,1,0,0:0:0:0:
448,192,65715,1,0,0:0:0:0:
320,192,65831,1,0,0:0:0:0:
192,192,65946,1,0,0:0:0:0:
320,192,66061,1,0,0:0:0:0:
192,192,66177,1,0,0:0:0:0:
64,192,66292,1,0,0:0:0:0:
192,192,66408,1,0,0:0:0:0:
320,192,66523,128,0,66754:0:0:0:0:
448,192,66869,1,0,0:0:0:0:
448,192,67100,1,0,0:0:0:0:
448,192,67215,1,0,0:0:0:0:
448,192,67331,1,0,0:0:0:0:
64,192,67446,1,0,0:0:0:0:
192,192,67561,1,0,0:0:0:0:
320,192,67677,1,0,0:0:0:0:
64,192,67792,1,0,0:0:0:0:
192,192,67908,1,0,0:0:0:0:
320,192,68023,1,0,0:0:0:0:
448,192,68138,1,0,0:0:0:0:
320,192,68254,1,0,0:0:0:0:
192,192,68369,128,0,68600:0:0:0:0:
64,192,68715,1,0,0:0:0:0:
192,192,68946,1,0,0:0:0:0:
448,192,69061,1,0,0:0:0:0:
64,192,69177,1,0,0:0:0:0:
320,192,69292,1,0,0:0:0:0:
192,192,69408,1,0,0:0:0:0:
448,192,69523,1,0,0:0:0:0:
320,192,69638,1,0,0:0:0:0:
192,192,69754,1,0,0:0:0:0:
64,192,69869,1,0,0:0:0:0:
320,192,69985,1,0,0:0:0:0:
192,192,70100,1,0,0:0:0:0:
448,192,70215,128,0,70446:0:0:0:0:
320,192,70561,1,0,0:0:0:0:
64,192,70792,1,0,0:0:0:0:
448,192,70908,1,0,0:0:0:0:
64,192,71023,1,0,0:0:0:0:
448,192,71138,1,0,0:0:0:0:
320,192,71254,1,0,0:0:0:0:
192,192,71369,1,0,0:0:0:0:
320,192,71485,1,0,0:0:0:0:
192,192,71600,1,0,0:0:0:0:
64,192,71715,1,0,0:0:0:0:
192,192,71831,1,0,0:0:0:0:
320,192,71946,1,0,0:0:0:0:
448,192,72061,128,0,72292:0:0:0:0:
320,192,72408,1,0,0:0:0:0:
64,192,72638,1,0,0:0:0:0:
320,192,72754,1,0,0:0:0:0:
192,192,72869,1,0,0:0:0:0:
448,192,72985,1,0,0:0:0:0:
192,192,73100,1,0,0:0:0:0:
64,192,73215,1,0,0:0:0:0:
320,192,73331,1,0,0:0:0:0:
448,192,73446,1,0,0:0:0:0:
320,192,73561,1,0,0:0:0:0:
192,192,73677,1,0,0:0:0:0:
64,192,73792,1,0,0:0:0:0:
192,192,73908,128,0,74138:0:0:0:0:
448,192,74600,1,0,0:0:0:0:
448,192,74715,1,0,0:0:0:0:
448,192,74831,1,0,0:0:0:0:
320,192,74831,1,0,0:0:0:0:
448,192,75061,1,0,0:0:0:0:
320,192,75292,1,0,0:0:0:0:
192,192,75292,1,0,0:0:0:0:
64,192,75523,1,0,0:0:0:0:
192,192,75754,1,0,0:0:0:0:
320,192,75754,1,0,0:0:0:0:
448,192,75985,1,0,0:0:0:0:
320,192,76215,1,0,0:0:0:0:
192,192,76215,1,0,0:0:0:0:
448,192,76446,1,0,0:0:0:0:
64,192,76677,1,0,0:0:0:0:
320,192,76677,1,0,0:0:0:0:
448,192,76908,1,0,0:0:0:0:
320,192,77138,1,0,0:0:0:0:
64,192,77138,1,0,0:0:0:0:
448,192,77369,1,0,0:0:0:0:
320,192,77600,1,0,0:0:0:0:
64,192,77600,1,0,0:0:0:0:
448,192,77831,1,0,0:0:0:0:
192,192,78061,1,0,0:0:0:0:
448,192,78061,1,0,0:0:0:0:
320,192,78292,1,0,0:0:0:0:
64,192,78523,1,0,0:0:0:0:
448,192,78523,1,0,0:0:0:0:
320,192,78754,1,0,0:0:0:0:
192,192,78985,1,0,0:0:0:0:
448,192,78985,1,0,0:0:0:0:
320,192,79215,1,0,0:0:0:0:
64,192,79446,1,0,0:0:0:0:
448,192,79446,1,0,0:0:0:0:
64,192,79677,1,0,0:0:0:0:
64,192,79908,1,0,0:0:0:0:
320,192,79908,1,0,0:0:0:0:
448,192,80138,1,0,0:0:0:0:
64,192,80369,1,0,0:0:0:0:
320,192,80369,1,0,0:0:0:0:
448,192,80600,1,0,0:0:0:0:
192,192,80831,1,0,0:0:0:0:
320,192,80831,1,0,0:0:0:0:
448,192,81061,1,0,0:0:0:0:
320,192,81292,1,0,0:0:0:0:
448,192,81292,1,0,0:0:0:0:
448,192,81523,1,0,0:0:0:0:
192,192,81754,1,0,0:0:0:0:
320,192,81754,1,0,0:0:0:0:
64,192,81985,1,0,0:0:0:0:
192,192,82215,1,0,0:0:0:0:
320,192,82446,1,0,0:0:0:0:
64,192,82677,1,0,0:0:0:0:
448,192,82677,1,0,0:0:0:0:
320,192,82908,1,0,0:0:0:0:
192,192,83138,1,0,0:0:0:0:
448,192,83138,1,0,0:0:0:0:
320,192,83485,1,0,0:0:0:0:
192,192,83485,1,0,0:0:0:0:
448,192,83600,1,0,0:0:0:0:
64,192,83600,1,0,0:0:0:0:
320,192,83831,1,0,0:0:0:0:
192,192,84061,1,0,0:0:0:0:
448,192,84061,1,0,0:0:0:0:
320,192,84292,1,0,0:0:0:0:
448,192,84523,1,0,0:0:0:0:
64,192,84523,1,0,0:0:0:0:
448,192,84754,1,0,0:0:0:0:
448,192,84985,1,0,0:0:0:0:
192,192,84985,1,0,0:0:0:0:
448,192,85331,1,0,0:0:0:0:
192,192,85331,1,0,0:0:0:0:
64,192,85446,1,0,0:0:0:0:
320,192,85446,1,0,0:0:0:0:
320,192,85677,1,0,0:0:0:0:
64,192,85908,1,0,0:0:0:0:
448,192,85908,1,0,0:0:0:0:
192,192,86138,1,0,0:0:0:0:
320,192,86138,1,0,0:0:0:0:
192,192,86369,1,0,0:0:0:0:
320,192,86369,1,0,0:0:0:0:
64,192,86600,1,0,0:0:0:0:
448,192,86600,1,0,0:0:0:0:
448,192,86831,1,0,0:0:0:0:
192,192,86831,1,0,0:0:0:0:
448,192,87061,1,0,0:0:0:0:
192,192,87061,1,0,0:0:0:0:
320,192,87292,1,0,0:0:0:0:
64,192,87292,1,0,0:0:0:0:
64,192,87523,1,0,0:0:0:0:
320,192,87523,1,0,0:0:0:0:
192,192,87754,1,0,0:0:0:0:
448,192,87754,1,0,0:0:0:0:
192,192,87985,1,0,0:0:0:0:
448,192,87985,1,0,0:0:0:0:
320,192,88215,1,0,0:0:0:0:
448,192,88215,1,0,0:0:0:0:
64,192,88446,1,0,0:0:0:0:
192,192,88446,1,0,0:0:0:0:
64,192,88677,1,0,0:0:0:0:
320,192,88677,1,0,0:0:0:0:
320,192,88908,1,0,0:0:0:0:
448,192,88908,1,0,0:0:0:0:
64,192,89138,1,0,0:0:0:0:
192,192,89138,1,0,0:0:0:0:
320,192,89138,1,0,0:0:0:0:
448,192,89138,1,0,0:0:0:0:
64,192,89600,128,0,90061:0:0:0:0:
320,192,90061,1,0,0:0:0:0:
448,192,90061,1,0,0:0:0:0:
192,192,90523,1,0,0:0:0:0:
64,192,90523,1,0,0:0:0:0:
448,192,90523,1,0,0:0:0:0:
320,192,90869,1,0,0:0:0:0:
448,192,90869,1,0,0:0:0:0:
64,192,90869,1,0,0:0:0:0:
192,192,91215,1,0,0:0:0:0:
64,192,91215,1,0,0:0:0:0:
448,192,91215,1,0,0:0:0:0:
448,192,91446,1,0,0:0:0:0:
320,192,91561,1,0,0:0:0:0:
192,192,91677,1,0,0:0:0:0:
64,192,91792,1,0,0:0:0:0:
64,192,91908,1,0,0:0:0:0:
320,192,91908,1,0,0:0:0:0:
448,192,91908,1,0,0:0:0:0:
64,192,92369,1,0,0:0:0:0:
192,192,92369,1,0,0:0:0:0:
320,192,92369,1,0,0:0:0:0:
448,192,92715,1,0,0:0:0:0:
320,192,92715,1,0,0:0:0:0:
192,192,92715,1,0,0:0:0:0:
64,192,93061,1,0,0:0:0:0:
192,192,93061,1,0,0:0:0:0:
320,192,93061,1,0,0:0:0:0:
448,192,93292,1,0,0:0:0:0:
320,192,93292,1,0,0:0:0:0:
64,192,93523,1,0,0:0:0:0:
192,192,93523,1,0,0:0:0:0:
320,192,93638,1,0,0:0:0:0:
448,192,93754,1,0,0:0:0:0:
64,192,310850,132,0,311294:0:0:0:0:
320,192,311072,1,0,0:0:0:0:
448,192,311294,1,0,0:0:0:0:
320,192,311294,1,0,0:0:0:0:
64,192,311516,1,0,0:0:0:0:
320,192,311627,1,0,0:0:0:0:
448,192,311738,1,0,0:0:0:0:
320,192,311850,1,0,0:0:0:0:
448,192,311961,1,0,0:0:0:0:
192,192,312183,1,0,0:0:0:0:
64,192,312183,1,0,0:0:0:0:
448,192,312405,1,0,0:0:0:0:
448,192,312627,128,0,313072:0:0:0:0:
320,192,312850,1,0,0:0:0:0:
192,192,313072,1,0,0:0:0:0:
448,192,313294,1,0,0:0:0:0:
320,192,313405,1,0,0:0:0:0:
192,192,313516,1,0,0:0:0:0:
64,192,313627,1,0,0:0:0:0:
192,192,313738,1,0,0:0:0:0:
320,192,313961,1,0,0:0:0:0:
448,192,313961,1,0,0:0:0:0:
192,192,314183,1,0,0:0:0:0:
320,192,314405,1,0,0:0:0:0:
448,192,314405,128,0,314850:0:0:0:0:
64,192,314627,1,0,0:0:0:0:
320,192,314850,1,0,0:0:0:0:
192,192,315072,1,0,0:0:0:0:
320,192,315183,1,0,0:0:0:0:
64,192,315294,1,0,0:0:0:0:
192,192,315405,1,0,0:0:0:0:
448,192,315516,1,0,0:0:0:0:
320,192,315738,1,0,0:0:0:0:
192,192,315850,1,0,0:0:0:0:
64,192,315961,1,0,0:0:0:0:
192,192,316072,1,0,0:0:0:0:
320,192,316183,1,0,0:0:0:0:
448,192,316294,1,0,0:0:0:0:
320,192,316405,1,0,0:0:0:0:
448,192,316516,1,0,0:0:0:0:
320,192,316627,1,0,0:0:0:0:
64,192,316738,1,0,0:0:0:0:
192,192,316850,1,0,0:0:0:0:
64,192,316961,1,0,0:0:0:0:
192,192,317072,1,0,0:0:0:0:
320,192,317183,1,0,0:0:0:0:
448,192,317294,1,0,0:0:0:0:
448,192,317405,1,0,0:0:0:0:
448,192,317516,1,0,0:0:0:0:
320,192,317627,1,0,0:0:0:0:
192,192,317738,128,0,317850:0:0:0:0:
64,192,317961,128,0,318405:0:0:0:0:
