osu file format v12

[General]
AudioFilename: Most Epic OSTs Ever- Suspense.mp3
AudioLeadIn: 0
PreviewTime: 66150
Countdown: 0
SampleSet: Soft
StackLeniency: 0.7
Mode: 0
LetterboxInBreaks: 0
EpilepsyWarning: 1
WidescreenStoryboard: 1

[Editor]
Bookmarks: 17150,65170,94150,96150,98150,111650,114150,129150,144150,146150,158150,160150,162150,177150,177650
DistanceSpacing: 1
BeatDivisor: 4
GridSize: 4
TimelineZoom: 1

[Metadata]
Title:Suspense
TitleUnicode:Suspense
Artist:Monophobia Studio
ArtistUnicode:Monophobia Studio
Creator:Koalazy
Version:Normal
Source:
Tags:OST cello cinematic drum piano audiojungle
BeatmapID:360905
BeatmapSetID:144668

[Difficulty]
HPDrainRate:4
CircleSize:3
OverallDifficulty:4
ApproachRate:5
SliderMultiplier:2
SliderTickRate:1

[Events]
//Background and Video events
0,0,"01232014-11366.png",0,0
//Break Periods
2,114350,127950
//Storyboard Layer 0 (Background)
//Storyboard Layer 1 (Fail)
//Storyboard Layer 2 (Pass)
//Storyboard Layer 3 (Foreground)
Sprite,Foreground,Centre,"Blackout.jpg",320,240 M,0,63650,,320,240 F,0,63650,64150,0,1 F,0,64150,66150,1
Sprite,Foreground,Centre,"white.png",320,240 M,0,64650,66150,316,113,318,205 F,0,66150,66400,1,0
Sprite,Foreground,Centre,"Blackout.jpg",320,240 M,0,94150,,320,240 F,0,94150,96150,0,1 F,0,96150,98150,1 F,0,98150,98275,1,0
Sprite,Foreground,Centre,"white.png",320,240 M,0,96150,96275,514,262,506,286 M,0,96275,96400,506,286,506,313 M,0,96400,96525,506,313,502,351 M,0,96525,96650,502,351,501,374 M,0,96650,96775,501,374,478,399 M,0,96775,96900,478,399,461,418 M,0,96900,97025,461,418,443,427 M,0,97025,97150,443,427,406,432 F,0,97150,97400,1,0
Sprite,Foreground,Centre,"white.png",320,240 M,0,97650,,391,323 F,0,97650,97900,1,0.06327271
Sprite,Foreground,Centre,"Blackout.jpg",320,240 M,0,110150,,320,240 F,0,111650,112150,0,1 F,0,112150,114150,1 F,0,114150,114400,1,0
Sprite,Foreground,Centre,"white.png",320,240 M,0,112150,112275,131,122,167,123 M,0,112275,112400,167,123,199,119 M,0,112400,112525,199,119,229,118 M,0,112525,112650,229,118,263,122 M,0,112650,112775,263,122,277,133 M,0,112775,112900,277,133,297,153 M,0,112900,113025,297,153,309,186 M,0,113025,113150,309,186,308,216 M,0,113150,113275,308,216,306,249 M,0,113275,113400,306,249,300,263 M,0,113400,113525,300,263,267,260 M,0,113525,113650,267,260,242,264 F,0,113650,,1 F,0,113650,113900,1,0
Sprite,Foreground,Centre,"Blackout.jpg",320,240 F,0,140150,142150,0,1 F,0,142150,146150,1 F,0,146150,146275,1,0
Sprite,Foreground,Centre,"white.png",320,240 M,0,142150,142275,377,394,404,384 M,0,142275,142400,404,384,434,384 M,0,142400,142525,434,384,445,362 M,0,142525,142650,445,362,458,338 M,0,142650,142775,458,338,450,312 M,0,142775,142900,450,312,421,286 M,0,142900,143025,421,286,397,272 M,0,143025,143150,397,272,378,281 M,0,143150,143275,378,281,347,296 M,0,143275,143400,347,296,337,320 M,0,143400,143525,337,320,337,346 M,0,143525,143650,337,346,344,372 F,0,143650,143900,1,0
Sprite,Foreground,Centre,"Blackout.jpg",320,240 M,0,157150,158150,320,240 F,0,157150,158150,0,1 M,0,158150,159150,320,240 F,0,158150,159150,1 F,0,159150,162150,1
Sprite,Foreground,Centre,"Blackout.jpg",320,240 M,0,176150,,320,240 F,0,176150,177150,0,1 F,0,177150,177650,1 F,0,177650,180150,1
Sprite,Foreground,Centre,"thanks.png",320,240 M,0,178150,,320,240 F,0,178150,178400,0,1 F,0,178400,179900,1 F,0,179900,180150,1,0
Sprite,Foreground,Centre,"purple.png",320,240 M,0,114150,,134,270 F,0,114150,114275,1 F,0,114275,114650,1,0
Sprite,Foreground,Centre,"white.png",320,240 M,0,177150,177400,319,150,317,97 M,0,177400,177650,317,97,316,152 F,0,177650,177900,1,0
Sprite,Foreground,Centre,"white.png",320,240 M,0,158150,158400,406,295,403,350 M,0,158400,158650,403,350,409,288 F,0,158650,158900,1,0
Sprite,Foreground,Centre,"white.png",320,240 M,0,159150,159400,294,330,292,384 M,0,159400,159650,292,384,294,327 F,0,159650,159900,1,0
//Storyboard Sound Samples
//Background Colour Transformations
3,100,163,162,255

[TimingPoints]
1150,1000,4,2,1,30,1,0
31650,-100,4,2,1,25,0,0
32150,-100,4,2,1,20,0,0
32650,-100,4,2,1,15,0,0
33150,-100,4,1,1,50,0,0
64650,-400,4,1,1,50,0,0
66150,1000,4,1,1,70,1,1
66150,-83.3333333333333,4,1,1,70,0,1
82025,-83.3333333333333,4,1,1,70,0,0
82150,-83.3333333333333,4,1,1,70,0,1
98025,-83.3333333333333,4,1,1,70,0,0
98150,-83.3333333333333,4,1,1,70,0,1
111650,-83.3333333333333,4,1,1,70,0,1
112150,-83.3333333333333,4,1,1,70,0,1
113650,-83.3333333333333,4,1,1,30,0,1
114150,-100,4,1,1,30,0,0
129150,-83.3333333333333,4,1,1,70,0,0
162150,-83.3333333333333,4,1,1,50,0,0
163150,-100,4,2,1,30,0,0

[Colours]
Combo1 : 225,225,225
Combo2 : 157,60,255
Combo3 : 6,146,221
Combo4 : 242,30,120

[HitObjects]
276,160,17150,6,0,P|279:209|263:256,1,100,2|0,0:0|0:0,0:0:0:0:
171,217,18150,2,0,P|167:167|183:120,1,100,2|0,0:0|0:0,0:0:0:0:
264,56,19150,1,2,0:0:0:0:
360,64,19650,1,0,0:0:0:0:
440,120,20150,1,2,0:0:0:0:
472,216,20650,1,0,0:0:0:0:
448,312,21150,6,0,L|320:312,1,100,2|0,0:0|0:0,0:0:0:0:
360,216,22150,2,0,L|260:216,1,100,2|0,0:0|0:0,0:0:0:0:
192,288,23150,1,2,0:0:0:0:
128,216,23650,1,0,0:0:0:0:
192,144,24150,1,2,0:0:0:0:
256,72,24650,1,0,0:0:0:0:
160,56,25150,6,0,P|112:92|100:136,2,100,2|0|2,0:0|0:0|0:0,0:0:0:0:
256,72,26650,1,0,0:0:0:0:
360,72,27150,2,0,B|392:128|392:128|400:200|328:248,1,200,2|2,0:0|0:0,0:0:0:0:
248,296,28650,1,0,0:0:0:0:
152,320,29150,6,0,B|120:264|120:264|112:192|184:144,1,200,2|2,0:0|0:0,0:0:0:0:
256,192,31150,12,4,33150,0:0:0:0:
384,72,33650,5,0,0:0:0:0:
384,72,34150,2,0,P|432:152|360:248,1,200,0|0,0:0|0:0,0:0:0:0:
288,256,35650,1,0,0:0:0:0:
200,200,36150,2,0,L|112:128,1,100
48,72,37150,5,4,0:0:0:0:
144,48,37650,1,0,0:0:0:0:
240,48,38150,1,0,0:0:0:0:
408,152,39150,5,0,0:0:0:0:
320,192,39650,1,0,0:0:0:0:
224,224,40150,2,0,L|248:288,2,50
128,232,41150,22,0,B|96:192|96:192|88:152|96:120,1,100,4|0,0:0|0:0,0:0:0:0:
160,64,42150,1,0,0:0:0:0:
360,64,43150,2,0,P|416:56|480:80,2,100,0|0|0,0:0|0:0|0:0,0:0:0:0:
296,144,44650,1,0,0:0:0:0:
296,240,45150,6,0,B|248:280|208:288|152:280|104:224,1,200,4|0,0:0|0:0,0:0:0:0:
176,160,46650,1,0,0:0:0:0:
240,88,47150,2,0,L|264:24,2,50,0|0|0,0:0|0:0|0:0,0:0:0:0:
336,112,48150,2,0,L|316:157,2,50
424,160,49150,6,0,B|464:176|472:200|480:232|464:248|464:248|464:272,1,100,4|0,0:0|0:0,0:0:0:0:
408,320,50150,1,0,0:0:0:0:
408,320,50650,1,0,0:0:0:0:
312,312,51150,2,0,P|216:264|136:320,1,200,0|0,0:0|0:0,0:0:0:0:
56,256,52650,1,0,0:0:0:0:
72,160,53150,22,0,B|112:104|160:88|192:88,1,100,4|0,0:0|0:0,0:0:0:0:
248,96,54150,1,0,0:0:0:0:
336,136,54650,1,0,0:0:0:0:
368,232,55150,2,0,B|336:312|248:360|168:344,1,200,0|0,0:0|0:0,0:0:0:0:
128,296,56650,1,0,0:0:0:0:
84,204,57150,6,0,L|160:132,1,100,4|0,0:0|0:0,0:0:0:0:
256,160,58150,2,0,P|305:170|350:140,1,100
288,64,59150,1,0,0:0:0:0:
384,56,59650,1,0,0:0:0:0:
448,136,60150,2,0,L|448:200,2,50
256,192,61150,12,0,63150,0:0:0:0:
256,56,64150,5,0,0:0:0:0:
256,56,64650,6,0,L|256:152,1,75,0|4,0:0|0:0,0:0:0:0:
256,248,66650,5,0,0:0:0:0:
256,248,67150,2,0,B|296:240|296:240|332:212|332:212|368:204,1,119.999996337891
444,112,68150,2,0,P|376:96|340:56,1,119.999996337891
224,76,69150,2,0,P|204:136|156:168,1,119.999996337891
248,248,70150,5,4,0:0:0:0:
360,280,70650,1,0,0:0:0:0:
440,192,71150,2,0,B|480:176|464:120|464:120|432:72,1,119.999996337891,8|0,0:0|0:0,0:0:0:0:
332,44,72150,2,0,B|292:60|308:116|308:116|340:164,1,119.999996337891
304,264,73150,2,0,L|344:324,2,59.9999981689454,8|0|0,0:0|0:0|0:0,0:0:0:0:
192,304,74150,6,0,P|152:256|136:184,1,119.999996337891,4|0,0:0|0:0,0:0:0:0:
184,96,75150,2,0,P|224:144|240:216,1,119.999996337891,8|0,0:0|0:0,0:0:0:0:
192,304,76150,2,0,L|328:304,1,119.999996337891,0|0,0:0|0:0,0:0:0:0:
232,216,77150,2,0,L|280:160,2,59.9999981689454,8|0|0,0:0|0:0|0:0,0:0:0:0:
144,136,78150,22,0,B|192:136|224:112|256:56,1,119.999996337891,4|0,0:0|0:0,0:0:0:0:
352,120,79150,2,0,B|328:161|332:201|365:256,1,119.999996337891,8|0,0:0|0:0,0:0:0:0:
256,296,80150,2,0,B|232:254|195:238|130:239,1,119.999996337891,4|0,0:0|0:0,0:0:0:0:
56,168,81150,2,0,L|112:144,1,59.9999981689454,8|0,0:0|0:0,0:0:0:0:
168,120,81650,2,0,L|240:88,1,59.9999981689454
280,72,82150,6,0,P|344:56|408:72,1,119.999996337891,4|0,0:0|0:0,0:0:0:0:
344,176,83150,1,8,0:0:0:0:
344,296,83650,1,0,0:0:0:0:
344,296,83900,1,0,0:0:0:0:
344,296,84150,1,0,0:0:0:0:
224,296,84650,2,0,P|176:272|144:192,2,119.999996337891,0|8|0,0:0|0:0|0:0,0:0:0:0:
344,296,86150,6,0,B|344:248|344:248|352:232|344:216|344:216|344:160,1,119.999996337891,4|0,0:0|0:0,0:0:0:0:
456,216,87150,1,8,0:0:0:0:
440,96,87650,1,0,0:0:0:0:
440,96,87900,1,0,0:0:0:0:
440,96,88150,1,0,0:0:0:0:
344,160,88650,2,0,B|312:168|280:104|240:104,2,119.999996337891,0|8|0,0:0|0:0|0:0,0:0:0:0:
280,264,90150,21,4,0:0:0:0:
160,280,90650,1,0,0:0:0:0:
208,168,91150,1,8,0:0:0:0:
280,264,91650,2,0,L|328:320,2,59.9999981689454,0|0|0,0:0|0:0|0:0,0:0:0:0:
328,152,92650,1,0,0:0:0:0:
256,56,93150,2,0,B|192:56|192:56|128:104,1,119.999996337891,8|0,0:0|0:0,0:0:0:0:
96,200,94150,6,0,B|140:233|140:233|204:233,1,119.999996337891,4|0,0:0|0:0,0:0:0:0:
328,248,95150,1,8,0:0:0:0:
360,128,95650,1,0,0:0:0:0:
416,136,95900,1,0,0:0:0:0:
456,184,96150,22,0,B|448:280|448:280|416:368|336:368,1,239.999992675781,4|8,0:0|0:0,0:0:0:0:
328,248,97650,1,8,0:0:0:0:
312,128,98150,38,0,B|240:80|160:88|112:160|112:208,1,239.999992675781,4|0,0:0|0:0,0:0:0:0:
232,224,99650,1,0,0:0:0:0:
232,224,100150,2,0,B|296:224|296:224|288:256|328:296|368:256|360:224|360:224|424:224,1,239.999992675781,0|0,0:0|0:0,0:0:0:0:
424,104,101650,2,0,L|480:64,2,59.9999981689454,0|0|4,0:0|0:0|0:0,0:0:0:0:
304,80,102650,22,0,B|248:80|248:80|200:64|176:96,1,119.999996337891
128,192,103650,2,0,L|72:168,2,59.9999981689454,0|0|0,0:0|0:0|0:0,0:0:0:0:
80,304,104650,2,0,B|136:304|136:304|184:320|208:288,1,119.999996337891
256,192,105650,1,0,0:0:0:0:
160,120,106150,6,0,P|152:256|256:304,1,239.999992675781,4|0,0:0|0:0,0:0:0:0:
256,192,107650,1,0,0:0:0:0:
282,80,108150,2,0,P|372:151|352:264,1,239.999992675781
256,192,109650,1,0,0:0:0:0:
160,120,110150,5,4,0:0:0:0:
160,120,110650,1,0,0:0:0:0:
72,40,111150,1,0,0:0:0:0:
72,40,111650,1,0,0:0:0:0:
72,40,112150,6,0,B|184:40|184:40|272:96|240:192|240:192|152:192,1,359.999989013672
72,192,114150,5,4,0:0:0:0:
432,48,129150,6,0,L|432:112,2,59.9999981689454,8|0|8,0:0|0:0|0:0,0:0:0:0:
328,112,130150,6,0,P|280:160|208:168,1,119.999996337891,4|0,0:0|0:0,0:0:0:0:
128,224,131150,2,0,B|144:272|184:296|240:288,1,119.999996337891
336,256,132150,2,0,L|336:128,2,119.999996337891,0|0|0,0:0|0:0|0:0,0:0:0:0:
440,312,133650,1,0,0:0:0:0:
440,192,134150,21,4,0:0:0:0:
440,192,134650,1,0,0:0:0:0:
336,136,135150,2,0,P|240:112|208:112,1,119.999996337891
112,168,136150,1,0,0:0:0:0:
64,280,136650,1,0,0:0:0:0:
184,284,137150,2,0,L|184:368,2,59.9999981689454
304,288,138150,5,4,0:0:0:0:
376,192,138650,1,0,0:0:0:0:
344,72,139150,1,0,0:0:0:0:
224,48,139650,1,0,0:0:0:0:
128,120,140150,1,0,0:0:0:0:
120,240,140650,1,0,0:0:0:0:
200,328,141150,1,0,0:0:0:0:
200,328,141400,1,0,0:0:0:0:
200,328,141650,1,0,0:0:0:0:
320,328,142150,22,0,P|286:305|297:316,1,359.999989013672
256,192,144150,12,4,146150,0:0:0:0:
448,160,147150,38,0,P|396:108|340:92,1,119.999996337891
344,212,148150,1,0,0:0:0:0:
344,212,148650,2,0,P|277:180|219:185,2,119.999996337891
424,304,150150,21,4,0:0:0:0:
304,296,150650,2,0,L|160:280,1,119.999996337891
64,264,151650,1,0,0:0:0:0:
136,168,152150,2,0,P|184:128|256:112,1,119.999996337891,0|0,0:0|0:0,0:0:0:0:
360,96,153150,2,0,L|432:80,2,59.9999981689454
320,208,154150,5,4,0:0:0:0:
224,280,154650,2,0,B|192:320|144:328|208:304|96:312,1,119.999996337891
80,192,155650,1,0,0:0:0:0:
192,152,156150,2,0,P|256:128|304:80,1,119.999996337891,0|0,0:0|0:0,0:0:0:0:
412,116,157150,2,0,L|476:104,2,59.9999981689454
348,220,158150,22,0,L|348:292,2,59.9999981689454,4|0|0,0:0|0:0|0:0,0:0:0:0:
232,252,159150,2,0,L|232:336,2,59.9999981689454,4|0|0,0:0|0:0|0:0,0:0:0:0:
256,192,160150,12,4,162150,0:0:0:0:
88,48,163150,22,0,B|32:112|80:168|80:168|80:264,1,200,2|2,0:0|0:0,0:0:0:0:
176,264,164650,1,0,0:0:0:0:
272,296,165150,2,0,L|376:328,2,100,2|0|2,0:0|0:0|0:0,0:0:0:0:
448,200,167150,6,0,B|448:152|448:152|432:128|448:104|448:104|448:56|376:40,1,200,2|2,0:0|0:0,0:0:0:0:
280,40,168650,1,0,0:0:0:0:
184,60,169150,2,0,P|132:88|104:144,1,100,2|0,0:0|0:0,0:0:0:0:
204,156,170150,1,2,0:0:0:0:
396,212,171150,22,0,B|356:300|356:300|308:268|252:324,1,200,2|2,0:0|0:0,0:0:0:0:
112,180,173150,2,0,B|152:92|152:92|200:124|256:68,1,200,2|2,0:0|0:0,0:0:0:0:
348,248,175150,6,0,P|276:280|148:232,1,200,2|2,0:0|0:0,0:0:0:0:
256,72,177150,22,2,L|256:74|256:16,2,50,6|6|6,0:0|0:0|0:0,0:0:0:0:
