osu file format v9

[General]
AudioFilename: Moonbright - Anata Magic.mp3
AudioLeadIn: 2000
PreviewTime: 56922
Countdown: 1
SampleSet: Normal
StackLeniency: 0.4
Mode: 0
LetterboxInBreaks: 1

[Editor]
DistanceSpacing: 0.6
BeatDivisor: 4
GridSize: 8

[Metadata]
Title:Anata Magic (TV Size)
Artist:Monobright
Creator:jericho2442
Version:Shinpachi
Source:Gintama
Tags:opening op 6 arken1015 arien666 Hikato

[Difficulty]
HPDrainRate:3
CircleSize:3
OverallDifficulty:2
ApproachRate:2
SliderMultiplier:0.999999999999999
SliderTickRate:2

[Events]
//Background and Video events
Video,99,"Gintama OP6.avi"
0,0,"Gintama OP6.jpg"
//Break Periods
//Storyboard Layer 0 (Background)
//Storyboard Layer 1 (Fail)
//Storyboard Layer 2 (Pass)
//Storyboard Layer 3 (Foreground)
//Storyboard Sound Samples
//Background Colour Transformations
3,100,163,162,255

[TimingPoints]
728,379.746835443038,4,1,1,85,1,0
56930,-100,4,1,1,85,0,1
68322,-100,4,1,1,85,0,0
69082,-100,4,1,1,85,0,1
81234,-100,4,1,1,85,0,0

[Colours]
Combo1 : 206,4,4
Combo2 : 183,91,0
Combo3 : 202,202,0

[HitObjects]
40,40,728,1,0
160,40,1487,1,2
280,56,2246,1,0
336,160,3006,1,2
280,264,3765,5,0
192,344,4525,1,2
72,344,5284,1,0
128,240,6044,1,2
8,240,6803,6,0,B|16:160|68:125|100:117|147:123,1,200,0|2
261,124,8322,2,0,B|302:118|334:126|386:161|394:241,1,200,0|2
256,192,9841,12,4,12120
72,192,14398,6,0,B|200:192|200:336,1,200,0|8
256,336,15538,1,0
312,315,15917,2,0,B|319:191|439:191,1,200,2|8
424,72,17436,6,0,B|296:112|336:32|208:72,1,200,0|8
168,64,18576,1,0
112,64,18955,2,0,B|21:163|111:160|20:259,1,200,2|8
35,302,20095,1,0
96,312,20474,6,0,B|200:360|304:312,2,200,2|8|0
192,240,22753,5,2
192,184,23133,1,8
208,128,23512,1,0
256,96,23892,1,0
320,96,24272,1,2
368,128,24652,1,8
392,184,25031,1,0
480,264,25791,5,2
480,208,26171,1,8
480,152,26550,2,0,B|456:48|360:0,2,200,2|8|0
368,184,28829,5,2
312,184,29209,1,8
256,192,29588,1,0
208,224,29968,1,0
200,280,30348,1,2
160,328,30727,1,8
104,328,31107,1,0
32,232,31867,5,2
72,184,32246,1,8
32,136,32626,2,0,B|0:56|88:-16|152:32,1,200,2|0
184,64,33765,1,8
232,24,34145,2,0,B|352:24,1,99.9999999999999,2|0
336,80,34905,2,0,B|448:80,1,99.9999999999999,0|8
472,128,35664,1,2
256,232,37183,6,0,B|296:280|280:344,1,99.9999999999999,2|8
232,360,37943,2,0,B|171:349|151:307,1,99.9999999999999
200,272,38702,6,0,B|131:177|18:193,1,200,2|8
32,72,40221,1,0
152,72,40981,6,0,B|264:72|312:72|336:16,1,200,2|0
384,56,42120,1,8
416,104,42500,2,0,B|365:134|366:174|368:294,1,200,2|0
264,344,44019,5,2
208,344,44398,1,8
152,336,44778,2,0,B|96:336|96:192|16:192,1,200,2|8
24,72,46297,1,0
136,32,47057,6,0,B|192:16|200:88|272:88|272:88|336:88|336:88,1,200,2|0
368,120,48196,1,8
321,158,48576,2,0,B|320:157|273:158|273:158|201:158|193:230|137:214,1,200,2|0
136,336,50095,6,0,B|248:336,1,99.9999999999999,2|8
296,336,50854,2,0,B|408:336|440:208,1,200,2|8
440,160,51993,1,0
408,112,52373,2,0,B|368:72|304:80,1,99.9999999999999,2|0
256,80,53133,2,0,B|192:80|160:24,1,99.9999999999999,8|0
112,40,53892,1,2
32,264,55411,6,0,B|96:240|136:384|208:360,2,200,2|8|2
32,200,57310,5,8
32,136,57690,2,0,B|96:160|136:16|208:40,1,200,0|2
256,56,58829,1,8
313,37,59209,2,0,B|379:31|416:158|475:135,1,200,0|2
480,192,60348,5,8
480,256,60728,2,0,B|416:232|376:376|304:352,1,200,0|2
256,352,61867,1,8
200,352,62246,2,0,B|200:288|136:280,1,99.9999999999999,0|4
88,272,63006,5,2
48,232,63386,1,8
40,176,63765,2,0,B|40:120|112:88|160:128|160:128|184:88|184:88,1,200,0|2
216,48,64905,1,8
253,94,65284,2,0,B|249:88|273:128|273:128|321:88|393:120|393:176,1,200,0|2
392,232,66424,1,8
256,192,66803,12,4,68322
256,40,69082,5,2
312,40,69462,1,0
368,40,69841,2,0,B|424:40|448:104,1,99.9999999999999,8|0
448,152,70601,2,0,B|336:152|336:152|296:152|272:184|280:224,1,200,2|8
256,264,71740,5,0
224,312,72120,2,0,B|184:352|120:344,1,99.9999999999999,2|0
72,328,72879,2,0,B|24:288|32:224,1,99.9999999999999,8|0
32,184,73639,2,0,B|32:56|168:56,1,200,2|8
216,56,74778,1,4
272,56,75158,6,0,B|336:56|360:16,1,99.9999999999999,2|8
416,16,75917,2,0,B|416:120,1,99.9999999999999
416,176,76677,2,0,B|416:276,1,99.9999999999999,2|8
359,274,77436,2,0,B|335:235|271:235,1,99.9999999999999
211,235,78196,6,0,B|147:235|123:275,1,99.9999999999999,2|8
67,275,78955,2,0,B|67:171,1,99.9999999999999
64,112,79715,2,0,B|64:64|128:40|128:40|168:80|224:64|224:64,1,200,2|4
336,64,81234,6,0,B|416:64|464:176|408:280|408:280|344:240|280:280|280:280,1,400,2|0
256,160,83512,1,8
230,277,84272,6,0,B|232:278|168:238|104:278|104:278|48:174|96:62|176:62,1,400,2|0
256,152,86550,1,8
256,152,87310,1,4
